#TITLE:La Nena De Papi;
#SUBTITLE:;
#ARTIST:Plan B;
#TITLETRANSLIT:;
#SUBTITLETRANSLIT:;
#ARTISTTRANSLIT:;
#CREDIT:;
#BANNER:banner.JPG;
#BACKGROUND:;
#LYRICSPATH:;
#CDTITLE:!tizaTitle.png;
#MUSIC:Plan B - Le Nena De Papi (Www.FlowHot.NeT).ogg;
#OFFSET:0.000;
#SAMPLESTART:71.401;
#SAMPLELENGTH:15.400;
#SELECTABLE:YES;
#BPMS:0.000=186.000,32.000=188.000,128.000=94.000,132.000=188.000,348.000=94.000,358.000=188.000;
#STOPS:452.000=0.640
,484.000=0.240
,484.250=0.080
,484.500=0.240
,484.750=0.080
,485.000=0.080
,485.250=0.080
,485.500=0.080
,485.750=0.400
,486.000=0.080
,486.250=0.400
,486.500=0.240
,486.750=0.080
,487.000=0.240
,487.250=0.080
,487.500=0.080
,487.750=0.080
,488.000=0.080
,488.250=0.400
,488.500=0.560
,488.750=0.240
,489.000=0.080
,489.250=0.240
,489.500=0.080
,489.750=0.080
,490.000=0.080
,490.250=0.560
,490.500=0.560
,490.750=0.240
,491.000=0.080
,491.250=0.240
,491.500=0.080
,491.750=0.080
,492.000=0.080
,492.250=0.560
,492.500=0.560
;
#BGCHANGES:;
// cache tags:
#FIRSTBEAT:32.000;
#LASTBEAT:492.750;
#SONGFILENAME:Songs/Reggaeton and more/La Nena De Papi/Nenadepapi.sm;
#HASMUSIC:1;
#HASBANNER:1;
#MUSICLENGTH:174.680;
// end cache tags

//---------------dance-single - ----------------
#NOTES:
     dance-single:
     :
     Challenge:
     11:
     0.707,1.000,0.853,0.000,0.120,715.000,149.000,0.000,0.000,1.000:
0000
0000
0000
0000
,
0000
0000
0000
0000
,
0000
0000
0000
0000
,
0000
0000
0000
0000
,
0000
0000
0000
0000
,
0000
0000
0000
0000
,
0000
0000
0000
0000
,
0000
0000
0000
0000
,
1001
0000
1000
0010
0000
0010
1000
0100
,
0010
0010
0000
0000
0001
0001
0000
0000
,
1001
0000
1000
0010
0000
0100
0001
0010
,
0100
1000
0000
0000
1001
0000
0000
0000
,
1010
0000
1000
0100
0000
0100
1000
0001
,
0100
0000
0110
0000
,
0110
0000
1000
0010
0000
0001
1000
0100
,
0001
0000
1001
0000
,
1001
0000
1000
0010
0000
0100
0010
1000
,
0100
0010
0001
0000
1001
1000
0010
0000
,
0110
0000
1000
0010
0000
0100
0010
1000
,
0100
0010
0001
0010
0100
1000
1001
0000
,
1100
0000
0010
0001
0000
0001
0100
0010
,
1010
0000
0101
0000
,
1000
0010
0100
0001
0000
0001
0100
0010
,
1000
0100
0010
0100
1000
0010
0100
0001
,
1001
0000
1000
0100
0001
0000
1000
0000
,
0010
0000
0001
0100
0010
0000
1000
0000
,
1010
0000
0010
0100
0001
0000
0011
0000
,
1001
1000
1100
0100
0110
0000
1001
0000
,
1001
0000
0110
0000
0000
1000
0010
0100
,
0001
0000
0001
0100
0010
0000
1010
0000
,
1000
0100
0010
0100
1000
0000
1001
0001
,
0100
0010
1000
0100
0001
0100
1000
0000
,
1000
0100
0010
0001
1000
0100
0010
0001
1000
0010
0100
0001
1001
0000
0110
0000
,
1001
1000
0010
0100
0001
1000
1010
1000
,
0100
0010
0100
1000
0001
0100
0010
0000
,
1000
0010
0100
0001
1001
0000
1000
0010
,
0100
0001
0100
0010
1000
0000
0000
1000
,
0010
0001
1000
0001
1000
0001
1000
0100
,
0001
0010
0100
1000
1001
0001
0101
0100
,
0110
0010
1000
0100
0010
0000
0011
0001
,
1001
1000
0010
0100
0101
0000
0000
0100
,
1001
0010
0001
0100
0010
0000
1000
0010
,
0001
0000
1000
0100
0001
0000
0000
0000
,
1100
0110
0011
1001
,
1000
0010
0001
0010
1000
0000
1100
0000
,
0110
0000
0001
0100
0000
0100
0010
1000
,
0100
0010
0001
0000
1001
1000
0010
0000
,
1000
0100
0001
1000
0001
1000
0010
0001
,
0100
1000
0001
1000
0001
1000
0001
0010
,
1000
0100
0010
0100
1000
0001
0100
0010
,
0100
0001
1000
0010
0100
0010
1000
0001
,
0010
0100
0010
0001
1000
0010
0100
0001
,
0100
0010
1000
0100
0010
0001
1000
0010
,
0100
0001
0010
0100
1000
1000
0100
0010
,
0100
0100
0001
1000
0010
0001
0100
0010
,
1000
0100
0010
0100
1000
0010
0100
0001
,
0000
1000
0100
0010
0001
1001
1000
0010
,
0100
0001
0010
0100
1000
0000
1001
1000
,
0010
0100
0001
0010
0110
0000
1100
0000
,
1001
1000
0010
0100
0001
0010
1000
0001
,
0100
1000
0010
0100
0001
0010
0100
1000
,
1001
0001
0100
0010
1000
0001
0100
0010
,
1000
0100
0010
0001
1000
0100
0010
0001
,
1001
0000
1000
0000
1010
0000
0001
0100
,
0010
1000
0010
0100
0001
0000
1001
1000
,
0010
0100
0010
1000
0100
0000
0010
0001
,
1001
1000
1100
0110
0011
0000
1001
0000
,
1000
0010
0001
0010
1000
0100
0001
0100
,
1000
0010
0001
1000
0100
0001
0010
1000
,
0001
0100
1000
0010
0100
0001
0100
0010
,
1000
1000
0100
0100
0110
0000
0011
0000
,
1001
0000
0000
0000
,
0000
0000
0000
0000
,
1001
0000
0110
0100
0010
1000
0100
0010
,
0001
0010
0100
1000
0100
0010
0001
0010
,
1100
0000
0011
1000
0010
0100
0001
0100
,
0010
1000
0010
0100
0001
0100
0010
1000
,
0101
0000
1010
1000
0010
0100
0001
0010
,
0100
0000
1100
0000
1000
0010
0001
1000
,
0100
0000
0001
0010
0100
1000
0100
0010
,
0001
0000
1001
0000
1000
0100
0010
0001
,
0011
0000
0011
0000
1000
0010
0100
0010
,
1000
0000
0101
0000
1000
1000
0001
0001
,
0110
0000
1001
0000
0010
0010
0100
0100
,
1001
0000
0110
0000
1100
0001
0101
0000
,
1100
0000
0011
0000
0010
0100
1000
0010
,
0100
0001
0100
0000
0010
0000
1000
0000
0100
0000
0010
0000
0001
0000
0000
0000
,
1001
0000
0000
0000
0000
0000
0000
0000
1000
0000
1000
0000
1000
0000
0100
0010
0001
0000
0100
0000
0001
0000
0010
0000
0100
0000
1000
0000
0100
0000
0010
0000
,
0100
1000
0001
0100
1000
0100
1001
0000
1000
0010
0100
0001
1000
0100
0010
0001
,
0010
0100
1000
0001
0100
0010
1000
0000
1001
0000
0000
0000
1000
0000
0100
0000
,
0000
0010
0001
0100
0010
0010
0010
0000
,
1000
1000
1000
0000
1001
0000
1000
0010
,
0000
0100
0001
0010
0100
0100
0100
1000
,
0010
0010
0010
0000
1001
0000
1000
0010
,
0000
0100
0010
1000
0100
0000
0000
0000
,
1001
0000
0000
0000
1000
0100
0010
0001
,
0000
0001
0010
0100
1000
0000
0000
0000
,
1001
0000
1000
1100
,
0001
0101
1001
0110
,
1010
0101
1001
1100
,
0011
1010
0101
1001
,
1001
0110
0110
1100
,
0100
0101
0001
0011
,
0010
1010
1000
1001
,
0001
0101
1000
1100
,
0100
0000
0110
0000
1001
0000
1100
0101
,
0000
1000
0010
0100
0101
1000
1100
0100
,
0110
0000
1001
0000
0011
0000
1010
0101
,
0000
1000
0010
0100
0001
0010
0100
1000
,
1001
0110
1100
0011
,
1001
0000
0110
0000
1000
0010
0100
0001
,
1000
0100
0100
0010
0001
0000
1100
0011
,
0000
1000
0010
0100
0001
0000
0000
0000
,
1001
1000
1100
0001
,
1001
0000
1001
0000
,
1000
0100
0110
0000
,
1001
0000
0001
0000
,
1100
0000
1000
0010
,
0101
0000
1001
0000
,
1000
0100
0110
0000
,
1001
0000
0110
0000
,
1001
1000
0010
0100
0001
0010
0100
0100
1000
1000
0100
0010
0001
0010
0100
1000
,
1001
0101
1001
1001
1000
0100
1000
0010
0100
0001
1001
1000
0100
0010
0001
0010
,
0100
1001
0110
1011
0000
0000
0000
0000
0000
0000
0000
0000
0000
0000
0000
0000
;
