#TITLE:Lollipop;
#SUBTITLE:Sexuality Violation;
#ARTIST:Lil Wayne feat. Static Major;
#TITLETRANSLIT:;
#SUBTITLETRANSLIT:;
#ARTISTTRANSLIT:;
#CREDIT:;
#BANNER:Lollipop-bn.png;
#BACKGROUND:Lollipop-bg.png;
#LYRICSPATH:;
#CDTITLE:GazeboCD.png;
#MUSIC:Lollipop.ogg;
#OFFSET:-0.121;
#SAMPLESTART:25.136;
#SAMPLELENGTH:26.240;
#SELECTABLE:YES;
#BPMS:0.000=148.000;
#STOPS:;
#BGCHANGES:;
// cache tags:
#FIRSTBEAT:27.000;
#LASTBEAT:316.000;
#SONGFILENAME:Songs/Sexuality Violation 2/Lollipop - [Gazebo]/Lollipop.sm;
#HASMUSIC:1;
#HASBANNER:1;
#MUSICLENGTH:128.955;
// end cache tags

//---------------dance-single - Gazebo----------------
#NOTES:
     dance-single:
     Gazebo:
     Challenge:
     14:
     0.904,1.000,0.062,0.031,1.000,804.000,8.000,4.000,0.000,0.000:
0000
0000
0000
0000
,
0000
0000
0000
0000
,
0000
0000
0000
0000
,
0000
0000
0000
0000
,
0000
0000
0000
0000
,
0000
0000
0000
0000
,
0000
0000
0000
0000
0000
0000
1000
0010
,
1000
0001
0100
0001
0010
0000
0200
0000
,
1300
0001
0001
0001
0010
0001
0100
0010
,
0100
0100
0001
0000
0100
0100
0001
0000
,
1000
0010
0000
0010
1000
0001
0010
0100
,
0010
0010
0001
1000
1000
1000
0001
0000
,
0100
0010
0010
0010
1000
0001
0010
0100
,
0010
0010
0001
0000
0010
0010
0001
0000
,
1000
0100
0000
0100
1000
0001
0100
0010
,
0100
0000
0100
0000
0001
0000
0000
0000
1000
0000
0001
0100
0010
0000
0010
0000
,
1000
0001
0100
0010
0100
0010
1000
0001
0010
0100
1000
0001
0100
0010
0100
0010
1000
0001
0100
0010
0100
0001
1000
0001
,
0010
0100
0010
0100
1000
0001
1000
0000
0000
0000
0000
0000
0010
0000
0000
0100
0000
0000
0010
0000
0000
1000
0000
0000
,
0001
1000
0100
0010
0100
0010
0001
1000
0010
0100
0001
1000
0100
0010
0100
0010
0001
1000
0100
0010
0100
1000
0001
1000
,
0010
0100
0010
0100
0001
1000
0001
0000
0000
0000
0000
0000
0010
0000
0000
0100
0000
0000
0010
0000
0000
0001
0000
0000
,
1000
0001
0100
0010
0100
0010
1000
0001
0010
0100
1000
0001
0100
0000
0000
0010
0000
0000
0100
0000
0000
0001
0000
0000
,
1000
0100
0010
0001
0010
0001
1000
0100
0010
0001
1000
0001
0100
0000
0000
0010
0000
0000
0100
0000
0000
0001
0000
0000
,
1000
0100
1000
0001
0010
0100
1000
0001
1000
0100
0010
0001
1000
0010
1000
0001
0100
0010
1000
0001
1000
0010
0100
0001
,
1000
0000
0010
0000
1000
0000
0000
0000
0001
0000
1000
0100
0010
0000
0010
0000
,
0001
1000
0100
0010
0100
0010
0001
1000
0100
0010
0001
1000
0010
0100
0010
0100
0001
1000
0010
0100
0010
1000
0001
1000
,
0100
0010
0100
0010
0001
1000
0001
0000
0000
0000
0000
0000
0100
0000
0000
0010
0000
0000
0100
0000
0000
0001
0000
0000
,
1000
0001
0010
0100
0010
0100
1000
0001
0100
0010
1000
0001
1000
0010
0100
0010
0100
0001
1000
0010
0100
0001
1000
0001
,
0010
0100
0010
0100
1000
0001
1000
0000
0000
0000
0000
0000
0010
0000
0000
0100
0000
0000
0010
0000
0000
1000
0000
0000
,
0001
1000
0100
0010
0100
0010
0001
1000
0100
0010
0001
1000
0010
0000
0000
0100
0000
0000
0010
0000
0000
1000
0000
0000
,
0001
0010
0100
1000
0100
1000
0001
0010
0100
1000
0001
1000
0010
0000
0000
0100
0000
0000
0010
0000
0000
1000
0000
0000
,
0001
0010
0001
1000
0100
0010
0001
1000
0001
0010
0100
1000
0001
0100
0001
1000
0010
0100
0001
1000
0001
0100
0010
1000
,
0001
0000
0000
0000
0000
0001
1000
0001
,
0010
0100
1000
0100
1000
0000
1000
0000
,
0001
0100
0001
0100
0001
0000
1000
0000
1000
0000
0010
0000
1000
0000
0001
0000
,
0020
0000
0130
1000
0001
0000
0001
0000
,
1000
0010
1000
0010
1000
0000
0001
0000
0010
0000
0010
0000
0001
0000
1000
0000
,
0001
0000
1000
0010
1000
0000
1000
0000
,
0001
0010
0001
0010
0001
0000
0000
0000
2000
0000
0000
0000
3001
0000
0100
0000
,
0010
1000
0100
1000
0001
0000
0001
0000
,
1000
0100
1000
0100
1000
0000
0001
0000
0200
0000
0000
0000
0301
0000
1000
0000
,
0010
0100
0001
1000
0001
0000
0001
0000
,
1000
0100
1000
0100
1000
0000
0001
0000
0010
0000
0010
0000
0001
0000
1000
0000
,
0001
0000
0000
0000
0100
0000
0000
0000
0001
0000
0000
0001
0000
0000
1000
0000
,
0001
0100
0001
0100
0001
0000
1000
0000
0100
0000
0010
0000
0001
0000
1000
0000
,
0010
0100
0101
0000
,
1001
0000
1000
0000
0100
0010
0001
0000
,
1001
0000
1000
0001
1000
0000
0010
0000
0110
0000
0000
0000
0000
0000
0000
0000
,
0101
0000
0000
0000
,
0001
1000
1000
1000
0010
1000
0100
0010
,
0100
0100
1000
0000
0100
0100
1000
0000
,
0001
0010
0000
0010
0001
1000
0010
0100
,
0010
0010
1000
0001
0001
0001
1000
0000
,
0100
0010
0010
0010
0001
1000
0010
0100
,
0010
0010
1000
0000
0010
0010
1000
0000
,
0001
0100
0000
0100
0001
1000
0100
0010
,
0001
0001
1000
0000
0010
0100
0010
1000
,
0001
1000
0010
0100
0010
0100
0001
1000
0010
0100
0001
1000
0100
0010
0001
0010
0100
1000
0001
0010
0100
1000
0001
1000
,
0010
0100
0010
0100
0001
1000
0001
0000
0000
0000
0000
0000
0010
0000
0000
0100
0000
0000
0010
0000
0000
0001
0000
0000
,
1000
0001
0100
0010
0100
0010
1000
0001
0100
0010
1000
0001
0010
0100
1000
0100
0010
0001
1000
0100
0010
0001
1000
0001
,
0100
0010
0100
0010
1000
0001
1000
0000
0000
0000
0000
0000
0100
0000
0000
0010
0000
0000
0100
0000
0000
1000
0000
0000
,
0001
1000
0010
0100
0010
0100
0001
1000
0010
0100
0001
1000
0100
0000
0000
0010
0000
0000
0100
0000
0000
1000
0000
0000
,
0001
0100
0010
1000
0010
1000
0001
0010
0100
1000
0001
1000
0010
0000
0000
0100
0000
0000
0010
0000
0000
1000
0000
0000
,
0001
0010
0001
1000
0100
0010
0001
0100
0010
1000
0001
1000
0010
0100
0001
0100
0010
1000
0001
1000
0100
0010
0001
1000
,
0001
0000
0010
0000
0001
0000
0000
0000
1000
0000
0001
0100
0010
0000
0010
0000
,
1000
0001
0100
0010
0100
0010
1000
0001
0100
0010
1000
0001
0010
0100
0010
0100
1000
0001
0010
0100
0010
0001
1000
0001
,
0100
0010
0100
0010
1000
0001
1000
0000
0000
0000
0000
0000
0100
0000
0000
0010
0000
0000
0100
0000
0000
1000
0000
0000
,
0001
1000
0010
0100
0010
0100
0001
1000
0100
0010
0001
1000
0001
0010
0100
0010
0100
1000
0001
0010
0100
1000
0001
1000
,
0010
0100
0010
0100
0001
1000
0001
0000
0000
0000
0000
0000
0010
0000
0000
0100
0000
0000
0010
0000
0000
0001
0000
0000
,
1000
0001
0100
0010
0100
0010
1000
0001
0100
0010
1000
0001
0010
0000
0000
0100
0000
0000
0010
0000
0000
0001
0000
0000
,
1000
0010
0100
0001
0100
0001
1000
0010
0100
0001
1000
0001
0010
0000
0000
0100
0000
0000
0010
0000
0000
0001
0000
0000
,
1000
0010
1000
0001
0100
0010
1000
0001
1000
0010
0100
0001
1000
0100
1000
0001
0010
0100
1000
0001
1000
0100
0010
0001
,
1000
0000
0000
0000
0000
0000
0000
0000
0001
0000
0001
1000
0010
0000
0010
0000
,
0100
0000
1001
0001
1000
0000
0010
0010
,
0100
0010
1000
0001
0010
0000
0100
1000
,
0001
1000
1010
0000
0010
0100
0000
0100
,
0001
1000
0100
0010
0001
0000
1000
1000
,
0010
0000
0000
0000
0101
0000
0000
0000
0001
0000
1000
0000
1000
0001
1000
0000
,
0100
0000
0010
0000
0001
0000
1000
0000
0010
0000
0000
0000
0010
0100
0010
0000
,
1000
0000
0001
1000
0100
0010
0000
0010
,
0001
0000
0000
0000
;

//---------------dance-single - Gazebo----------------
#NOTES:
     dance-single:
     Gazebo:
     Hard:
     10:
     0.731,0.827,0.062,0.031,0.589,648.000,8.000,4.000,0.000,0.000:

0000
0000
0000
0000
,
0000
0000
0000
0000
,
0000
0000
0000
0000
,
0000
0000
0000
0000
,
0000
0000
0000
0000
,
0000
0000
0000
0000
,
0000
0000
0000
0000
0000
0000
1000
0010
,
1000
0001
0100
0001
0010
0000
0200
0000
,
1300
0001
0001
0001
0010
0001
0100
0010
,
0100
0100
0001
0000
0100
0100
0001
0000
,
1000
0010
0000
0010
1000
0001
0010
0100
,
0010
0010
0001
1000
1000
1000
0001
0000
,
0100
0010
0010
0010
1000
0001
0010
0100
,
0010
0010
0001
0000
0010
0010
0001
0000
,
1000
0100
0000
0100
1000
0001
0100
0010
,
0100
0000
0100
0000
0001
0000
0000
0000
1000
0000
0001
0100
0010
0000
0010
0000
,
1000
0001
0100
0001
0010
0100
1000
0001
0100
0001
0100
0010
1000
0001
0100
0001
,
1000
0100
0010
0001
1000
0000
0000
0000
0010
0000
0100
0000
0010
0000
1000
0000
,
0001
0010
0100
1000
0010
1000
0001
0100
0001
1000
0100
1000
0100
0010
0001
1000
,
0001
0100
0010
1000
0001
0000
0000
0000
0010
0000
0100
0000
0010
0000
0001
0000
,
1000
0010
1000
0001
1000
0000
0001
0000
0010
0000
0100
0000
0010
0000
0001
0000
,
1000
0010
1000
0001
1000
0000
0001
0000
0010
0000
0100
0000
0010
0000
0001
0000
,
1000
0010
0100
0010
1000
0001
1000
0010
1000
0100
1000
0100
0010
0001
1000
0001
,
0100
0001
0100
0010
1000
0000
0000
0000
0001
0000
1000
0100
0010
0000
0010
0000
,
0001
1000
0010
1000
0001
0100
0001
1000
0001
0010
0001
0010
0100
1000
0001
1000
,
0001
0100
0001
1000
0001
0000
0000
0000
0100
0000
0010
0000
0100
0000
0001
0000
,
1000
0100
1000
0010
0100
0010
0100
0001
1000
0100
1000
0100
0010
0001
0100
0001
,
0100
0010
1000
0001
1000
0000
0000
0000
0010
0000
0100
0000
0010
0000
1000
0000
,
0001
0010
0001
1000
0001
0000
1000
0000
0010
0000
0100
0000
0010
0000
1000
0000
,
0001
0010
0001
1000
0001
0000
1000
0000
0010
0000
0100
0000
0010
0000
1000
0000
,
0001
0010
0001
0010
0100
1000
0001
1000
0010
0100
0010
1000
0001
0100
0001
1000
,
0001
0000
0000
0000
0000
0001
1000
0001
,
0010
0100
1000
0100
1000
0000
1000
0000
,
0001
0100
0001
0100
0001
0000
1000
0000
1000
0000
0010
0000
1000
0000
0001
0000
,
0020
0000
0130
1000
0001
0000
0001
0000
,
1000
0010
1000
0010
1000
0000
0001
0000
0010
0000
0010
0000
0001
0000
1000
0000
,
0001
0000
1000
0010
1000
0000
1000
0000
,
0001
0010
0001
0010
0001
0000
0000
0000
2000
0000
0000
0000
3001
0000
0100
0000
,
0010
1000
0100
1000
0001
0000
0001
0000
,
1000
0100
1000
0100
1000
0000
0001
0000
0200
0000
0000
0000
0301
0000
1000
0000
,
0010
0100
0001
1000
0001
0000
0001
0000
,
1000
0100
1000
0100
1000
0000
0001
0000
0010
0000
0010
0000
0001
0000
1000
0000
,
0001
0000
0000
0000
0100
0000
0000
0000
0001
0000
0000
0001
0000
0000
1000
0000
,
0001
0100
0001
0100
0001
0000
1000
0000
0100
0000
0010
0000
0001
0000
1000
0000
,
0010
0100
0101
0000
,
1001
0000
1000
0000
0100
0010
0001
0000
,
1001
0000
1000
0001
1000
0000
0010
0000
0110
0000
0000
0000
0000
0000
0000
0000
,
0101
0000
0000
0000
,
0001
1000
1000
1000
0010
1000
0100
0010
,
0100
0100
1000
0000
0100
0100
1000
0000
,
0001
0010
0000
0010
0001
1000
0010
0100
,
0010
0010
1000
0001
0001
0001
1000
0000
,
0100
0010
0010
0010
0001
1000
0010
0100
,
0010
0010
1000
0000
0010
0010
1000
0000
,
0001
0100
0000
0100
0001
1000
0100
0010
,
0001
0001
1000
0000
0010
0100
0010
1000
,
0001
1000
0100
1000
0100
0010
0001
1000
0010
1000
0010
0100
0001
1000
0010
1000
,
0001
0010
0100
1000
0001
0000
0000
0000
0100
0000
0010
0000
0100
0000
0001
0000
,
1000
0100
0010
0001
0010
0001
1000
0100
1000
0001
0100
0001
0100
0010
1000
0001
,
1000
0100
0010
0001
1000
0000
0000
0000
0100
0000
0010
0000
0100
0000
1000
0000
,
0001
0100
0001
1000
0001
0000
1000
0000
0100
0000
0010
0000
0100
0000
1000
0000
,
0001
0100
0001
1000
0001
0000
1000
0000
0100
0000
0010
0000
0100
0000
1000
0000
,
0001
0100
0010
0100
0001
1000
0001
0100
0001
0010
0001
0010
0100
1000
0001
1000
,
0010
1000
0010
0100
0001
0000
0000
0000
1000
0000
0001
0010
0100
0000
0100
0000
,
1000
0001
0100
0001
1000
0010
1000
0001
1000
0100
1000
0100
0010
0001
1000
0001
,
1000
0010
1000
0001
1000
0000
0000
0000
0010
0000
0100
0000
0010
0000
1000
0000
,
0001
0010
0001
0100
0010
0100
0010
1000
0001
0010
0001
0010
0100
1000
0010
1000
,
0010
0100
0001
1000
0001
0000
0000
0000
0100
0000
0010
0000
0100
0000
0001
0000
,
1000
0100
1000
0001
1000
0000
0001
0000
0100
0000
0010
0000
0100
0000
0001
0000
,
1000
0100
1000
0001
1000
0000
0001
0000
0100
0000
0010
0000
0100
0000
0001
0000
,
1000
0100
1000
0100
0010
0001
1000
0001
0100
0010
0100
0001
1000
0010
1000
0001
,
1000
0000
0000
0000
0000
0000
0000
0000
0001
0000
0001
1000
0010
0000
0010
0000
,
0100
0000
1001
0001
1000
0000
0010
0010
,
0100
0010
1000
0001
0010
0000
0100
1000
,
0001
1000
1010
0000
0010
0100
0000
0100
,
0001
1000
0100
0010
0001
0000
1000
1000
,
0010
0000
0000
0000
0101
0000
0000
0000
0001
0000
1000
0000
1000
0001
1000
0000
,
0100
0000
0010
0000
0001
0000
1000
0000
0010
0000
0000
0000
0010
0100
0010
0000
,
1000
0000
0001
1000
0100
0010
0000
0010
,
0001
0000
0000
0000
;
