#TITLE:Hydrocity Zone;
#SUBTITLE:~Act 2~;
#ARTIST:SEGA;
#TITLETRANSLIT:;
#SUBTITLETRANSLIT:;
#ARTISTTRANSLIT:;
#CREDIT:;
#BANNER:hydrobanner.bmp;
#BACKGROUND:hydrobg.gif;
#LYRICSPATH:;
#CDTITLE:cdtitle.png;
#MUSIC:sonic -  The Hedgehog 3 & Knuckles - 06 - Hydrocity Zone Act 2.mp3;
#OFFSET:-0.608;
#SAMPLESTART:38.150;
#SAMPLELENGTH:14.480;
#SELECTABLE:YES;
#DISPLAYBPM:128.000;
#BPMS:0.000=256.560;
#STOPS:;
#BGCHANGES:;
// cache tags:
#FIRSTBEAT:2.000;
#LASTBEAT:458.000;
#SONGFILENAME:Songs/Community Keyboard Megapack - Volume 3/(Bursurk Lurk) Hydrocity Zone/Hydrocity.sm;
#HASMUSIC:1;
#HASBANNER:1;
#MUSICLENGTH:111.725;
// end cache tags

//---------------dance-single - Copied from----------------
#NOTES:
     dance-single:
     Copied from:
     Challenge:
     12:
     1.000,1.000,1.000,0.054,0.349,669.000,113.000,6.000,0.000,0.000:
0000
0000
0000
0000
1000
0100
0010
0100
,
0000
1000
0010
0100
0001
0010
0100
0001
,
0110
0110
0011
0011
,
0000
0110
1001
0110
0000
0110
0000
0000
,
0011
0000
0011
0000
0001
0100
0001
0100
,
0000
1000
0010
0100
1000
0001
0100
0010
,
0101
0101
1010
1010
,
0000
0101
1010
0101
0000
0110
0000
0000
,
0011
0000
0000
0000
1000
0000
0001
0000
0100
0000
1000
0100
0010
0001
0010
0100
,
1000
0100
0010
0000
0001
0000
1000
0000
0001
0010
0100
1000
0001
0000
1000
0000
,
0100
0000
0000
0000
0000
0000
0100
0000
0000
0000
0000
0000
1000
0100
0010
0001
,
0100
0010
0001
1000
0100
0000
1000
0100
,
0000
0000
0000
0000
0001
0000
0010
0000
0100
0000
0010
0001
0010
0100
1000
0100
,
0010
1000
0010
0100
0001
0100
0010
1000
,
0010
0000
0000
0000
0000
0000
0100
0000
0000
0000
0010
0001
0010
0100
1000
0100
,
0010
0100
0001
0010
0000
0100
0000
0000
,
0001
0000
0000
0000
0010
0000
0001
0000
0100
0000
1000
0000
0001
0010
0100
1000
,
0001
0010
0100
0000
0010
0000
0001
0000
1000
0100
0010
0000
1000
0000
0001
0000
,
0100
0000
0000
0000
0000
0000
0001
0000
0000
0000
0000
0000
0100
0010
0001
0100
,
0010
1000
0001
1000
0100
0000
1000
0100
,
0000
0000
0000
0000
0010
0000
0001
0000
0100
0000
0010
0001
0010
0100
1000
0100
,
0010
1000
0010
1000
0001
1000
0010
1000
,
0100
0000
0000
0010
0000
0001
0010
0100
,
1000
0100
0010
0001
0010
0000
1000
0000
0000
0000
1000
0000
0100
0000
0001
0000
,
0100
1000
0010
0100
1000
0000
0100
0001
,
0000
0010
0000
0100
0000
0000
1001
0110
,
0000
0101
1010
0000
0001
0000
0001
1000
,
0000
0100
0000
0010
0000
0000
0011
1100
,
0000
0110
1001
0000
0100
0000
0001
0010
,
0000
0100
0000
1000
0000
0000
0011
1100
,
0000
0101
1010
0000
0000
0100
0000
0000
,
0010
0000
0010
1000
0000
1000
0000
0000
,
0001
0000
0100
0000
0010
0000
0001
0010
,
0000
1000
0000
0100
0000
0000
1001
0110
,
0000
0101
1010
0000
0010
0000
0100
0010
,
0000
1000
0000
0010
0000
0000
1100
0011
,
0000
0011
1100
0000
0100
0000
0010
0100
,
0000
0010
0000
0001
0000
0000
1010
0101
,
0000
1001
0110
0000
0000
0011
0000
0011
,
0000
0000
0011
0000
0100
0000
0000
0000
0100
0000
0001
0000
0000
0000
1000
0100
,
0010
0001
1000
0100
0001
0000
1000
0000
0010
0000
0000
0000
0100
0010
0001
1000
,
0100
0000
0000
0000
1000
0010
0100
0000
0000
0000
1000
0000
0000
0000
0000
0000
,
0010
0000
0100
0000
0002
1000
0100
0010
,
0100
0000
0103
1000
0001
0100
0010
0000
,
0001
0000
0000
0000
1000
0000
0001
0000
0100
0000
0000
0000
1000
0100
0001
0010
,
0100
0000
0000
0000
0010
0000
0100
0010
0000
0000
1000
0000
0000
0000
0000
0000
,
0010
0000
0100
0000
0011
0100
0000
0100
,
0011
0000
0110
1001
0000
1100
0001
0000
,
0010
0100
1000
0100
0001
0000
1000
0000
0100
0000
0000
0000
0001
0010
0100
1000
,
0100
0000
0000
0000
1000
0000
0010
0100
0000
0000
1000
0000
0000
0000
0000
0000
,
1001
0000
0110
0000
0002
1000
0100
0010
,
0100
0000
0103
1000
0000
0000
0001
0000
,
0100
0000
0001
0010
0001
0000
0000
0010
,
0000
0100
1000
0000
0000
0000
0010
0000
,
0001
0000
0001
0000
0000
0110
0000
0110
,
0000
0110
0001
0000
1001
0000
0000
0000
,
1000
0100
0010
0000
0010
0000
0010
0000
1000
0000
0100
0000
0010
0000
0100
0000
,
0000
1000
0010
0100
0001
0010
0100
0001
,
0110
0110
1001
1001
,
0000
0011
1100
0011
0000
0110
0000
0000
,
1010
0000
1100
0000
1000
0100
0001
0100
,
0000
1000
0010
0100
1000
0001
0100
0010
,
0101
0101
0011
0110
,
0000
0011
0110
0011
0000
0110
0000
0000
,
0011
0000
0000
0000
0100
0000
0001
0000
0100
0000
1000
0100
0010
0001
0010
0100
,
1000
0100
0010
0000
0001
0000
1000
0000
0001
0010
0100
1000
0001
0000
1000
0000
,
0100
0000
0000
0000
0000
0000
0100
0000
0000
0000
0000
0000
1000
0100
0010
0001
,
0010
0100
0001
1000
0100
0000
1000
0100
,
0000
0000
0000
0000
0001
0000
0100
0000
1000
0000
0010
0001
0010
0100
1000
0100
,
0010
1000
0010
0100
0001
0100
0010
1000
,
0010
0000
0000
0000
0000
0000
1000
0000
0000
0000
0000
0000
0010
0100
1000
0100
,
0010
0100
0001
0010
0000
0100
0000
0000
,
0001
0000
0000
0000
0010
0000
0001
0000
0100
0000
1000
0000
0001
0010
0100
1000
,
0001
0010
0100
0000
0010
0000
0001
0000
1000
0100
0010
0000
1000
0000
0001
0000
,
0100
0000
0000
0000
0000
0000
0001
0000
0000
0000
0000
0000
0100
0010
0001
0010
,
0100
0010
0001
1000
0100
0000
1000
0100
,
0000
0000
0000
0000
0010
0000
0001
0000
0100
0000
0010
0001
0010
0100
1000
0100
,
0010
1000
0010
1000
0001
1000
0010
1000
,
0100
0000
0000
0010
0000
0001
0010
0100
,
1000
0100
0010
0001
0010
0000
1000
0000
0000
0000
0001
0000
0100
0000
0001
0000
,
1000
0010
0100
0001
1000
0000
0100
0001
,
0000
0010
0000
0100
0000
0000
0011
0110
,
0000
1001
0110
0000
0010
0000
0001
1000
,
0000
0100
0000
0010
0000
0000
0101
1010
,
0000
1100
0011
0000
0100
0000
0001
0010
,
0000
0100
0000
1000
0000
0000
0011
1100
,
0000
0011
0110
0000
0000
0110
0000
0000
,
0110
0000
0110
1001
0000
1001
0000
0000
,
0001
0000
0100
0000
0010
0000
0001
0010
,
0000
1000
0000
0100
0000
0000
0011
1100
,
0000
0101
1010
0000
0010
0000
0100
0010
,
0000
1000
0000
0010
0000
0000
1100
0011
,
0000
0011
1100
0000
0100
0000
0010
0100
,
0000
0010
0000
0001
0000
0000
0110
1001
,
0000
0011
1010
0000
0000
0010
0000
0010
,
0000
0000
0010
0000
0100
0000
0000
0000
0100
0000
0001
0000
0000
0000
1000
0100
,
0010
0001
1000
0100
0010
0000
1000
0000
0010
0000
0000
0000
0100
0010
0001
1000
,
0100
0000
0001
0010
0000
1000
0000
0000
,
0010
0000
0100
0000
0002
1000
0100
0010
,
0100
0000
1003
0010
0000
0100
0010
0000
,
0001
0000
0000
0000
0010
0000
0001
0000
0100
0000
0000
0000
0010
0100
0010
0001
,
0010
0000
0000
0000
0010
0000
0100
0010
0000
0000
1000
0000
0000
0000
0000
0000
,
0010
0000
0100
0000
0011
0100
0000
0101
,
1010
0000
0110
1001
0000
1100
0001
0000
,
0010
0100
1000
0100
0001
0000
1000
0000
0100
0000
0000
0000
0001
0010
0100
1000
,
0100
0000
0000
0000
1000
0000
0010
0100
0000
0000
1000
0000
0000
0000
0000
0000
,
0101
0000
1010
0000
0002
1000
0100
0010
,
0100
0000
0103
2000
0000
0000
0000
0000
,
0000
0000
3001
0010
0001
0000
0000
0010
,
0000
0100
1000
0000
0000
0000
0010
0000
,
0001
0000
0001
0000
0000
0100
0000
0100
,
0000
0100
0001
0000
1000
0000
0000
0000
,
1000
0100
0010
0000
0010
0000
0010
0000
0200
0000
0000
0000
0000
0000
0000
0000
,
0000
0000
0000
0000
,
0000
0000
0300
0000
;
