#TITLE:Max Heat(Megaman Zero4);
#SUBTITLE:(Heat Genblem Stage);
#ARTIST:Capcom Sound Team;
#TITLETRANSLIT:;
#SUBTITLETRANSLIT:;
#ARTISTTRANSLIT:;
#CREDIT:Megaman Zero4(Capcom);
#BANNER:;
#BACKGROUND:Max Heat-bg.png.PNG;
#LYRICSPATH:;
#CDTITLE:;
#MUSIC:10 - Max Heat.mp3;
#OFFSET:-0.709;
#SAMPLESTART:41.455;
#SAMPLELENGTH:12.000;
#SELECTABLE:YES;
#BPMS:0.000=153.072;
#STOPS:3.000=1.568
,159.000=1.568
;
#BGCHANGES:0.000=Max Heat-bg.png.PNG=1.000=0=0=1,
99999=-nosongbg-=1.000=0=0=0 // don't automatically add -songbackground-
;
// cache tags:
#FIRSTBEAT:3.000;
#LASTBEAT:315.000;
#SONGFILENAME:Songs/dragon force/10 - Max Heat/10 - Max Heat.sm;
#HASMUSIC:1;
#HASBANNER:0;
#MUSICLENGTH:132.083;
// end cache tags

//---------------dance-single - ----------------
#NOTES:
     dance-single:
     :
     Challenge:
     9:
     0.634,0.745,0.356,0.348,0.644,493.000,47.000,46.000,0.000,4.000:
0000
0000
0000
0000
0000
0000
0000
0000
0000
0000
0000
0000
1001
0000
0000
0110
,
0000
0000
1100
0011
,
2000
0000
0010
0000
0100
0000
0000
3000
,
0001
0010
0001
0010
0001
0010
0001
0010
,
0100
1000
0100
1000
0100
1000
0100
1000
,
0010
0000
0100
0000
0001
0000
1000
0000
0100
0000
0010
0000
0001
2002
0000
0000
,
0000
0000
0000
0000
0000
0000
0000
0000
0000
0000
0000
0000
3003
0000
1000
0100
,
1000
0000
0100
0010
0100
0000
0010
0000
0001
0010
0100
1000
0100
0000
0010
0001
,
0010
0000
0100
1000
0100
0000
0010
0000
0001
0100
0010
1000
0010
0000
1000
0001
,
1000
0000
0100
0010
0001
0000
1000
0000
0100
0010
0100
1000
0100
0000
1000
0010
,
1000
0000
0100
0010
0001
0000
0100
0000
0010
1000
0100
1000
0010
0000
0100
0001
,
0010
0000
0010
0100
1000
0000
0100
0000
0010
0001
1000
0010
1000
0000
0100
0001
,
0100
0000
0010
1000
0010
0000
0100
0000
0001
0010
1000
0010
0001
0000
0100
0010
,
1000
0000
0100
0010
0001
0000
0100
0000
0010
1000
0100
0010
0001
0000
1000
0000
,
0001
0010
0000
0010
0001
0000
0100
0000
0010
1000
0001
0010
0001
0000
0000
1001
,
0000
0000
0000
0000
0000
0000
1000
0100
0000
0100
1000
0000
0002
0000
0000
0000
,
0000
0000
0000
0000
1003
0000
0000
0000
0010
0100
0000
0010
2000
0000
0000
0000
,
0000
0000
0000
0000
3000
0001
0010
0000
0000
0000
0000
0000
0100
1000
0100
0000
,
0000
0000
0010
0000
0010
0000
0000
0002
0000
0000
0000
0000
0000
0000
0003
0000
,
0000
0000
0000
0000
0000
0000
0001
0100
0000
0100
0001
0000
0020
0000
0000
0000
,
0000
0000
0000
0000
0130
0000
0000
0000
1000
0010
0000
0100
0020
0000
0000
0000
,
0000
0000
0000
0000
1030
0002
0000
0000
0000
0000
0000
0000
1003
0100
1000
0000
,
0010
0100
0001
0000
0002
0000
0000
2000
0000
0000
0003
0000
0000
0000
3000
0000
,
0000
0000
0000
0000
0000
0000
0001
0010
0000
0010
0100
0000
0020
0000
0000
0000
,
0000
0000
0000
0000
0031
0000
0000
0000
1000
0010
0000
0100
0002
0000
0000
0000
,
0000
0000
0000
0000
0003
0010
0100
0000
0000
0000
0000
0000
0010
0001
0010
0000
,
0000
0000
0100
0000
0100
0000
0000
2000
0000
0000
0000
0000
0000
0000
3000
0000
,
0000
0000
0000
0000
0000
0000
0001
1000
0000
1000
0010
0000
0200
0000
0000
0000
,
0000
0000
0000
0000
0301
0000
0000
0000
1000
0010
0000
0010
0200
0000
0000
0000
,
0000
0000
0000
0000
0301
0020
0000
0000
0000
0000
0000
0000
0031
0100
0001
0000
,
0010
0100
1000
0000
2002
0000
0000
0000
0000
0000
0000
0000
3003
0000
1000
0000
,
0000
0001
0000
0101
0000
0000
0001
0000
0000
1000
0000
1010
0000
0000
0100
0000
,
0000
0010
0000
0110
0000
0001
0000
0000
1000
0000
1001
0000
0000
0000
0010
0000
,
0000
0100
0000
1100
0000
0000
0100
0000
0000
0010
0000
0011
0000
0000
1000
0000
,
0000
0001
0000
1001
0000
0100
0000
0000
0010
0000
0101
0000
0000
0000
1000
0000
,
0000
0010
0000
1010
0000
0000
0010
0000
0000
0001
0000
0011
0000
0000
0001
0000
,
0000
1000
0000
1001
0000
0010
0000
0000
0100
0000
0110
0000
0000
0000
1001
0000
,
1000
0001
0220
0000
0000
0000
0000
2330
,
0000
0000
0000
3002
0000
0000
0000
0113
,
0000
0000
0000
0000
0000
0000
0000
0000
1010
0000
0000
0000
1001
0000
0000
0101
,
0000
0000
0011
1100
,
0002
0010
0100
0003
,
0001
0010
1000
0010
0100
0010
1000
0010
,
0001
0100
1000
0100
0010
0100
1000
0100
,
0001
0000
0010
0000
0100
0000
1000
0000
0001
0000
0010
0000
0100
0220
0000
0000
,
0000
0000
0000
0000
0000
0000
0000
0000
0000
0000
0000
0000
0330
0000
1000
0010
,
1000
0000
0001
0100
0001
0000
0010
0000
0100
1000
0100
0010
0100
0000
0010
0001
,
0010
0000
0100
1000
0100
0000
1000
0000
0010
0100
0010
1000
0010
0000
0100
0001
,
0100
0000
0010
1000
0001
0000
1000
0000
0001
0010
0001
0100
0001
0000
1000
0010
,
1000
0000
0100
0010
0001
0000
0100
0000
0010
1000
0100
0010
0100
0000
1000
0100
,
0010
0000
0100
0010
0001
0000
0100
0000
0010
1000
0100
0010
0100
0000
1000
0001
,
1000
0000
0100
0010
0100
0000
1000
0000
0001
0010
0100
1000
0100
0000
1000
0010
,
0100
0000
0100
0010
1000
0000
0001
0000
0010
0100
1000
0010
0100
0000
0001
0000
,
1000
0010
0000
0010
1000
0000
0100
0000
0010
0001
1000
0100
1000
0000
0000
1001
,
0000
0000
0000
0000
0000
0000
0001
0010
0000
0010
0001
0000
2000
0000
0000
0000
,
0000
0000
0000
0000
3001
0000
0000
0000
0100
0010
0000
0100
0002
0000
0000
0000
,
0000
0000
0000
0000
0003
1000
0010
0000
0000
0000
0000
0000
0100
0001
0100
0000
,
0000
0000
0010
0000
0010
0000
0000
2000
0000
0000
0000
0000
0000
0000
3000
0000
,
0000
0000
0000
0000
0000
0000
0010
1000
0000
1000
0010
0000
0200
0000
0000
0000
,
0000
0000
0000
0000
0310
0000
0000
0000
1000
0001
0000
0010
0002
0000
0000
0000
,
0000
0000
0000
0000
0103
0020
0000
0000
0000
0000
0000
0000
0130
0001
0100
0000
,
0010
0100
1000
0000
2000
0000
0000
0020
0000
0000
3000
0000
0000
0000
0030
0000
,
0000
0000
0000
0000
0000
0000
0010
1000
0000
1000
0100
0000
0200
0000
0000
0000
,
0000
0000
0000
0000
0310
0000
0000
0000
0001
0100
0000
0010
2000
0000
0000
0000
,
0000
0000
0000
0000
3000
0100
0010
0000
0000
0000
0000
0000
0010
0001
0010
0000
,
0100
0000
0100
0000
0000
0000
0000
0020
0000
0000
0000
0000
0000
0000
0030
0000
,
0000
0000
0000
0000
0000
0000
0100
1000
0000
1000
0001
0000
0020
0000
0000
0000
,
0000
0000
0000
0000
0130
0000
0000
0000
1000
0010
0000
0100
0002
0000
0000
0000
,
0000
0000
0000
0000
0103
0020
0000
0000
0000
0000
0000
0000
1030
0001
1000
0000
,
0001
0100
0010
0000
2002
0000
0000
0000
0000
0000
0000
0000
3003
0000
0001
0000
,
0000
0100
0000
0110
0000
0000
1000
0000
0000
0010
0000
0110
0000
0000
0001
0000
,
0000
1000
0000
1001
0000
0100
0000
0000
0010
0000
0110
0000
0000
0000
1000
0000
,
0000
0010
0000
0101
0000
0000
0001
0000
0000
0100
0000
1010
0000
0000
0010
0000
,
0000
0100
0000
0110
0000
0001
0000
0000
1000
0000
1001
0000
0000
0000
0010
0000
,
0000
0100
0000
0011
0000
0000
0100
0000
0000
0010
0000
1100
0000
0000
0001
0000
,
0000
1000
0000
1001
0000
0001
0000
0000
0100
0000
1001
0000
0000
0000
0110
0000
,
0100
0010
2002
0000
0000
0000
0000
3203
,
0000
0000
0000
0320
0000
0000
0000
1031
,
0000
0000
0011
1100
;

//---------------dance-single - ----------------
#NOTES:
     dance-single:
     :
     Hard:
     8:
     0.508,0.537,0.356,0.515,0.432,355.000,47.000,68.000,0.000,4.000:
0000
0000
0000
0000
0000
0000
0000
0000
0000
0000
0000
0000
1001
0000
0000
0110
,
0000
0000
1100
0011
,
2000
0000
0010
0000
0100
0000
0000
3000
,
0001
0010
0001
0010
0001
0010
0001
0010
,
0100
1000
0100
1000
0100
1000
0100
1000
,
0010
0000
0100
0000
0001
0000
1000
0000
0100
0000
0010
0000
0001
2002
0000
0000
,
0000
0000
0000
0000
0000
0000
3003
0200
,
0000
0000
0000
0000
0000
0310
1000
0020
,
0000
0000
0000
0230
0000
0000
0000
0302
,
0000
0000
0000
0000
0000
0000
0000
2003
,
0000
0000
3002
0000
0000
0203
0000
0320
,
0000
0000
0000
0000
0000
0130
0001
0200
,
0000
0000
0000
0320
0000
0000
0000
2030
,
0000
0000
0000
0000
0000
0000
0000
3001
,
0010
0100
0000
0010
0100
0000
1000
0000
0001
0100
0001
0010
0001
0000
0000
1001
,
0000
0000
0000
0000
0000
0000
1000
0100
0000
0100
1000
0000
0002
0000
0000
0000
,
0000
0000
0000
0000
1003
0000
0000
0000
0010
0100
0000
0010
2000
0000
0000
0000
,
0000
0000
0000
0000
3000
0001
0010
0000
0000
0000
0000
0000
0100
1000
0100
0000
,
0000
0000
0010
0000
0010
0000
0000
0002
0000
0000
0000
0000
0000
0000
0003
0000
,
0000
0000
0000
0000
0000
0000
0001
0100
0000
0100
0001
0000
0020
0000
0000
0000
,
0000
0000
0000
0000
0130
0000
0000
0000
1000
0010
0000
0100
0020
0000
0000
0000
,
0000
0000
0000
0000
1030
0002
0000
0000
0000
0000
0000
0000
1003
0100
1000
0000
,
0010
0100
0001
0000
0002
0000
0000
2000
0000
0000
0003
0000
0000
0000
3000
0000
,
0000
0000
0000
0000
0000
0000
0001
0010
0000
0010
0100
0000
0020
0000
0000
0000
,
0000
0000
0000
0000
0031
0000
0000
0000
1000
0010
0000
0100
0002
0000
0000
0000
,
0000
0000
0000
0000
0003
0010
0100
0000
0000
0000
0000
0000
0010
0001
0010
0000
,
0000
0000
0100
0000
0100
0000
0000
2000
0000
0000
0000
0000
0000
0000
3000
0000
,
0000
0000
0000
0000
0000
0000
0001
1000
0000
1000
0010
0000
0200
0000
0000
0000
,
0000
0000
0000
0000
0301
0000
0000
0000
1000
0010
0000
0010
0200
0000
0000
0000
,
0000
0000
0000
0000
0301
0020
0000
0000
0000
0000
0000
0000
0031
0100
0001
0000
,
0010
0100
1000
0000
2002
0000
0000
0000
0000
0000
0000
0000
3003
0000
1000
0000
,
0000
0001
0000
0101
0000
0000
0001
0000
0000
1000
0000
1010
0000
0000
0100
0000
,
0000
0010
0000
0110
0000
0001
0000
0000
1000
0000
1001
0000
0000
0000
0010
0000
,
0000
0100
0000
1100
0000
0000
0100
0000
0000
0010
0000
0011
0000
0000
1000
0000
,
0000
0001
0000
1001
0000
0100
0000
0000
0010
0000
0101
0000
0000
0000
1000
0000
,
0000
0010
0000
1010
0000
0000
0010
0000
0000
0001
0000
0011
0000
0000
0001
0000
,
0000
1000
0000
1001
0000
0010
0000
0000
0100
0000
0110
0000
0000
0000
1001
0000
,
1000
0001
0220
0000
0000
0000
0000
2330
,
0000
0000
0000
3002
0000
0000
0000
0113
,
0000
0000
0000
0000
0000
0000
0000
0000
1010
0000
0000
0000
1001
0000
0000
0101
,
0000
0000
0011
1100
,
0002
0010
0100
0003
,
0001
0010
1000
0010
0100
0010
1000
0010
,
0001
0100
1000
0100
0010
0100
1000
0100
,
0001
0000
0010
0000
0100
0000
1000
0000
0001
0000
0010
0000
0100
0220
0000
0000
,
0000
0000
0000
0000
0000
0000
0330
0002
,
0000
0000
0000
0000
0000
1003
0010
2000
,
0000
0000
0000
3020
0000
0000
0000
0230
,
0000
0000
0000
0000
0000
0000
0000
0302
,
0000
0000
0023
0000
0000
0230
0000
2300
,
0000
0000
0000
0000
0000
3001
0100
0002
,
0000
0000
0000
0203
0000
0000
0000
0320
,
0000
0000
0000
0000
0000
0000
0000
1030
,
0100
0010
0000
0100
0010
0000
0001
0000
1000
0010
1000
0100
1000
0000
0000
1001
,
0000
0000
0000
0000
0000
0000
0001
0010
0000
0010
0001
0000
2000
0000
0000
0000
,
0000
0000
0000
0000
3001
0000
0000
0000
0100
0010
0000
0100
0002
0000
0000
0000
,
0000
0000
0000
0000
0003
1000
0010
0000
0000
0000
0000
0000
0100
0001
0100
0000
,
0000
0000
0010
0000
0010
0000
0000
2000
0000
0000
0000
0000
0000
0000
3000
0000
,
0000
0000
0000
0000
0000
0000
0010
1000
0000
1000
0010
0000
0200
0000
0000
0000
,
0000
0000
0000
0000
0310
0000
0000
0000
1000
0001
0000
0010
0002
0000
0000
0000
,
0000
0000
0000
0000
0103
0020
0000
0000
0000
0000
0000
0000
0130
0001
0100
0000
,
0010
0100
1000
0000
2000
0000
0000
0020
0000
0000
3000
0000
0000
0000
0030
0000
,
0000
0000
0000
0000
0000
0000
0010
1000
0000
1000
0100
0000
0200
0000
0000
0000
,
0000
0000
0000
0000
0310
0000
0000
0000
0001
0100
0000
0010
2000
0000
0000
0000
,
0000
0000
0000
0000
3000
0100
0010
0000
0000
0000
0000
0000
0010
0001
0010
0000
,
0100
0000
0100
0000
0000
0000
0000
0020
0000
0000
0000
0000
0000
0000
0030
0000
,
0000
0000
0000
0000
0000
0000
0100
1000
0000
1000
0001
0000
0020
0000
0000
0000
,
0000
0000
0000
0000
0130
0000
0000
0000
1000
0010
0000
0100
0002
0000
0000
0000
,
0000
0000
0000
0000
0103
0020
0000
0000
0000
0000
0000
0000
1030
0001
1000
0000
,
0001
0100
0010
0000
2002
0000
0000
0000
0000
0000
0000
0000
3003
0000
0001
0000
,
0000
0100
0000
0110
0000
0000
1000
0000
0000
0010
0000
0110
0000
0000
0001
0000
,
0000
1000
0000
1001
0000
0100
0000
0000
0010
0000
0110
0000
0000
0000
1000
0000
,
0000
0010
0000
0101
0000
0000
0001
0000
0000
0100
0000
1010
0000
0000
0010
0000
,
0000
0100
0000
0110
0000
0001
0000
0000
1000
0000
1001
0000
0000
0000
0010
0000
,
0000
0100
0000
0011
0000
0000
0100
0000
0000
0010
0000
1100
0000
0000
0001
0000
,
0000
1000
0000
1001
0000
0001
0000
0000
0100
0000
1001
0000
0000
0000
0110
0000
,
0100
0010
2002
0000
0000
0000
0000
3203
,
0000
0000
0000
0320
0000
0000
0000
1031
,
0000
0000
0011
1100
;

//---------------dance-single - ----------------
#NOTES:
     dance-single:
     :
     Medium:
     7:
     0.507,0.537,1.000,0.333,0.432,292.000,133.000,44.000,0.000,4.000:
0000
0000
0000
0000
0000
0000
0000
0000
0000
0000
0000
0000
1001
0000
0000
0110
,
0000
0000
1100
0011
,
2000
0000
0010
0000
0100
0000
0000
3000
,
0001
0010
0001
0010
0001
0010
0001
0010
,
0100
1000
0100
1000
0100
1000
0000
1000
,
0010
0000
0100
0000
0000
0000
0001
0000
0010
0000
0100
0000
0000
2002
0000
0000
,
0000
0000
0000
0000
0000
0000
3003
0200
,
0000
0000
0000
0000
0000
0310
1000
0020
,
0000
0000
0000
0230
0000
0000
0000
0302
,
0000
0000
0000
0000
0000
0000
0000
2003
,
0000
0000
3002
0000
0000
0203
0000
0320
,
0000
0000
0000
0000
0000
0130
0001
0200
,
0000
0000
0000
0320
0000
0000
0000
2030
,
0000
0000
0000
0000
0000
0000
0000
3002
,
0000
0000
0000
0000
0000
0000
0203
0000
0000
0000
0000
0000
0000
0000
0300
1001
,
0000
0000
1100
0000
0000
1100
0000
1010
,
0000
0000
1010
0000
0000
1001
0000
1001
,
0000
0000
0110
0000
0000
0110
0000
0101
,
0000
0000
0000
0000
0101
0000
0000
0000
0011
0000
0011
0000
0000
0000
0000
1001
,
0000
0000
0000
0000
0000
1010
0000
0000
0000
0000
1100
0000
0000
0000
0000
1001
,
0000
0000
0000
0000
0000
0011
0000
0000
0000
0000
0101
0000
0000
0000
0000
0110
,
0000
0000
0000
0000
0000
1001
0000
0000
0000
1000
0001
1000
0000
0000
0000
0110
,
0000
0000
0000
0000
0000
1001
0000
0000
0000
0001
0000
0101
0000
0000
0000
1100
,
0000
0000
0000
0000
0000
0011
0000
0000
0000
0000
1001
0000
0000
0000
0000
1010
,
0000
0000
0000
0000
0000
0101
0000
0000
0000
0000
1001
0000
0000
0000
0000
0110
,
0000
0000
0000
0000
0000
1001
0000
0000
0000
0001
1000
0001
0000
0000
0000
1010
,
0000
0000
0000
0000
0000
0101
0000
0000
0000
0010
0000
0110
0000
0000
0000
1001
,
0000
0000
0000
0000
0000
0110
0000
0000
0000
0000
0101
0000
0000
0000
0000
0011
,
0000
0000
0000
0000
0000
1010
0000
0000
0000
0000
1100
0000
0000
0000
0000
1100
,
0000
0000
0000
0000
0000
0101
0000
0000
0000
1000
0010
1000
0000
0000
0000
0011
,
0000
0000
0220
0000
0000
0000
0330
1000
,
0000
0001
0000
0101
0000
0000
0001
0000
0000
1000
0000
1010
0000
0000
0100
0000
,
0000
0010
0000
0110
0000
0001
0000
0000
1000
0000
1001
0000
0000
0000
0010
0000
,
0000
0100
0000
1100
0000
0000
0100
0000
0000
0010
0000
0011
0000
0000
1000
0000
,
0000
0001
0000
1001
0000
0100
0000
0000
0010
0000
0101
0000
0000
0000
1000
0000
,
0000
0010
0000
1010
0000
0000
0010
0000
0000
0001
0000
0011
0000
0000
0001
0000
,
0000
1000
0000
1001
0000
0010
0000
0000
0100
0000
0110
0000
0000
0000
1001
0000
,
1000
0001
0220
0000
0000
0000
0000
2330
,
0000
0000
0000
3002
0000
0000
0000
0113
,
0000
0000
0000
0000
0000
0000
0000
0000
1010
0000
0000
0000
1001
0000
0000
0101
,
0000
0000
0011
1100
,
0002
0010
0100
0003
,
0010
0100
1000
0010
1000
0010
1000
0010
,
0100
0001
0010
0001
0010
0001
0010
1000
,
0100
0000
0010
0000
0000
0000
0001
0000
0100
0000
0010
0000
0000
0220
0000
0000
,
0000
0000
0000
0000
0000
0000
0330
0002
,
0000
0000
0000
0000
0000
1003
0010
2000
,
0000
0000
0000
3020
0000
0000
0000
0230
,
0000
0000
0000
0000
0000
0000
0000
0302
,
0000
0000
0023
0000
0000
0230
0000
2300
,
0000
0000
0000
0000
0000
3001
0100
0002
,
0000
0000
0000
0203
0000
0000
0000
0320
,
0000
0000
0000
0000
0000
0000
0000
2030
,
0000
0000
0000
0000
0000
0000
3200
0000
0000
0000
0000
0000
0000
0000
0300
1001
,
0000
0000
1100
0000
0000
1100
0000
1010
,
0000
0000
1010
0000
0000
1001
0000
1001
,
0000
0000
0110
0000
0000
0110
0000
0101
,
0000
0000
0000
0000
0101
0000
0000
0000
0011
0000
0011
0000
0000
0000
0000
1001
,
0000
0000
0000
0000
0000
1010
0000
0000
0000
0000
1100
0000
0000
0000
0000
1001
,
0000
0000
0000
0000
0000
0011
0000
0000
0000
0000
0101
0000
0000
0000
0000
0110
,
0000
0000
0000
0000
0000
1001
0000
0000
0000
1000
0001
1000
0000
0000
0000
0110
,
0000
0000
0000
0000
0000
1001
0000
0000
0000
0001
0000
0101
0000
0000
0000
1100
,
0000
0000
0000
0000
0000
0011
0000
0000
0000
0000
1001
0000
0000
0000
0000
1010
,
0000
0000
0000
0000
0000
0101
0000
0000
0000
0000
1001
0000
0000
0000
0000
0110
,
0000
0000
0000
0000
0000
1001
0000
0000
0000
0001
1000
0001
0000
0000
0000
1010
,
0000
0000
0000
0000
0000
0101
0000
0000
0000
0010
0000
0110
0000
0000
0000
1001
,
0000
0000
0000
0000
0000
0110
0000
0000
0000
0000
0101
0000
0000
0000
0000
0011
,
0000
0000
0000
0000
0000
1010
0000
0000
0000
0000
1100
0000
0000
0000
0000
1100
,
0000
0000
0000
0000
0000
0101
0000
0000
0000
1000
0010
1000
0000
0000
0000
0011
,
0000
0000
2002
0000
0000
0000
3003
0001
,
0000
0100
0000
0110
0000
0000
1000
0000
0000
0010
0000
0110
0000
0000
0001
0000
,
0000
1000
0000
1001
0000
0100
0000
0000
0010
0000
0110
0000
0000
0000
1000
0000
,
0000
0010
0000
0101
0000
0000
0001
0000
0000
0100
0000
1010
0000
0000
0010
0000
,
0000
0100
0000
0110
0000
0001
0000
0000
1000
0000
1001
0000
0000
0000
0010
0000
,
0000
0100
0000
0011
0000
0000
0100
0000
0000
0010
0000
1100
0000
0000
0001
0000
,
0000
1000
0000
1001
0000
0001
0000
0000
0100
0000
1001
0000
0000
0000
0110
0000
,
0100
0010
2002
0000
0000
0000
0000
3203
,
0000
0000
0000
0320
0000
0000
0000
1031
,
0000
0000
0011
1100
;

//---------------dance-single - ----------------
#NOTES:
     dance-single:
     :
     Easy:
     6:
     0.437,0.447,0.750,0.303,0.432,265.000,99.000,40.000,0.000,2.000:
0000
0000
0000
0000
0000
0000
0000
0000
0000
0000
0000
0000
1001
0000
0000
0110
,
0000
0000
1100
0011
,
2000
0000
0000
0000
0010
0000
0000
0000
0100
0000
0000
0000
0000
0000
3000
0110
,
0000
0000
1010
0101
,
0000
0000
0000
0000
0000
0000
0000
1100
,
0000
0000
0011
1001
,
0000
0000
0110
0000
1001
0000
0000
0201
,
0000
0000
0000
0000
0000
0310
1000
0020
,
0000
0000
0000
0230
0000
0000
0000
0302
,
0000
0000
0000
0000
0000
0000
0000
2003
,
0000
0000
3002
0000
0000
0203
0000
0320
,
0000
0000
0000
0000
0000
0130
0001
0200
,
0000
0000
0000
0320
0000
0000
0000
2030
,
0000
0000
0000
0000
0000
0000
0000
3002
,
0000
0000
0000
0000
0000
0000
0203
0000
0000
0000
0000
0000
0000
0000
0300
1001
,
0000
0000
1000
0000
0000
0100
0000
1010
,
0000
0000
0010
0000
0000
0001
0000
1001
,
0000
0000
0010
0000
0000
0100
0000
0101
,
0000
0000
0000
0000
0001
0000
0000
0000
0011
0000
0011
0000
0000
0000
0000
1001
,
0000
0000
0000
0000
0000
1010
0000
0000
0000
0000
1000
0000
0000
0000
0000
1001
,
0000
0000
0000
0000
0000
0011
0000
0000
0000
0000
0001
0000
0000
0000
0000
0110
,
0000
0000
0000
0000
0000
1001
0000
0000
0000
1000
0001
1000
0000
0000
0000
0110
,
0000
0000
0000
0000
0000
1001
0000
0000
0000
0001
0000
0100
0000
0000
0000
1100
,
0000
0000
0000
0000
0000
0011
0000
0000
0000
0000
1000
0000
0000
0000
0000
1010
,
0000
0000
0000
0000
0000
0101
0000
0000
0000
0000
0001
0000
0000
0000
0000
0110
,
0000
0000
0000
0000
0000
1001
0000
0000
0000
0001
1000
0001
0000
0000
0000
1010
,
0000
0000
0000
0000
0000
0101
0000
0000
0000
0010
0000
0100
0000
0000
0000
1001
,
0000
0000
0000
0000
0000
0110
0000
0000
0000
0000
0001
0000
0000
0000
0000
0011
,
0000
0000
0000
0000
0000
1010
0000
0000
0000
0000
1000
0000
0000
0000
0000
1100
,
0000
0000
0000
0000
0000
0101
0000
0000
0000
1000
0010
1000
0000
0000
0000
0011
,
0000
0000
0220
0000
0000
0000
0330
1000
,
0000
0001
0000
0100
0000
0000
0001
0000
0000
1000
0000
0010
0000
0000
0100
0000
,
0000
0010
0000
0100
0000
0001
0000
0000
1000
0000
1001
0000
0000
0000
0010
0000
,
0000
0100
0000
1000
0000
0000
0100
0000
0000
0010
0000
0001
0000
0000
1000
0000
,
0000
0001
0000
1000
0000
0100
0000
0000
0010
0000
0101
0000
0000
0000
1000
0000
,
0000
0010
0000
1000
0000
0000
0010
0000
0000
0001
0000
0010
0000
0000
0001
0000
,
0000
1000
0000
0001
0000
0010
0000
0000
0100
0000
0110
0000
0000
0000
1001
0000
,
1000
0001
0220
0000
0000
0000
0000
2330
,
0000
0000
0000
3002
0000
0000
0000
0103
,
0000
0000
0000
0000
0000
0000
0000
0000
1010
0000
0000
0000
1001
0000
0000
0101
,
0000
0000
0011
1100
,
0002
0000
0000
0000
0010
0000
0000
0000
0100
0000
0000
0000
0003
0000
0000
0110
,
0000
0000
0101
1010
,
0000
0000
0000
0000
0000
0000
0000
0011
,
0000
0000
1100
1001
,
0000
0000
0110
0000
1001
0000
0000
1020
,
0000
0000
0000
0000
0000
0130
0001
0200
,
0000
0000
0000
0320
0000
0000
0000
2030
,
0000
0000
0000
0000
0000
0000
0000
3002
,
0000
0000
2003
0000
0000
3020
0000
0230
,
0000
0000
0000
0000
0000
0310
1000
0020
,
0000
0000
0000
0230
0000
0000
0000
0302
,
0000
0000
0000
0000
0000
0000
0000
2003
,
0000
0000
0000
0000
0000
0000
3020
0000
0000
0000
0000
0000
0000
0000
0030
1001
,
0000
0000
0001
0000
0000
0010
0000
0101
,
0000
0000
0100
0000
0000
1000
0000
1001
,
0000
0000
0100
0000
0000
0010
0000
1010
,
0000
0000
0000
0000
1000
0000
0000
0000
1100
0000
1100
0000
0000
0000
0000
1001
,
0000
0000
0000
0000
0000
0101
0000
0000
0000
0000
0001
0000
0000
0000
0000
1001
,
0000
0000
0000
0000
0000
1100
0000
0000
0000
0000
1000
0000
0000
0000
0000
0110
,
0000
0000
0000
0000
0000
1001
0000
0000
0000
0001
1000
0001
0000
0000
0000
0110
,
0000
0000
0000
0000
0000
1001
0000
0000
0000
1000
0000
0010
0000
0000
0000
0011
,
0000
0000
0000
0000
0000
1100
0000
0000
0000
0000
0001
0000
0000
0000
0000
0101
,
0000
0000
0000
0000
0000
1010
0000
0000
0000
0000
1000
0000
0000
0000
0000
0110
,
0000
0000
0000
0000
0000
1001
0000
0000
0000
1000
0001
1000
0000
0000
0000
0101
,
0000
0000
0000
0000
0000
1010
0000
0000
0000
0100
0000
0010
0000
0000
0000
1001
,
0000
0000
0000
0000
0000
0110
0000
0000
0000
0000
1000
0000
0000
0000
0000
1100
,
0000
0000
0000
0000
0000
0101
0000
0000
0000
0000
0001
0000
0000
0000
0000
0011
,
0000
0000
0000
0000
0000
1010
0000
0000
0000
0001
0100
0001
0000
0000
0000
1100
,
0000
0000
0220
0000
0000
0000
0330
0001
,
0000
1000
0000
0010
0000
0000
1000
0000
0000
0001
0000
0100
0000
0000
0010
0000
,
0000
0100
0000
0010
0000
1000
0000
0000
0001
0000
1001
0000
0000
0000
0100
0000
,
0000
0010
0000
0001
0000
0000
0010
0000
0000
0100
0000
1000
0000
0000
0001
0000
,
0000
1000
0000
0001
0000
0010
0000
0000
0100
0000
1010
0000
0000
0000
0001
0000
,
0000
0100
0000
0001
0000
0000
0100
0000
0000
1000
0000
0100
0000
0000
1000
0000
,
0000
0001
0000
1000
0000
0100
0000
0000
0010
0000
0110
0000
0000
0000
1001
0000
,
0001
1000
0220
0000
0000
0000
0000
0332
,
0000
0000
0000
2003
0000
0000
0000
3010
,
0000
0000
1010
0101
;
