#TITLE:In The Ruins;
#SUBTITLE:;
#ARTIST:good-cool feat. CHiCO;
#TITLETRANSLIT:;
#SUBTITLETRANSLIT:;
#ARTISTTRANSLIT:;
#CREDIT:;
#BANNER:intheruinsbn.png;
#BACKGROUND:intheruinsbg.png;
#LYRICSPATH:;
#CDTITLE:cdtitle =).png;
#MUSIC:In The Ruins.mp3;
#OFFSET:0.083;
#SAMPLESTART:8.760;
#SAMPLELENGTH:11.680;
#SELECTABLE:YES;
#BPMS:0.000=156.000;
#STOPS:;
#BGCHANGES:;
// cache tags:
#FIRSTBEAT:8.000;
#LASTBEAT:286.500;
#SONGFILENAME:Songs/KBU/In The Ruins (~Zero~)/In The Ruins.sm;
#HASMUSIC:1;
#HASBANNER:1;
#MUSICLENGTH:114.416;
// end cache tags

//---------------dance-single - ----------------
#NOTES:
     dance-single:
     :
     Challenge:
     11:
     1.000,1.000,1.000,0.612,1.000,745.000,218.000,70.000,0.000,3.000:
0000
0000
0000
0000
,
0000
0000
0000
0000
,
0011
0000
0100
0000
0010
0000
1000
0000
2002
3003
0000
0000
0010
0000
1100
0000
,
0001
0010
0100
1000
0011
0100
0010
1000
,
1100
0000
0001
0000
1000
0000
0010
0000
0202
0303
0000
0000
1100
0000
0011
0000
,
1100
0000
0000
0000
0000
0000
0220
0330
,
1000
0000
0000
0000
0100
0000
0000
0000
0010
0000
0000
0000
0001
0000
0000
0000
0100
0000
0000
0000
0010
0000
0000
0000
1000
0000
0000
0000
0001
0000
0000
0000
0010
0000
0100
0000
1000
0000
0001
0000
0010
0100
1000
0001
0010
0100
1000
0001
0010
0000
0000
0000
0010
0000
0000
0000
0010
0000
0000
0000
0010
0000
0000
0000
,
1001
0100
0010
0001
1000
0010
0100
0000
0000
0010
0100
0001
0100
0010
1000
0100
,
0011
0000
0100
1010
0000
0100
0011
0000
1000
0101
0000
0010
1100
0001
0010
0100
,
1001
0010
0100
0001
0100
0010
1000
0000
0000
0100
1000
0010
0100
0001
0100
0010
,
1100
0000
0000
0000
0010
0100
0010
0001
0010
1000
0010
0100
0001
0001
0001
0001
,
1001
0100
0010
0100
0001
0100
1000
0000
0000
0010
0100
0001
1000
0100
0010
0001
,
1100
0000
0001
1010
0000
0100
0011
0000
0100
1001
0000
0010
0101
1000
0010
0100
,
1001
0010
0100
0010
0001
1000
0001
0000
0000
0100
1000
0010
0100
0001
0100
0010
,
1000
0100
1000
0001
0010
0100
2002
3003
0010
0000
0202
0303
0000
0000
0000
0000
,
1001
0010
1100
0001
0101
1010
0100
0011
,
1000
0110
1001
0010
1100
0001
0110
1000
,
0011
0000
0100
0000
1010
0000
1001
0000
0100
0000
0010
0000
0100
1000
0001
1000
,
0010
0100
0001
0010
0100
0010
0001
1000
0010
0010
0010
0000
0100
0000
0010
0010
,
1010
0001
0110
1000
0101
0011
1000
0110
,
0001
1100
0011
0100
1001
0010
1100
0001
,
0110
0000
1000
0000
0101
0000
1010
0000
0000
0000
0000
0000
0100
0010
1000
0001
,
0010
0000
0100
0000
0010
0000
0001
0000
1000
0000
0010
0000
0100
0010
0001
1000
0100
0000
0010
0000
0100
0000
1000
0000
0001
0000
0100
0000
0010
0000
1000
0000
,
0110
1001
0100
0011
1000
0110
0001
1100
,
0001
0110
1000
0001
1000
0110
0011
1000
,
0011
0000
1001
0000
0220
0330
1000
0000
0011
0000
0101
0000
2002
3003
0010
0000
,
1100
0000
0110
0000
0022
0033
0100
0000
2002
3013
0100
0010
2002
3103
0010
0001
,
2200
3300
0000
0000
0011
0000
0100
0000
1001
0000
0110
0000
1000
0000
0011
0000
,
0100
1001
1010
0100
0011
1000
0010
1001
,
0100
0011
1100
0010
1001
0110
1000
0011
,
1000
0100
0010
0000
0001
0000
0100
0000
1010
0000
0001
0000
2200
0000
3300
0000
0010
0000
0000
0000
2002
0000
3003
0000
0000
0000
0000
0000
0000
0000
0000
0000
,
0110
1000
0001
0010
1100
0000
1000
0010
0101
0010
1001
0000
0022
0033
0100
0000
,
1001
0010
1001
0100
1010
0001
1100
0010
1001
0010
0101
0000
0010
0000
1100
0000
,
0001
0010
0100
1000
0011
0000
1000
0010
0101
1000
0011
0100
1000
0000
0101
0000
,
0010
0100
0011
1000
0100
0010
1001
0100
0000
0000
0101
1000
0010
0100
0001
0010
,
1100
0001
0010
0100
1001
0000
0010
1000
0101
0010
1100
0001
0220
0330
1000
0000
,
0011
0100
1001
0010
1100
0001
1010
0100
0011
0000
1100
0000
0001
0000
0110
0000
,
1000
0000
0001
0000
0100
0000
0010
0000
1001
0000
0000
0000
0001
0010
0100
0000
1001
0000
0010
0000
1100
0000
0001
0000
0100
0000
0010
0000
1001
0000
0100
0000
,
0022
0033
2002
3003
0100
0000
2020
3030
0001
0000
0220
0330
0000
0000
0000
0000
,
1100
0010
0001
1000
0110
0001
1100
0010
1001
1001
0000
0101
0101
0010
1010
0001
,
2200
0000
3300
0000
0001
0000
0010
0000
0100
0000
1000
0000
0010
0000
0100
0000
0010
0000
0000
0000
1000
0100
0010
0000
0001
0000
0100
0000
0010
0000
1000
0000
,
0022
0033
0000
0000
0000
0000
0100
0000
0000
0000
0000
0000
0010
0000
0000
0000
,
1000
0000
0000
0001
0000
0000
0100
0000
,
2002
3003
0000
0000
0000
0000
0010
0000
0000
0000
0000
0000
1000
0000
0000
0000
,
0100
0000
0000
0010
0000
0000
0001
0000
,
2200
3300
0000
0000
0000
0000
0010
0000
0000
0000
0000
0000
0100
0000
0000
0000
,
0001
0000
0000
1000
0000
0000
0010
0000
,
2002
3003
0000
0000
0000
0000
0100
0000
0000
0000
0000
0000
1000
0000
0000
0000
,
0110
0000
0001
0000
1000
0000
0110
0000
0001
0000
1000
0000
0011
0000
0100
0000
1000
0000
0010
0000
0100
0001
0010
0000
0100
0000
1000
0000
0001
0000
0100
0000
,
0011
1000
0100
0010
0001
1000
0110
0001
1000
0100
0010
0001
1100
0001
0010
0100
,
1001
0010
0001
1000
0010
0100
0011
1000
0001
0100
0001
1000
0110
0001
1000
0100
,
0011
1000
0100
0010
0100
1000
0010
0100
0001
1000
0100
0010
0001
0100
0001
0010
,
1100
0001
0110
1000
0011
0100
1001
0010
1100
0001
0110
1000
0011
0100
1001
0010
,
2200
3310
0001
1000
0010
0100
0011
1000
0001
0010
0100
1000
0011
0100
0001
0010
,
1001
0100
0010
0100
1000
0001
0110
1000
0001
0010
0100
1000
0011
1000
0100
0010
,
1001
0010
1100
0001
0110
1000
0011
0100
1001
0010
1100
0001
0110
1000
0011
0100
,
1001
0100
0011
1000
0110
0001
1010
0100
0011
1000
0110
0001
1100
0001
0110
1000
,
0011
0100
0010
0001
1000
0010
0100
0000
0000
0010
0100
0001
0100
0010
1000
0100
,
0011
0000
0100
1010
0000
0100
0011
0000
1000
0101
0000
0010
1100
0001
0010
0100
,
1001
0010
0100
0001
0100
0010
1000
0000
0000
0100
1000
0010
0100
0001
0100
0010
,
1100
0000
0000
0000
0010
0100
0010
0001
0010
1000
0010
0100
0001
0001
0001
0001
,
1001
0100
0010
0100
0001
0100
1000
0000
0000
0010
0100
0001
1000
0100
0010
0001
,
1100
0000
0001
1010
0000
0100
0011
0000
0100
1001
0000
0010
0101
1000
0010
0100
,
1001
0010
0100
0010
0001
1000
0001
0000
0000
0100
1000
0010
0100
0001
0100
0010
,
1000
0100
1000
0001
0010
0100
2002
3003
0000
0000
2002
3003
0000
0000
1001
0010
,
0100
0010
0001
1000
0100
0010
2002
3003
0000
0000
2020
3030
0000
0000
0101
0010
,
1000
0100
0010
0001
0100
0010
2200
3300
0000
0000
2200
3300
0000
0000
0000
0000
,
0011
0000
0100
0000
0010
0000
1000
0000
0220
0330
0000
0000
1001
0000
1010
0000
,
0100
0000
1000
0000
0011
0000
0100
0000
0022
0033
1000
0100
2002
3003
0000
0000
,
0011
0011
0000
1001
1001
0000
0110
0110
0000
1100
1100
0000
0001
0010
0100
1000
,
0022
0000
0000
0000
,
0000
0000
0000
0000
0000
0033
0000
0000
;
