#TITLE:Blossom;
#SUBTITLE:;
#ARTIST:Au5;
#TITLETRANSLIT:;
#SUBTITLETRANSLIT:;
#ARTISTTRANSLIT:;
#CREDIT:;
#BANNER:../Banner.png;
#BACKGROUND:../BG.png;
#LYRICSPATH:;
#CDTITLE:../CDTitleBRAEDEN.png;
#MUSIC:[Dubstep] - Au5 - Blossom [Monstercat EP Release].ogg;
#OFFSET:0.331;
#SAMPLESTART:20.900;
#SAMPLELENGTH:13.714;
#SELECTABLE:YES;
#DISPLAYBPM:140.000;
#BPMS:0.000=140.000;
#STOPS:;
#BGCHANGES:;
// cache tags:
#FIRSTBEAT:7.000;
#LASTBEAT:819.500;
#SONGFILENAME:Songs/Index Fusion - Part 2/Blossom - [Braeden]/Blossom.sm;
#HASMUSIC:1;
#HASBANNER:1;
#MUSICLENGTH:357.076;
// end cache tags

//---------------dance-single - ----------------
#NOTES:
     dance-single:
     :
     Challenge:
     14:
     0.817,1.000,0.277,0.204,1.000,1849.000,99.000,73.000,17.000,0.000:
0000
0000
0000
0000
,
0000
0000
0000
0000
0000
0000
1000
0100
,
0010
0010
0010
0000
,
0000
0000
0000
0000
0000
0000
0001
0010
,
0110
1001
1010
0000
,
0000
0000
0000
0000
0000
0000
1000
0100
,
0010
0000
0001
0000
1000
0000
0000
0010
,
0000
0000
0000
0000
0000
0000
0100
0001
0100
0000
0000
0000
0000
0000
0000
0000
,
0000
0000
0010
1000
0100
0010
0001
0100
,
0000
0010
0000
0000
,
0000
0000
0010
0100
0011
0000
0000
0M00
,
0M00
0M00
0M00
0M00
0M20
0030
0000
2000
,
3000
0000
0000
0000
0002
0000
0003
0000
1001
0000
0000
1000
0000
0000
0100
0000
,
0000
0010
0000
0000
0001
0000
0000
0100
0000
0000
0010
0000
0000
1000
0200
0000
,
0000
0000
0300
0000
0010
0000
0000
0000
0001
0000
0000
0000
0M00
0000
0000
00M0
,
0000
0000
000M
0000
0000
0M00
0000
0000
00M0
0000
0000
M000
0000
0000
0110
0000
,
0000
0000
1001
0000
0200
0000
0000
0320
,
0000
0000
2030
0000
0000
3020
0000
0030
,
0200
0000
0302
0000
0023
0000
0000
0130
,
0000
0000
0000
0000
2000
0000
0000
3010
,
0000
0010
0110
0000
,
0000
0000
0000
0000
0000
0000
1000
0100
0010
0001
0010
0100
1000
0000
0000
0000
0000
0000
0000
0000
0000
0001
0000
0000
,
0000
0100
0020
0030
,
0000
0000
0000
0000
1000
0000
0000
0001
,
0000
0000
0000
0000
0010
0000
0000
0000
0100
1000
0100
1000
0000
0001
0100
0000
,
0010
1000
0000
1000
0100
0000
0010
0001
1000
0001
0100
0010
0000
1000
0100
0000
,
0010
0001
0000
0010
0100
0000
1000
0001
0100
0010
1000
0100
0000
0010
0001
0000
,
0100
0010
0000
1000
0100
0000
0010
0001
0010
0000
0001
0100
0000
0100
0001
0000
,
1000
0010
0000
0010
1000
0000
0100
0010
0100
0000
1000
0100
0000
0010
0001
0000
,
0010
0100
0000
1000
0100
0000
0010
0000
0010
0000
0001
0100
0000
0100
0010
0000
,
0010
1000
0000
1000
0100
0000
0010
0001
0010
0001
0100
0010
0000
1000
0100
0000
,
0010
0001
0000
0010
0100
0000
1000
0100
1000
0000
0001
0010
0000
0010
0001
0000
,
1000
0100
0000
0100
1000
0000
0001
0100
0010
0000
1000
0100
0000
0010
0001
0000
,
1000
0010
0000
0100
0001
0000
1000
0100
1000
0001
0100
0010
0000
1000
0100
0000
,
0010
0000
0001
0000
0000
0000
0010
0000
0100
0000
0000
0000
1000
0001
1000
0001
1000
0000
0100
0000
0010
0000
0001
0000
0010
0000
0100
0000
1000
0000
0001
0000
,
0100
0000
0010
0000
1000
0000
0001
0000
1000
0100
0010
0001
0010
0100
1000
0001
1000
0000
0000
0000
0000
0000
0000
0000
0000
0000
0000
0000
0000
0000
0000
0000
,
1001
0000
0101
0000
0004
0000
0000
0103
,
0001
0000
0000
0000
0000
0000
0000
0000
0100
0000
0000
0000
0000
0000
0000
0000
0010
0000
0000
0000
0000
0000
0000
0000
1000
0000
0000
0000
0000
0000
0000
0000
0100
0000
0000
0000
0000
0000
0000
0000
0010
0000
0000
0000
0000
0000
0000
0000
0100
0000
0000
0000
0000
0000
0000
0000
1000
0000
0000
0000
0000
0000
0000
0000
0001
0000
0000
0000
0000
0000
0000
0000
0100
0000
0000
0000
0000
0000
0000
0000
0010
0000
0000
0000
0000
0000
0000
0000
1000
0000
0000
0000
0000
0000
0000
0000
0001
0000
0000
0000
0000
0000
0000
0000
0000
0000
0000
0000
0100
0000
0000
0000
0000
0000
0000
0000
0000
0000
0000
0000
0010
0000
0000
0000
0000
0000
0000
0000
0000
0000
0000
0000
1000
0000
0000
0000
0000
0000
0000
0000
0000
0000
0000
0000
0100
0000
0000
0000
0000
0000
0000
0000
0000
0000
0000
0000
0010
0000
0000
0000
0000
0000
0001
0000
0000
0000
0000
0000
0010
0000
0000
0000
0000
0000
0000
0000
0000
0000
0000
0000
0100
0000
0000
0000
0000
0000
0000
0000
0000
0000
0000
0000
,
4000
0000
0000
3400
0000
0000
0000
0000
,
0310
0001
0100
0010
1000
0001
0010
0100
1000
0001
0100
0010
1000
0100
0010
0001
0010
0100
1000
0001
0100
0010
1000
0001
,
0400
0000
0000
0000
0000
0000
0000
0000
0000
0000
0000
0000
0000
0000
0000
0000
0000
0000
0310
0000
0000
0010
0000
0000
2000
0000
0000
0000
0000
0000
0000
0000
3020
0000
0000
0000
0000
0000
0000
0000
0230
0000
0000
0000
0000
0000
0000
0000
,
0301
0000
0010
0000
0100
0000
1000
0000
0100
0000
0010
0000
0001
0000
0000
0100
0000
0000
0010
0000
0000
1000
0000
0000
0200
0000
0000
0310
0000
0000
0001
0000
0000
0010
0000
0000
0100
0000
0000
1000
0000
0000
0010
0000
0000
0100
0000
0000
,
0004
0000
0000
1003
0100
0010
0001
0100
0010
1000
0001
0010
0400
0000
0000
0000
0000
0000
4300
0000
0000
0000
0000
0000
,
3001
0010
0100
1000
0100
0010
0001
0100
0010
1000
0001
0010
0200
0000
0000
0000
0000
0000
0000
0000
0000
0310
0000
0000
,
1010
0000
0100
0000
0040
0000
1030
0001
,
1001
0000
0000
0000
0000
0000
1000
0000
0000
0001
0000
0000
0100
0000
0000
0010
0000
0000
1000
0000
0000
0000
0000
0000
0100
0000
0000
0010
0000
0000
0100
0000
0000
1000
0000
0000
0001
0000
0010
0000
0100
0000
1000
0000
0000
1000
0000
0000
,
0004
0000
0403
0000
,
0310
0000
0000
1000
0000
0000
0010
0000
0000
1000
0000
0000
0001
0000
0000
0100
0000
0000
0001
0000
0000
0100
0000
0000
0010
0000
1000
0000
0100
0000
0010
0000
0100
0000
1000
0000
0001
0000
0010
0000
0100
0000
1000
0000
0001
0000
0100
0000
,
0040
0000
0000
0000
0000
0000
0000
0000
0000
0000
0000
0000
0000
0000
0000
0000
0000
0000
0031
0000
0000
0001
0000
0000
2000
0000
0000
0000
0000
0000
0000
0000
3200
0000
0000
0000
0000
0000
0000
0000
0320
0000
0000
0000
0000
0000
0000
0000
,
0034
0000
0000
0000
0000
0000
0000
0000
0000
1003
0010
0100
0001
1000
0100
0010
0001
1000
0010
0000
0000
0000
0000
0000
,
4000
0000
0000
0000
0000
0000
0000
0000
0000
0000
0000
0000
3001
0100
0010
1000
0100
0010
0100
1000
0001
0100
0010
1000
,
0001
0000
0200
0320
4030
0000
3040
0000
0430
0000
0000
0000
0000
0000
0301
0000
,
0000
0000
0000
0000
0000
0000
0110
0000
0000
0000
0000
0000
1000
0100
0010
0001
0010
0100
1000
0001
0010
0001
0100
0010
,
0100
0001
0010
0001
1000
0100
0010
0001
0010
0100
1000
0001
0100
0010
0100
0001
1000
0100
0010
0100
1000
0001
0010
0100
,
1000
0001
0100
0010
1000
0001
1000
0000
0000
0010
0000
0000
2000
0000
0000
0000
0000
0000
3020
0000
0000
0000
0000
0000
,
0230
0000
0000
0000
0000
0000
0000
0000
0000
0000
0000
0000
0301
0000
0000
0010
0100
1000
0001
0100
0010
1000
0100
0010
,
0001
0000
0100
0000
0010
0000
1000
0000
0001
0000
0100
0000
0010
0000
1000
0000
0001
0000
1000
0000
0000
1000
0000
0000
0400
0000
0000
0000
0000
0000
0000
0000
0000
0000
0000
0000
0310
0000
0001
0000
1000
0000
0100
0000
0010
0000
0001
0000
,
0010
0100
1000
0001
0010
0001
0100
0010
0100
0001
0010
0001
1000
0100
0010
0001
1000
0010
0100
0001
0010
0001
1000
0100
,
0010
0100
1000
0001
0100
0010
0100
0001
0010
0001
1000
0100
0040
0000
0000
0000
0000
0000
0030
0000
0000
0004
0000
0000
,
0203
0000
0000
0000
0000
0000
0000
0000
0310
0000
1000
0000
0110
0000
1000
0001
,
0200
0000
0320
0000
2030
0000
3100
0010
0400
0000
0000
0000
1300
0000
0000
0000
,
1100
0000
0000
0000
0000
0000
1000
0010
0100
0001
1000
0100
2000
0000
0000
0000
0000
0000
3000
0000
0000
0001
0000
0000
,
0010
0010
0400
1300
0001
0010
0100
1000
,
0001
0100
0010
1000
0001
0010
0100
1000
0001
0010
0001
1000
0100
0000
0000
0000
0000
0000
0000
0000
0000
0001
0000
0000
,
1001
0100
0000
0000
,
0000
0000
0000
0000
0000
0000
0000
0000
1000
0100
0010
0001
0010
0100
1000
0001
,
0100
0010
1000
0100
0010
0100
1000
0001
0100
0010
0100
0001
0010
0001
1000
0100
,
0010
0001
0010
0100
1000
0001
0010
0001
0100
0010
0100
0001
0010
0100
1000
0001
,
0100
0010
0100
0001
0010
0001
1000
0100
0010
0100
1000
0001
0010
0100
1000
0001
,
0100
0010
0100
0001
0010
0001
1000
0100
1000
0001
0010
0100
1000
0001
0100
0010
,
0100
0001
0010
0001
1000
0100
0010
0100
1000
0001
0100
0010
1000
0001
0010
0001
,
1000
0100
0010
0100
1000
0001
0010
0100
1000
0001
0010
0001
0100
0010
0100
0001
,
1000
0000
0100
0000
0010
0000
0001
0000
1000
0100
0010
0000
0001
0000
1000
0000
0001
0000
0010
0000
0100
0000
1000
0000
0001
0000
0100
0000
0010
0000
0100
0000
,
0001
0100
0010
1000
0001
0000
0010
0000
0200
0000
1300
0001
0000
0000
0100
0000
,
0000
0010
0000
0000
1000
0000
0001
0000
0100
0000
0010
1000
0000
0000
0010
0000
,
0000
0100
0000
0000
0001
0000
0000
1000
0000
0000
0100
0000
0000
0010
0000
0000
,
0001
0100
0010
1000
0001
0000
0100
0000
0010
0000
1000
0100
0000
0000
0010
0000
,
0000
0001
0000
0000
0100
0000
0010
0000
1000
0000
0001
0100
0000
0000
0010
0000
,
0000
1000
0000
0000
0100
0000
0010
0000
0001
0000
1000
0010
0000
0000
0100
0000
,
0000
0001
0000
0000
0100
0000
0010
0000
1000
0100
0010
0001
0000
0000
1000
0000
,
0000
0001
0000
0000
0100
0000
0010
0000
1000
0100
0010
0001
0010
0100
1000
0001
,
0100
0010
0100
0001
1000
0100
0010
0100
1000
0001
0100
0010
1000
0001
0100
0010
,
1000
0010
0010
0000
1010
0000
0100
0001
0100
0010
1000
0100
0010
0001
1000
0010
,
0100
0001
0010
0001
1000
0100
0010
0001
0010
0100
1000
0001
0100
0010
1000
0100
,
1000
0000
0000
0001
0000
0000
0010
0000
0000
0100
0000
0000
1000
0000
0000
0001
0000
0000
0100
0000
0000
0010
0000
0000
1000
0000
0100
0000
0010
0000
0001
0000
0010
0000
0100
0000
1000
0000
0000
0001
0000
0000
0100
0000
0000
0010
0000
0000
,
1000
0100
0010
0100
1000
0001
0100
0010
1000
0001
0010
0100
1000
0001
0010
0001
,
0100
0010
0010
0000
0110
0000
1000
0100
0010
0001
0010
0100
1000
0001
0100
0010
,
1000
0100
0010
0100
1000
0001
0100
0010
0100
0001
0010
0001
1000
0100
0010
0001
,
1000
0010
0100
0001
1000
0100
0010
0001
1000
0000
0000
0010
0000
0000
0100
0000
,
0000
0001
0000
0000
0100
0000
0010
0000
0100
0000
0000
0001
0000
0000
0100
0000
,
0000
0010
0000
0000
1000
0000
0100
0010
0100
0000
0000
0010
0000
0000
0001
0000
,
0000
0100
0000
0000
0010
0000
1000
0000
0100
0000
0000
0010
0000
0000
0001
0000
,
0000
0100
0000
0000
0010
0000
1000
0100
0010
0000
0000
0001
0000
0000
0100
0000
,
0000
0010
0000
0000
1000
0000
0100
0000
1000
0000
0000
0001
0000
0000
0100
0000
,
0000
0010
0000
0000
1000
0000
0100
1000
0010
0000
0000
0100
0000
0000
0001
0000
,
0000
0100
0000
0000
0010
0000
1000
0000
0100
0000
0000
0010
0000
0000
0001
0000
,
0000
0100
0000
0000
0010
0000
1000
0010
4000
0000
0000
0000
0000
0000
0000
0000
,
3040
0000
0430
0000
,
0301
0000
0000
0000
0100
0010
0000
0000
0100
0000
0000
0010
0000
0000
0100
0000
,
0000
0010
0000
0000
1000
0001
0100
0010
1000
0000
0000
0100
0000
0000
0010
0000
,
0000
0001
0000
0000
0100
0010
0000
0010
0100
0000
0010
0001
0010
0000
0001
1000
,
0001
0000
1000
0010
1000
0000
0010
0100
0010
0000
0100
0001
0100
0000
0010
1000
,
0010
0100
0001
1000
0100
0010
0100
1000
0001
0000
0100
0010
0100
0001
1000
0100
,
0010
0100
1000
0001
0100
0010
1000
0001
1000
0000
0000
0000
0000
0000
0000
0000
,
1000
0000
0000
0000
0001
0000
0000
0000
0100
0000
0000
0000
0140
0000
0000
0000
0000
0000
1030
0100
0010
0001
0010
0100
,
4000
0000
0000
0000
3001
0040
0000
0000
,
0031
0000
0100
0000
0010
0000
1010
0000
0110
0000
0101
0000
,
4010
0000
0000
0000
0000
0000
0000
0000
0000
0000
0000
0000
3010
0000
0100
0000
0001
0000
1000
0000
0100
0000
0010
0000
0002
0000
0000
0000
0000
0000
0000
0000
0000
0000
0000
0000
0000
0000
0000
0000
0000
0000
0003
0000
0000
1000
0000
0000
,
0001
0000
0000
0000
0000
0000
0010
0000
0000
0100
0000
0000
0004
0000
0000
0000
0000
0000
1003
0100
0010
0001
0010
0100
,
1000
0010
0100
0001
1000
0000
0040
0000
0430
0000
0304
0000
0403
0000
0340
0000
,
2030
0000
0000
0000
0000
0000
0000
0000
0000
3200
0000
0000
0000
0000
0000
0000
0000
0000
0310
0000
0001
0000
1000
0000
0040
0000
0000
0000
0000
0000
0000
0000
0000
0000
0000
0000
0000
0000
0000
0000
0000
0000
0000
0000
0000
0000
0000
0000
,
0130
0000
0001
0000
1000
0000
0100
0000
0010
0000
0100
0000
1000
0000
0001
0000
0100
0000
0010
0000
1000
0000
0100
0000
0020
0000
0000
0000
0000
0000
0000
0000
0000
0031
0000
0000
0000
0000
0000
0000
0000
0000
0100
0000
0000
0010
0000
0000
,
2000
0000
0000
0000
0000
0000
0000
0000
0000
3010
0000
0000
0000
0000
0000
0000
0000
0000
0100
0000
0000
0000
0000
0000
0001
0000
0000
0000
0000
0000
0000
0000
0000
0000
0000
0000
1000
0000
0100
0000
0010
0000
0001
0000
1000
0000
0010
0000
,
0100
0001
0000
0100
0000
0010
0000
0000
2000
0000
3020
0000
0230
0000
0302
0000
,
1003
0000
0010
0000
0100
0000
0001
0000
0010
0000
0010
0000
,
0400
0000
0000
0000
0000
0000
0000
0000
0000
0000
0000
0000
0310
0000
1000
0000
0010
0000
0100
0000
0001
0000
1000
0000
0400
0000
0000
0000
0000
0000
0000
0000
0000
0000
0000
0000
0300
0000
0000
0000
0000
0000
0010
0000
0000
0001
0000
0000
,
1000
0000
0000
0000
0010
0000
0000
0000
0100
0000
0000
0000
0001
0010
0100
1000
0001
0100
0010
1000
0100
0010
0001
1000
,
0010
0000
0000
1001
0000
0000
0000
0000
2000
0000
3200
0000
0320
0000
0032
0000
,
4003
0000
0000
3010
0000
0000
0100
0001
4000
0000
0000
0000
0000
0000
0000
0000
,
3002
0000
0000
0000
0000
0000
0000
0000
0000
0000
0000
0000
1003
0000
0010
0000
0100
0000
0001
0000
1000
0000
0100
0000
0010
0000
0000
0000
0000
0000
0000
0000
0000
0001
0000
0000
0000
0000
0000
0000
0000
0000
0100
0000
0000
0000
0000
0000
,
0010
0000
0000
1000
0000
0000
0010
0000
0000
0000
0100
0001
0100
0010
1000
0010
,
4010
3000
4000
3000
4000
3000
4000
3000
0010
0000
0100
0001
0000
0100
0010
0000
,
M001
0100
0000
0010
1000
0100
1000
0001
0100
0000
0010
1000
0000
1000
0010
0000
,
M100
0001
0000
0100
0010
0000
1000
0010
0100
0000
0010
0100
0000
0100
0010
1000
,
001M
0000
0000
0100
0000
0000
0001
0000
0000
0100
0000
0000
0010
0000
0000
1000
0000
0000
0100
0000
0000
0010
0000
0000
0001
0000
0000
0000
0000
0000
1000
0000
0100
0000
0010
0000
0100
0000
1000
0000
0001
0000
0100
0000
0010
0000
1000
0000
,
0004
0000
0000
0000
0000
0000
0000
0000
0013
0000
0000
0000
0000
0000
0000
0000
0001
0000
0000
0000
0000
0000
0000
0000
1000
0000
0000
0000
0000
0000
0010
0000
0000
0100
0000
0000
0000
0000
0000
0100
0000
0000
0001
0000
0000
0000
0000
0000
,
10M0
0100
0000
0100
1000
0010
0100
0001
1000
0000
0100
0010
0000
0001
0010
0001
,
M100
0010
0000
0010
1000
0000
0001
0100
0010
0000
0000
0010
0000
0000
0010
0000
,
1001
0000
0000
0100
0000
0000
0010
0000
1001
0000
0000
0001
0000
0000
0100
0000
,
0000
0010
0000
0000
1000
0000
0000
1000
0000
0000
0000
0000
0000
0000
0000
0001
,
1000
0000
0000
0000
0000
0000
0000
0000
0010
0000
0000
0010
0000
0000
0010
0000
,
0000
0100
0000
0000
0100
0000
0000
0100
0000
0000
0000
0000
0000
0000
1010
0000
,
1000
0000
1001
0000
0101
0000
0000
0010
,
0110
0000
0000
0000
1000
0000
0000
0000
0001
0000
0100
0000
0000
0010
0000
0000
,
1000
0000
0000
0000
0001
0000
0000
0000
1001
0000
0000
0010
0000
0000
0100
0000
,
1000
0001
0000
0000
0001
0000
0000
1000
0001
0000
0000
0000
0000
0000
0000
0000
,
0100
0000
0010
1000
1010
0100
0001
0100
,
1010
0000
0000
0000
0001
0000
0000
0001
0000
0000
0000
0000
0000
0000
0000
0100
,
0100
0000
0000
0000
0010
0000
1000
0000
1001
0000
0000
0010
0000
0000
0100
0000
,
0000
0001
0000
0000
0100
0000
0000
0000
2020
0000
3030
0000
0000
0000
1000
0001
,
0100
0010
1000
0100
0010
0001
0100
0010
1000
0000
0001
0100
0000
0100
0010
0000
,
1000
0000
0000
0100
0000
0000
0000
0000
0000
0010
0000
0000
0001
0000
0000
0000
0000
0000
1000
0000
0010
0000
0100
0000
0001
0000
0000
0000
0000
0000
1000
0000
0000
0100
0000
0000
0000
0000
0000
0100
0000
0000
1000
0000
0000
0001
0000
0000
,
1001
0000
0010
0000
0000
0100
0000
0000
0001
0000
1000
0010
0200
0300
0001
0000
,
1001
0000
0000
0000
0000
0000
0010
0000
0000
0100
0000
0000
0000
0000
0000
0100
0000
0000
0010
0000
0000
0000
0000
0000
1000
0000
0100
0000
0010
0000
0001
0000
0000
0000
0000
0000
0100
0000
0000
0000
0000
0000
0010
0000
0000
0000
0000
0000
,
1000
0100
0010
0001
0100
0010
1000
0001
1001
0000
0000
0000
0001
0100
0010
1000
,
0100
0010
0001
0100
0010
1000
0001
0010
0001
0000
1001
0000
0000
1010
0000
0000
,
1001
0000
0000
0000
0000
0000
0001
1000
0010
0000
0100
0001
0200
0000
0310
0000
,
1010
0000
0000
0000
0000
0000
0100
0000
0000
0001
0000
0000
0000
0000
0000
0100
0000
0000
0010
0000
1000
0000
0100
0000
0010
0000
0000
0000
0000
0000
0011
0000
0000
0000
0000
0000
0000
0000
0000
0001
0000
0000
0000
0000
0000
0100
0000
0000
,
0010
0000
0000
1000
0000
0000
0001
0100
0010
0000
1000
0100
0000
0010
0001
0000
,
1000
0010
0000
0100
0001
0000
1000
0000
0001
0000
0100
0010
0000
0010
1000
0100
,
0010
0000
0001
0000
2000
0000
3010
0000
0100
0000
0001
0100
0020
0000
1030
0000
,
1010
0000
0000
0000
0000
0000
0100
0000
0000
0001
0000
0000
0000
0000
0000
0001
0000
0000
0100
0000
0000
0000
0000
0000
2020
0000
0000
0000
0000
0000
3030
0000
0000
0000
0000
0000
0000
0000
0000
0000
0000
0000
1000
0000
0010
0000
0100
0000
,
0001
0000
0000
0100
0000
0000
0010
0000
1010
0000
1000
0100
0000
0010
0001
0000
,
0100
0010
0000
1000
0100
0000
0010
0001
0010
0000
0100
1000
0000
0001
0100
0000
,
0010
1000
0000
0100
0010
0000
0001
1000
0001
0000
0010
0100
0000
1000
0100
0000
,
0010
0001
0000
0010
0100
0000
0000
1000
0100
0000
0010
0001
0000
0100
0010
0000
,
1000
0100
0000
0010
0001
0000
1000
0010
0100
0000
0001
0010
0000
0100
1000
0000
,
0001
0100
0000
0010
1000
0000
0000
0001
0100
0000
0010
1000
0000
0100
0010
0000
,
0001
0010
0000
0100
1000
0000
0100
1000
0100
0000
1000
0100
0000
0010
0001
0000
,
0010
0100
0000
1000
0001
0000
0100
0010
1000
0000
0100
0010
0000
0001
0010
0000
,
0100
1000
0000
0001
0100
0000
0010
1000
0010
0000
0100
0001
0000
0100
0010
0000
,
1000
0100
0000
0010
0100
0000
1000
0001
0100
0000
0010
1000
0000
0100
0010
0000
,
0001
0000
0000
0010
0000
0000
0000
0000
0000
0100
0000
0000
1000
0000
0000
0000
0000
0000
0001
0000
0100
0000
0001
0000
0010
0000
0000
0100
0000
0000
1000
0000
0000
0001
0000
0000
0100
0000
0000
0010
0000
0000
1000
0000
0000
0100
0000
0000
,
0010
0000
0000
0001
0000
0000
1000
0000
0000
0010
0000
0000
0100
0000
0001
0000
0100
0000
0010
0000
1000
0000
0001
0000
0100
0000
0000
0000
0000
0000
0000
0000
0000
0000
0000
0000
0000
0000
0000
0000
0000
0000
1010
0000
0000
0000
0000
0000
,
0000
0000
0000
0000
0000
0000
0000
0000
0000
0000
0000
0000
0001
0000
0000
0000
0000
0000
1000
0000
0000
0010
0000
0000
0400
0000
0000
0000
0000
0000
0000
0000
0000
0000
0000
0000
0000
0000
0000
0000
0000
0000
0310
0000
1000
0000
0001
0000
,
0100
0000
0010
1000
0000
1000
0000
0000
0002
0000
0103
0010
0000
0010
0000
0000
,
1001
0000
0000
0000
0000
0000
0001
0000
0000
0100
0000
0000
0010
0000
1000
0000
0100
0000
1000
0000
0001
0000
0100
0000
0010
0000
0000
0000
0000
0000
0000
0000
0000
0000
0000
0000
0000
0000
0000
0000
1000
0000
0000
0000
1000
0000
0000
0000
,
1001
0000
0001
0100
0000
0100
0000
0000
0002
0000
0103
0010
0000
1000
0000
0001
,
4000
0000
0000
0000
3010
0010
0400
0000
0000
0000
0000
0000
,
0320
0000
0031
1000
0000
0010
0000
0000
0200
0000
0301
1000
0000
0010
0000
0000
,
0101
0000
0000
0000
0000
0000
0001
0000
0000
1000
0000
0000
0010
0000
0100
0000
0001
0000
1000
0000
0100
0000
0010
0000
0004
0000
0000
0000
0000
0000
0103
0000
0000
0010
0000
0000
0400
0000
0000
0000
0000
0000
0340
0000
0000
0000
0000
0000
,
2030
0000
3010
0100
0000
0001
0000
0000
2002
0000
0000
0000
3003
0000
0202
0000
,
0000
0303
1001
0000
2010
0000
3000
0010
,
0110
0000
0000
0000
0000
0000
0100
0000
0000
0001
0000
0000
0200
0000
0000
0000
0000
0000
0310
0000
0000
1000
0000
0000
0010
0000
0000
0100
0000
0000
0001
0000
0000
1000
0000
0000
0100
0000
0010
0000
0001
0000
0100
0000
0000
0100
0000
0000
,
0040
0000
0430
0000
,
0310
1000
0100
1000
0001
0010
0100
1000
0001
0100
0010
1000
0100
0010
0001
0010
0100
1000
0001
0100
0010
0100
0001
1000
,
0040
0000
0000
0000
0000
0000
0000
0000
0000
0000
0000
0000
0000
0000
0000
0000
0000
0000
1030
0000
0000
1000
0000
0000
0100
0000
0000
0000
0000
0000
0000
0000
0010
0000
0000
0000
0000
0000
0000
0000
0001
0000
0000
0000
0000
0000
0000
0000
,
0401
0000
0000
0000
0000
0000
0000
0000
0000
0310
1000
0001
0100
0010
1000
0001
0010
0100
0010
0000
0000
0000
0000
0000
,
0004
0000
0000
0000
0000
0000
1003
0100
0010
0001
0010
0100
1000
0001
0100
0010
0100
0001
0010
0001
1000
0100
0010
0100
,
1000
0000
0010
0100
0000
0100
0001
0100
0040
0000
0000
0000
0030
0000
1000
0000
,
0000
0000
0000
0000
0000
0000
1001
0000
0000
0000
0000
0000
0001
0010
0100
1000
0001
0010
0001
1000
0100
0010
0001
1000
,
0010
0100
0001
0010
0001
1000
0100
0010
0001
0010
0100
1000
0001
0100
0010
0100
0001
1000
0100
0010
0001
1000
0010
0100
,
0001
0010
0100
1000
0001
0100
0010
0100
0001
1000
0100
0010
0001
1000
0010
0100
0001
0010
0001
1000
0100
0010
0001
1000
,
0010
0100
0001
1000
0100
0010
0001
0010
0100
1000
0001
0010
0001
0100
0010
0100
0001
0010
0001
1000
0100
0010
0100
1000
,
0001
0000
0100
0000
0010
0000
1000
0000
0001
0000
0100
0000
0010
0000
1000
0000
0010
0000
0100
0000
0000
0100
0000
0000
0001
0000
0010
0000
0100
0000
1000
0000
0001
0000
0010
0000
0001
0000
1000
0000
0100
0000
0010
0000
0001
0000
1000
0000
,
0010
0100
0001
0010
0001
1000
0100
0010
0100
1000
0001
0100
0010
0100
0001
0010
0001
1000
0100
0010
0001
0010
0100
1000
,
0001
0010
0001
0100
0010
0100
0001
0010
0100
1000
0001
0100
0010
0100
0001
0010
0001
1000
0100
0010
0100
1000
0001
0100
,
0010
1000
0100
1000
0001
0010
0100
1000
0001
0100
0010
0100
0001
0010
0001
1000
0100
0010
0001
0000
0000
0010
0000
0000
,
0001
0100
0010
0000
0000
1000
0000
0000
0004
0000
0000
0000
0000
0000
0000
0000
,
1003
0000
0000
0010
0000
0000
0100
0001
1000
0010
0100
0001
4000
0000
0000
0000
0000
0000
3000
0000
0000
0001
0000
0000
,
0200
0320
4030
3020
0230
0000
0302
0003
,
1001
0000
0040
0000
0130
0000
0000
0001
,
1001
0000
0100
0000
0001
0000
0000
1000
,
0000
0000
0001
0000
0100
0000
0000
0010
,
0000
0000
1000
0000
0100
0000
0000
0010
,
0000
0000
0001
0000
0100
0000
0000
0010
,
0000
0000
1000
0000
0001
0000
0000
1000
,
0000
0000
0010
0000
0100
0000
0000
0001
,
0000
1000
0002
0000
,
0000
0000
0000
0000
0000
0000
0000
0003
,
0100
0000
0010
1000
0010
0100
0001
1000
,
0000
0000
1001
0000
,
0000
0000
1000
0100
0010
0000
0000
0000
,
0000
0000
0000
0000
1001
0000
0000
0110
,
0000
0000
2002
0000
0000
0000
0000
3003
;

//---------------dance-double - J. Berkowitz----------------
#NOTES:
     dance-double:
     J. Berkowitz:
     Challenge:
     11:
     0.286,0.322,0.151,0.126,0.346,614.000,54.000,45.000,19.000,0.000:
00000000
00000000
00000000
00000000
,
00000000
00000000
00000000
00000000
,
00000000
00000000
00000000
00000000
,
00000000
00000000
00000000
00000000
,
00001000
00000000
00010000
00001000
00000000
00010000
00000010
00000000
00010000
00001000
00000000
00010000
00001000
00000000
00000000
00100000
,
00010000
00000000
00100000
00010000
00000000
00100000
01000000
00000000
00100000
00010000
00000000
00100000
00010000
00000000
10000000
00100000
,
01000000
00000000
00100000
01000000
00000000
00010000
01000000
00000000
00100000
01000000
00000000
00100000
01000000
00000000
00000000
00010000
,
10000000
00000000
00010000
10000000
00000000
01000000
10000000
00000000
00010000
10000000
00000000
00010000
10000000
00000000
00100000
01000000
,
00010000
00010000
00100000
00100000
00001000
00001000
00010000
00010000
,
00000010
00000000
00000000
00000010
00000000
00000000
00001000
00000000
00000000
00001000
00000000
00000000
00000100
00000000
00000000
00000100
00000000
00000000
00000010
00000000
00000000
00000001
00001000
00000001
,
00001000
00000000
00000000
00000010
00000000
00000000
00001000
00000000
00000000
00000010
00000000
00000000
00000100
00000000
00000000
00000001
00000000
00000000
00000100
00000000
00000000
00000001
00000000
00000000
00001000
00000000
00000000
00000100
00000000
00000000
00001000
00000000
00000000
00000100
00000000
00000000
00010000
00000000
00001000
00000000
00010000
00000000
00000100
00000000
00001000
00000000
00000100
00000000
,
00010000
00000000
00000000
00000000
00000000
00000000
00000000
00000000
00000000
00001000
00000000
00000000
00000000
00000000
00000000
00000000
00000000
00000000
01000000
00000000
00000000
00000000
00000000
00000000
01020000
00000000
00000000
00000000
00000000
00000000
00000000
00000000
00000000
00000000
00000000
00000000
10030000
00000000
01000000
00000000
10000000
00000000
00010000
00000000
00100000
00000000
00010000
00000000
,
02000000
00000000
00000000
00000000
03100000
10000000
00010000
00100000
,
00101000
00000000
00000000
00000000
00000000
00000000
00000000
00000000
00000000
00011000
00000000
00000000
00000000
00000000
00000000
00000000
00000000
00000000
00010010
00000000
00000000
00000000
00000000
00000000
00001010
00000000
00000000
00000000
00000000
00000000
00000000
00000000
00001000
00000000
00000000
00000000
00000000
00000000
00000000
00000000
00001000
00000000
00000000
00000000
00000000
00000000
00000000
00000000
,
00001200
00000000
00000000
00000000
00000000
00000000
00000000
00000000
00000000
00000000
00000000
00000000
00000310
00000000
00000001
00000000
00001000
00000000
00000100
00000000
00001000
00000000
00000001
00000000
00000200
00000000
00000000
00000000
00000000
00000000
00000000
00000000
00000000
00000000
00000000
00000000
00000000
00000000
00000000
00000000
00000000
00000000
00000310
00000000
00000000
00001000
00000000
00000000
,
00000100
00000000
00000000
00000000
00000000
00000000
00000000
00000000
00000000
00000100
00000000
00000000
00000000
00000000
00000000
00000000
00000000
00000000
00000100
00000000
00000000
00000000
00000000
00000000
00020100
00000000
00000000
00000000
00000000
00000000
00000000
00000000
00000000
00000000
00000000
00000000
00031000
00000000
00010000
00000000
00001000
00000000
01000000
00000000
00010000
00000000
01000000
00000000
,
00100000
10000000
00010000
00100000
01000000
00000000
10000000
00000000
00100000
00000000
01000000
00000000
00010000
00000000
00100000
00000000
,
00101000
00000000
00000000
00000000
00000000
00000000
00000000
00000000
00000000
00001000
00000000
00000000
00010000
00000000
00000010
00000000
00001000
00000000
00000010
00000000
00000100
00000000
00000010
00000000
00004000
00000000
00000000
00000000
00000000
00000000
00000000
00000000
00000000
00000000
00000000
00000000
00000000
00000000
00000000
00000000
00000000
00000000
00000000
00000000
00000000
00003000
00000000
00000000
,
00001200
00000000
00000000
00000000
00000000
00000000
00000000
00000000
00010300
00000000
00000000
00001000
00000000
00000000
01000000
00010000
,
10000000
00000000
00000000
00000000
00000000
00000000
00000000
00000000
00000000
01000000
00000000
00000000
00000000
00000000
00000000
00000000
00000000
00000000
00100000
00000000
00000000
00000000
00000000
00000000
00020000
00000000
00000000
00000000
00000000
00000000
00000000
00000000
00000000
00000000
00000000
00000000
10030000
00000000
00100000
00000000
01000000
00000000
00010000
00000000
10000000
00000000
01000000
00000000
,
10000000
00000000
00010000
01000000
M0M00000
01000000
10000000
00000000
10020000
00000000
00000000
00000000
00000000
00000000
00000000
00000000
,
01030000
00000000
00000000
00000000
00000000
00000000
00000000
00000000
00000000
01010000
00000000
00000000
00000000
00000000
00000000
00000000
00000000
00000000
01001000
00000000
00000000
00000000
00000000
00000000
00011000
00000000
00000000
00000000
00000000
00000000
00000000
00000000
00010000
00000000
00000000
00000000
00000000
00000000
00000000
00000000
00010000
00000000
00000000
00000000
00000000
00000000
00000000
00000000
,
00010400
00000000
00000000
00000000
00000000
00000000
00000000
00000000
00000000
00000000
00000000
00000000
00001300
00000000
00000100
00000000
00000010
00000000
00000100
00000000
00001000
00000000
00000001
00000000
00000200
00000000
00000000
00000000
00000000
00000000
00000000
00000000
00000000
00000000
00000000
00000000
00000000
00000000
00000000
00000000
00000000
00000000
00000310
00000000
00000000
00001000
00000000
00000000
,
00000001
00000000
00000000
00000000
00000000
00000000
00000000
00000000
00000000
00000001
00000000
00000000
00000000
00000000
00000000
00000000
00000000
00000000
00000001
00000000
00000000
00000000
00000000
00000000
00000021
00000000
00000000
00000000
00000000
00000000
00000000
00000000
00000000
00000000
00000000
00000000
00000130
00000000
00001000
00000000
00000001
00000000
00000100
00000000
00000001
00000000
00001000
00000000
,
00000100
00000000
00000000
00011000
00000000
00000000
00000000
00000000
00001000
00000000
01000000
00000000
00010000
00000000
00100000
00000000
,
02000000
00000000
00000000
00000000
00000000
00000000
00000000
00000000
00000000
13000000
00000000
00000000
00010000
00000000
01000000
00000000
00100000
00000000
01000000
00000000
00010000
00000000
10000000
00000000
04000000
00000000
00000000
00000000
00000000
00000000
00000000
00000000
00000000
00000000
00000000
00000000
00000000
00000000
00000000
00000000
00000000
00000000
00000000
00000000
00000000
00000000
00000000
00000000
,
23000000
00000000
00000000
00000000
00000000
00000000
00000000
00000000
00000000
00000000
00000000
00000000
00000000
00000000
00000000
00000000
30100000
00000000
00000000
01000000
00000000
00000000
00010000
00000000
00100000
00000000
00000000
00001000
00000000
00000000
00010000
00000000
,
00000000
00000000
00001000
00010000
00000100
00001000
00000100
00001000
00000001
00000000
00000100
00000000
00000000
00000000
00000000
00000000
00000010
00000000
00000100
00000000
00000001
00000000
00001000
00000000
00000100
00000000
00000000
00000000
00000010
00000000
00000001
00000000
,
00000000
00001000
00000010
00000000
00001000
00000001
00000000
00001000
00000100
00010000
00001000
00100000
00010000
00000000
00100000
01000000
,
00000000
10000000
00010000
00000000
00100000
00010000
00000000
01000000
00100000
00000000
10000000
00100000
00000000
01000000
00010000
00000000
,
00100000
00000000
00000000
00010000
00000000
00000000
00000000
00000000
00000000
10000000
00000000
00000000
00100000
00000000
00000000
01000000
00000000
00000000
00010000
00000000
00000000
10000000
00000000
00000000
00010000
00000000
00000000
00100000
00000000
00000000
00001000
00000000
00000000
00010000
00000000
00000000
00000010
00000000
00000000
00000000
00000000
00000000
00001000
00000000
00000001
00000000
00001000
00000000
,
00000100
00000000
00000010
00000000
00000001
00000000
00000010
00000000
00000100
00000000
00001000
00000000
00000020
00000000
00000000
00000000
00000000
00000000
00000000
00000000
00000000
00000130
00000000
00000000
0000M0M0
00000000
00000000
00000100
00000000
00000000
00001000
00000000
00000000
00000000
00000000
00000000
00000001
00000000
00000000
00000000
00000000
00000000
00001000
00000000
00000000
00000010
00000000
00000000
,
00000000
00010000
00001000
00000000
00100000
00010000
00000000
10000000
00010000
01000000
00100000
10000000
00010000
00000000
00100000
01000000
,
00000000
10000000
00010000
00000000
10000000
00100000
00000000
01000000
00100000
10000000
00010000
01000000
00001000
00000000
00000000
00010000
,
00000000
00000000
00000100
00000000
00001100
00000000
00000000
00001000
00000000
00000000
00000001
00000000
00000100
00000000
00000001
00000100
,
00000000
00000001
00001000
00000000
00000001
00000100
00000000
00000001
00000100
00000000
00000000
00000010
00001000
00000000
00000010
00001000
,
00000000
00000010
00000100
00000000
00000010
00001000
00000000
00000010
00001000
00000000
00000100
00010000
00001000
00000000
00010000
00001000
,
00000000
00010000
00000010
00000000
00010000
00001000
00000000
00010000
00001000
00000000
00000000
00100000
00010000
00000000
00100000
00010000
,
00000000
00100000
01000000
00000000
00100000
00010000
00000000
00100000
00010000
00000000
10000000
00100000
01000000
00000000
00100000
01000000
,
00000000
00100000
10000000
00000000
00100000
01000000
00000000
00100000
01000000
00000000
00000000
00010000
10000000
00000000
00010000
10000000
,
00000000
00010000
00100000
00000000
00010000
10000000
00000000
00010000
10000000
00000000
00100000
01000000
00010000
00000000
01000000
00010000
,
00000000
01000000
00001000
00000000
01000000
00010000
00000000
01000000
00010000
00000000
00000000
00100000
00010000
00000000
00100000
00010000
,
00000000
00100000
00001000
00000000
00100000
00010000
00000000
00100000
00010000
00000000
00100000
00001000
00010000
00000000
00010000
00000000
,
00000010
00000010
00001000
00001000
00000001
00000001
00000010
00000010
,
00000100
00000000
00000000
00000000
00000000
00000000
00000100
00000000
00000000
00000000
00000000
00000000
00010000
00000000
00000000
00000000
00000000
00000000
00010000
00000000
00000000
00000000
00000000
00000000
00001000
00000000
00000000
00000000
00000000
00000000
00010000
00000000
00001000
00000000
00010000
00000000
00001000
00000000
00000000
01000000
00000000
00000000
00001000
00000000
00000000
01000000
00000000
00000000
,
00010000
00000000
00000000
10000000
00000000
00000000
00010000
00000000
00000000
10000000
00000000
00000000
01000000
00000000
00000000
00100000
00000000
00000000
01000000
00000000
00000000
00100000
00000000
00000000
00010000
00000000
00100000
00000000
01000000
00000000
10000000
00000000
01000000
00000000
00100000
00000000
00010000
00000000
00000000
00000000
00000000
00000000
00000000
00000000
00000000
01000000
00000000
00000000
,
00000000
00000000
00001000
00000000
00021000
00000000
00000000
00000000
00000000
00000000
00000000
00000000
00030010
00000000
00001000
00000100
,
0000M0M0
00000100
00000001
00000000
00000010
00000000
00000001
00000100
0000M0M0
00000100
00001000
00000000
00000010
00000000
00010000
00001000
,
00200000
00000000
00000000
00000000
00320000
00000000
00000000
00000000
10030000
01000000
00100000
00010000
00100000
00000000
00010000
01000000
,
M0M00000
01000000
10000000
00000000
00100000
00000000
10000000
01000000
M0M00000
01000000
00010000
00000000
00210000
00000000
00000000
00000000
,
00000000
00000000
00301000
00010000
00004000
00000000
00000000
00000000
00000000
00000000
00000000
00000000
00013000
00000000
00000100
00001000
,
000M0M00
00001000
00010000
00000000
00001000
00000000
00100000
00010000
00M0M000
00010000
00001000
00000000
00010000
00000000
00000010
00001000
,
00000200
00000000
00000000
00000000
00000310
00000001
00000010
00000001
00001000
00000000
00001000
00000000
00000010
00000000
00001000
00000100
,
0000M0M0
00000100
00000001
00000000
00002001
00000000
00000000
00000000
00000000
00000000
00003100
00000000
00020100
00000000
00000000
00000000
,
00031000
00000000
00000000
00000000
02010000
00000000
00000000
00000000
00000000
00000000
03100000
00000000
10000000
00010000
00100000
00010000
,
10000000
00000000
00100000
00000000
01000000
00000000
00010000
00000000
10000000
00000000
01000000
00000000
10000000
00000000
00010000
00000000
01000000
00000000
00001000
00010000
00001000
00000000
01000000
00000000
00200000
00000000
00000000
00000000
00000000
00000000
00000000
00000000
,
00000000
00000000
00000000
00000000
40300000
00000000
00000000
00000000
00000000
00000000
00000000
00000000
31000000
00000000
00100000
00010000
,
01000000
00001000
00021000
00000000
00000000
00030010
00001020
00000000
,
00000000
00000000
00000130
00000100
00000001
00000000
00000000
00000001
00000000
00000000
00000001
00000000
00002001
00000000
00000000
00000000
,
00000000
00000000
00000000
00003100
00010000
00000100
00040000
00000000
00000000
00000000
00000000
00000000
00031000
00000000
00000000
0000M000
00000000
00000000
00120000
00000000
00000000
00000000
00000000
00000000
,
00000000
00000000
00000000
00000000
00000000
00000000
00000000
00000000
00000000
00000000
00000000
00000000
00130000
00000000
00010000
00000000
10000000
00000000
01000000
00000000
10000000
00000000
00010000
00000000
01000000
00000000
00100000
00000000
10000000
00000000
00100000
00000000
01000000
00000000
00010000
00000000
00100000
00000000
00000000
00000000
00000000
00000000
01000000
00000000
00000000
10000000
00000000
00000000
,
00020000
00000000
00000000
00030000
01010000
00000000
00000000
00000000
00000000
00000000
00011000
00000000
00000000
00000000
00000000
00000000
,
00001100
00000000
00000000
00000000
00000120
00000000
00000000
00000000
00000000
00000000
00000000
00000030
00000012
00000000
00000000
00000003
,
00001000
00000000
00001020
00000000
00010030
00000000
00011000
00001000
,
00100000
00010000
10010000
00000000
10000000
00100000
01020000
00000000
,
00130000
00000000
00000000
00000000
00000000
00000000
00000000
00000000
00000000
00000000
00000000
00000000
00101000
00000000
00000000
00000000
00000000
00000000
00001000
00000000
00000000
00000000
00000000
00000000
00010000
00000000
00000000
00000000
00000000
00000000
00000010
00000000
00000000
00001000
00000000
00000000
00000100
00000000
00000010
00000000
00000001
00000000
00000010
00000000
00000100
00000000
00001000
00000000
,
00000001
00000000
00000000
00000100
00000020
00000000
00000000
00000000
00001030
00000000
00000000
00000000
00002200
00000000
00000000
00003300
,
00022000
00000000
00000000
00000000
00000000
00033000
00220000
00000000
00000000
00000000
00000000
00330000
01100000
00000000
01000000
00000000
,
10000000
00100000
01010000
00000000
00010000
00100000
00102000
00000000
,
00013000
00000000
00000000
00000000
00011000
00000000
00010000
00000000
00000010
00000000
00001000
00000001
00000010
00000000
00000100
00000000
,
00001000
00000000
00000000
00001000
00000020
00000000
00000000
00000000
00000130
00000000
00000000
00000000
00001020
00000000
00000000
00000000
,
00001030
00000010
00010000
00001000
00010000
00001000
00200000
00000000
00000000
00000000
00000000
00000000
00310000
00000000
00000000
00000000
00000000
00000000
10010000
00000000
00000000
10000000
00000000
00000000
,
00100000
01000000
01020000
00000000
00130000
00000000
00102000
00000000
,
00013000
00000000
00010020
00000000
00000000
00000130
00000110
00000000
,
00000010
00001001
00000000
00000000
;
