#TITLE:Twilight;
#SUBTITLE:(Kaiser Edit);
#ARTIST:KaW;
#TITLETRANSLIT:;
#SUBTITLETRANSLIT:;
#ARTISTTRANSLIT:;
#CREDIT:;
#BANNER:banner.png;
#BACKGROUND:bg.png;
#LYRICSPATH:;
#CDTITLE:;
#MUSIC:twilight.mp3;
#OFFSET:-0.134;
#SAMPLESTART:42.553;
#SAMPLELENGTH:12.000;
#SELECTABLE:YES;
#BPMS:0.000=139.130,16.000=139.830,48.000=140.130,176.000=139.870;
#STOPS:;
#BGCHANGES:;
// cache tags:
#FIRSTBEAT:8.000;
#LASTBEAT:240.000;
#SONGFILENAME:Songs/cedric step/Twilight/twilight.sm;
#HASMUSIC:1;
#HASBANNER:1;
#MUSICLENGTH:107.266;
// end cache tags

//---------------dance-single - ----------------
#NOTES:
     dance-single:
     :
     Challenge:
     10:
     0.677,0.671,0.550,0.280,0.797,406.000,59.000,30.000,9.000,35.000:
0000
0000
0000
0000
,
0000
0000
0000
0000
,
0000
0000
0000
0000
,
0000
0000
0000
0000
,
0000
1000
0100
0000
1001
0000
1000
0010
0000
1001
0000
0000
1100
0000
0101
0000
,
0000
1000
0001
0000
1000
0000
1000
0100
0000
1001
0000
0010
0001
0000
0101
0000
,
0000
1000
0010
0000
1001
0000
0100
0001
0000
0011
0000
0000
0001
0010
0100
0000
,
0000
1000
0100
0000
1100
0000
0010
0001
0000
0001
1000
0000
1100
0000
0101
0000
,
0000
1000
0100
0000
0011
0000
0001
0100
0000
1010
0000
0000
0110
0000
1001
0000
,
0000
1000
0010
0000
1001
0000
0100
0001
0000
0011
0000
0001
0100
0000
1001
0000
,
0000
1000
0100
0000
1010
0000
0100
0010
0000
0101
0000
0000
0001
0100
0010
0000
,
0000
1000
0100
0000
1001
0000
0001
0100
0000
0000
0000
0000
0000
0000
0000
0000
,
0000
1100
0000
1000
0100
0000
0100
1000
0000
0001
0000
1000
0100
0010
0001
1000
,
0000
0001
0000
1000
0010
0000
0010
1000
0000
1000
0010
0000
1000
0100
1000
0000
,
0000
1000
0000
0100
0010
0000
0010
0001
0000
0001
0000
1000
0010
0100
0001
1000
,
0000
0001
0000
0010
0100
0000
0010
0100
0000
1000
0001
0100
0010
1000
0100
0010
,
0000
0010
0000
0001
0100
0000
0100
0001
0000
0001
0000
0010
0100
0010
0001
0100
,
0000
0100
0000
0010
1000
0000
1000
0100
0000
0100
0010
0000
0001
0010
0001
0100
,
0000
0001
0000
1000
0100
0000
0010
0001
0000
0010
0000
0100
0010
0001
0100
0010
,
0000
1000
0000
0010
0100
0000
0010
1000
0000
1000
0100
0010
0100
0010
0001
1000
,
0000
0010
0000
0010
1000
0000
0010
1000
0000
1000
0000
0010
0100
0010
1000
0100
,
0000
0100
0000
0010
0001
0000
0010
0001
0000
0001
0100
0000
0100
0010
1000
0100
,
0000
1000
0000
0010
1000
0000
0010
0100
0000
0001
0000
0010
0100
1000
0010
0100
,
0000
0010
0000
1000
0100
0000
0010
0001
0000
0100
0010
1000
0100
0010
0001
0100
,
0000
0001
0000
0010
0100
0000
1000
0001
0000
1000
0000
0001
0100
0001
0010
0001
,
0000
0001
0000
0001
1000
0000
0001
1000
0000
0100
1000
0000
0010
1000
0001
1000
,
0000
0010
0000
0010
0100
0000
0010
1000
0000
0100
0000
1000
0001
0010
0100
0010
,
0000
0001
0000
0100
0010
0000
0010
0100
0000
0010
0100
0001
0100
0010
1000
0100
,
2000
0000
0000
0000
0200
0000
0000
0000
0001
0000
0000
0010
0300
0000
3100
0000
,
0100
0000
0000
0000
1000
0000
0000
0000
0001
1000
0010
0000
0010
1000
0002
0000
,
0200
0000
0000
0000
1000
0000
0303
0000
0100
0000
0000
0001
0000
0000
2000
0000
,
0002
0000
0000
0000
0010
0000
3003
0000
0001
1000
0001
0000
1000
0010
0100
0000
,
0002
0000
0000
0000
0200
0000
0000
0000
1000
0303
0000
0001
0000
0000
0100
0000
,
0001
0000
0000
0000
1000
0000
0000
0000
0010
1000
0100
0000
0010
0001
0100
0000
,
0010
0000
0000
0000
1000
0000
0000
0000
0001
0000
0000
1000
0000
0000
0001
0000
,
2002
0000
0000
0000
0010
3000
0000
0000
,
0200
0000
0000
0000
1010
0303
0000
0200
,
0000
0002
0000
0000
1000
0300
2000
0010
,
0000
3003
0000
0000
1001
0000
0000
0020
,
0000
0200
0000
0000
1000
0030
0002
0000
,
1010
0303
0000
0000
0000
0000
0000
0002
,
0000
0200
0000
0000
1000
0003
0020
0000
,
1000
0030
0002
0000
0010
0303
0000
0000
,
2200
0000
0000
0001
0010
3300
0000
0000
,
0000
0001
0010
0000
1001
0000
0001
1000
0000
0100
0000
0000
1100
0000
0101
0000
,
0000
1000
0100
0000
1000
0000
0001
0010
0000
1001
0000
0100
1000
0000
1010
0000
,
0000
0001
0100
0000
1001
0000
0010
1000
0000
1010
0000
0000
0010
0100
0001
0000
,
0000
0001
0010
0000
0011
0000
0100
1000
0000
1000
0001
0000
0011
0000
1010
0000
,
0000
0010
0100
0000
1001
0000
1000
0010
0000
0101
0000
0000
0110
0000
1001
0000
,
0000
0100
0010
0000
1001
0000
0010
1000
0000
1001
0000
0100
0010
0000
1001
0000
,
0000
0001
0010
0000
1001
0000
0010
0100
0000
1010
0000
0000
0010
1000
0100
0000
,
0000
0010
0001
0000
0100
0000
0100
0010
0000
0000
0000
0000
0000
0000
0000
0000
,
111M
0000
1M11
0000
,
M111
0000
111M
1M11
,
M111
0000
1111
0000
,
111M
0000
1M11
M111
,
1002
0200
0010
1000
,
1010
0003
1000
0000
0020
0000
1000
0000
,
0002
0000
0330
0000
2000
0000
0000
0000
0010
0000
0000
0003
0002
0000
0000
0000
,
0010
0000
0000
3000
2000
0000
0000
0000
0010
0000
0000
0000
3003
0000
0000
0000
,
1111
0000
0000
0000
:




a=note=20.000000,
;

//---------------dance-single - Kaiser Edit----------------
#NOTES:
     dance-single:
     Kaiser Edit:
     Edit:
     10:
     0.736,0.727,0.121,0.177,1.000,521.000,13.000,19.000,0.000,1.000:
0000
0000
0000
0000
,
0000
0000
0000
0000
,
0001
0000
1000
0000
0000
0010
0000
0000
1000
0000
0001
0000
0000
0100
0000
0000
,
1000
0000
0010
0000
0000
1000
0000
0000
0001
0000
0000
0000
0100
0000
0000
0000
,
0000
1000
0000
1000
0010
0000
0010
1000
0000
0001
0000
0100
1000
0000
0010
0000
,
0000
0010
1000
0000
0001
0000
0100
1000
0000
0010
0000
1000
0010
1000
0010
1000
,
0000
0001
0000
0001
0100
0000
0100
1000
0000
1000
0000
0010
1000
0000
0001
0000
,
0000
0001
0010
0000
0100
0000
0100
1000
0000
0010
0000
1000
0010
1000
0010
1000
,
0000
0001
0000
0001
0100
0000
0100
1000
0000
1000
0010
1000
0000
0010
0000
0000
,
0000
0010
1000
0000
0001
0000
0100
1000
0000
0010
1000
0000
0010
1000
0010
1000
,
0000
0001
0100
0000
0100
0000
0100
1000
0000
0010
1000
0010
1000
0001
0000
0100
,
0000
0100
0000
1000
0010
0000
1000
0010
0000
1000
0000
0000
0000
0000
0000
0000
,
0010
1000
0000
1000
0000
0100
0100
0001
0001
0100
0000
0000
0100
1000
0010
0000
,
0000
0010
1000
1000
0100
0000
0100
0001
0001
0000
0010
0010
0000
0100
1000
0010
,
0000
1000
0000
0010
1000
0000
0001
0100
0000
0100
0000
0100
1000
0010
1000
0010
,
0000
1010
0000
0000
1100
0000
0001
0000
0010
0010
0000
0000
1010
0000
0010
1000
,
0000
0100
0000
0100
1000
0000
0001
0100
0001
0000
0000
0001
0010
0001
0010
0001
,
0000
0100
0000
0100
1000
0000
0010
1000
0000
0010
0000
0010
1000
0010
1010
0000
,
0000
0001
0000
0010
0100
0000
1000
0010
0000
1000
0000
0010
1000
0010
1000
0001
,
0000
0100
0000
0100
1000
0000
0010
1000
0001
0100
1000
0100
1000
0100
1000
0100
,
1020
0000
0000
0000
1000
0030
0001
0000
0000
0100
0000
1000
0010
0000
1000
0001
,
0100
1000
0010
1000
0001
0100
0000
1000
0000
0000
0010
1000
0000
0000
0000
0000
,
2000
0000
0000
0100
0000
0000
0010
0100
0000
0100
0000
0100
0010
0000
0100
3000
,
0002
0000
0000
0000
0100
0000
0100
0100
0000
1000
0000
0010
1000
0000
0010
0000
,
0000
1000
0000
0010
1000
0000
0100
1000
0000
0100
0000
0100
1000
0010
1000
0010
,
0000
0003
2000
0000
0010
0000
3010
1000
0001
0000
0100
1000
0001
0010
0000
1000
,
0000
0000
0010
0010
1000
0000
0001
0100
0000
0100
0000
0100
1000
0010
1000
0010
,
0000
0001
0000
0010
0000
0100
1000
0110
2000
0000
0000
0000
0020
0000
0000
0000
,
0000
0000
3031
0000
0001
0000
0000
0100
1000
0000
0000
0000
0001
0000
0100
0000
,
1000
0000
0010
0000
1000
0000
0010
0000
1000
0000
0001
0100
0000
0100
0000
1000
,
0010
0000
1000
0000
0001
0000
0001
0000
0100
0000
0100
1000
0000
1000
0000
0010
,
1000
0010
1000
0010
1000
0000
0000
0000
0001
0100
0100
1000
0000
0100
1000
0000
,
0010
0000
1000
0000
0010
0000
0010
0010
1000
0000
0001
0000
0100
0000
0100
0000
,
1000
0000
0001
0000
0100
0000
0010
0000
1000
0010
1000
0010
1000
0010
1000
0010
,
0000
0001
0100
0000
1000
0000
0010
0000
1000
0000
0001
0000
0100
0000
1000
0010
,
0000
0000
1000
0002
0000
0000
0103
0000
1000
0010
1000
0010
0000
1000
0000
0000
,
0001
0001
0100
0100
1000
0000
0000
0010
,
0000
0000
0002
0000
0000
0000
0100
0000
2003
0000
0000
0000
0020
0000
0000
3030
,
0000
1000
0000
0002
0000
0100
0003
1000
0020
2000
0000
0000
0000
0030
3002
0000
,
0000
0000
0200
0000
0000
0003
1300
0000
0010
1000
0000
0000
0001
0100
0000
0000
,
0010
0000
1000
0000
0002
0000
0100
0003
2000
0200
0000
0000
0300
3000
0002
0000
,
0000
0013
0000
1000
0010
1000
0010
0000
,
0001
0000
0010
0000
0100
0000
1000
0000
0010
0000
0000
0000
0000
0001
1000
0000
,
0000
0110
0000
0010
1000
0000
1001
0000
,
0000
0010
1000
0000
1000
0000
0000
1000
0000
1000
0000
0001
0000
0100
0100
0000
,
0000
0001
0010
0000
0100
0000
0100
1000
0000
0010
0000
0000
0010
1000
0010
1000
,
0000
0001
0000
0001
0100
0000
0100
0000
1000
1000
0000
0010
1000
0010
0000
1010
,
0000
0000
0001
0000
0010
0000
0001
0010
0001
0000
0010
0000
0001
0000
0010
0000
,
0000
0100
1000
0000
0010
1000
0010
1000
0000
0001
0000
0100
1000
0000
0100
0000
,
0000
0010
1000
0000
0010
1000
0001
0000
0100
1000
0000
0000
1100
0000
0001
0100
,
1000
0000
0010
0000
1000
0010
1000
0010
0000
0010
0000
0010
1000
0000
0001
0000
,
0100
1000
0010
1000
0010
1000
0010
1000
0010
0000
1000
0001
0000
0100
0000
0000
,
0100
1000
0000
1000
0010
0000
0010
0001
0000
0001
0000
0001
0100
0000
0100
1000
,
0000
0010
0000
1000
0010
0000
1000
0010
0000
0100
0000
0001
0000
0101
0000
0101
,
0000
0001
0000
0001
0010
0000
0100
1000
0000
1000
0000
1000
0010
0100
0000
0000
,
0000
0001
0010
0000
0010
0100
0000
1000
0000
0100
0000
0001
0000
0100
0000
1000
,
0000
0010
0000
0010
1000
0000
0100
1100
0000
0001
0000
0001
0100
0100
1000
0000
,
0000
0010
0000
0010
1000
0000
1000
0100
0000
0100
0000
0100
0001
0000
0001
0010
,
0000
0010
0000
0000
0001
0010
0000
0000
0010
0000
0000
0010
1000
0010
1000
0010
,
0000
1000
0000
0001
0000
0100
0100
1000
0000
0010
0000
0010
1000
0000
0010
0000
,
0010
0000
0000
0000
;
