#TITLE:Over The Frail Dream;
#SUBTITLE:;
#ARTIST:PHANTASMA;
#TITLETRANSLIT:;
#SUBTITLETRANSLIT:;
#ARTISTTRANSLIT:;
#CREDIT:;
#BANNER:frail-bn.jpg;
#BACKGROUND:frail-bg.jpg;
#LYRICSPATH:;
#CDTITLE:cdtitle.png;
#MUSIC:Over The Frail Dream.mp3;
#OFFSET:-2.298;
#SAMPLESTART:32.394;
#SAMPLELENGTH:12.000;
#SELECTABLE:YES;
#BPMS:0.000=200.000;
#STOPS:;
#BGCHANGES:;
// cache tags:
#FIRSTBEAT:0.000;
#LASTBEAT:288.000;
#SONGFILENAME:Songs/Hard Songs Megapack Volume 9/Over the Frail Dream/Over The Frail Dream.sm;
#HASMUSIC:1;
#HASBANNER:1;
#MUSICLENGTH:91.898;
// end cache tags

//---------------dance-single - TOML Ripoff----------------
#NOTES:
     dance-single:
     TOML Ripoff:
     Challenge:
     13:
     1.000,1.000,1.000,0.044,1.000,1083.000,370.000,4.000,8.000,51.000:
1001
1010
0101
1010
0001
0110
1001
0110
,
0000
0011
1100
1001
0000
0110
1001
0110
,
0000
0101
1010
0101
0001
0010
1100
1011
,
0000
1011
0100
1011
0000
1010
0101
1010
,
0010
0100
1001
0100
1010
0100
1001
0100
0011
0100
1010
0100
0011
0100
1001
0100
,
0001
0010
1100
0010
1001
0010
1100
0010
0001
0010
1100
0010
1001
0010
0101
0010
,
0001
1000
0011
0100
0011
1000
0101
0010
1001
0100
0001
1000
0101
0010
1101
0000
,
0000
0000
1101
0000
0000
0000
1101
0000
0000
0000
0010
0000
1010
0100
1010
0100
,
1011
0100
0011
1000
0101
0010
1001
0100
1001
0010
0101
1000
0011
0100
1001
0010
,
0100
1000
0011
0100
1010
0001
1100
0010
0100
0001
1100
0010
1001
0100
0011
1000
,
0001
0010
0101
1000
0011
0100
1001
0010
0101
1000
0001
0100
1010
0100
1001
0010
,
0100
0010
1001
0100
0010
0100
1001
0010
0100
0010
1100
0010
1001
0100
0011
0100
,
0001
0010
1100
0001
1010
0100
1001
0010
0101
1000
0101
0010
1001
0100
1010
0001
,
0010
0100
1001
0010
1100
0001
0110
1000
0001
0010
0101
1000
0110
0001
1100
0010
,
0100
0010
0101
1000
0011
1000
0101
0010
1100
0001
0010
0001
1010
0100
1011
0100
,
0010
0100
1011
0100
0010
0100
1011
0100
0010
0100
1001
0010
1100
0001
0110
0001
,
1110
0001
1010
0100
1001
0010
0101
1000
0011
0100
1010
0100
0011
1000
0101
0010
,
0100
0010
1100
0001
0110
1000
0101
0010
0100
0001
1100
0010
0101
0010
1100
0001
,
0100
0010
1001
0100
1010
0001
1100
0010
1001
0010
0101
1000
0110
0001
1010
0001
,
1000
0001
0110
1000
0101
0010
1100
0001
0100
0010
1001
0100
0010
0100
1001
0010
,
0100
0010
1100
0010
0101
0010
1001
0100
0011
1000
0101
1000
0010
1000
0110
0001
,
1000
0010
0101
0010
1100
0001
0110
1000
0001
0100
1000
0010
0101
1000
0011
0100
,
0001
1000
0110
1000
0101
1000
0110
1000
0011
1000
0110
1000
0011
1000
0111
0000
,
0000
0000
1101
0000
0000
0000
1101
0000
1000
0100
0010
0001
1010
0001
1100
0001
,
1110
0001
0010
0100
1001
0100
0010
0001
1010
0100
1000
0001
1100
0010
0100
0001
,
1010
0001
1000
0010
1001
0100
1000
0010
1100
0001
0010
0100
1001
0010
0100
0010
,
1101
0010
0100
0010
1001
0100
1000
0001
0110
0001
1000
0001
0110
1000
0010
1000
,
0111
1000
0010
0001
1100
0010
1000
0001
1010
0100
1000
0100
0011
0100
1010
0100
,
1011
0100
0001
0100
0011
1000
0100
0001
0110
1000
0010
0100
1001
0010
0100
1000
,
0111
1000
0001
1000
0011
0100
0001
0010
1101
0010
0100
1000
0110
0001
1000
0100
,
1011
0100
0001
0100
1001
0010
0100
0001
1010
0001
0100
0010
1100
0001
0100
0001
,
1110
0001
1000
0010
1100
0001
0100
0010
1101
0010
0100
1000
0111
1000
0110
0001
,
1110
0001
0100
0010
1001
0100
1000
0001
0110
0001
0010
0001
1110
0001
1000
0010
,
1100
0001
0010
0100
1001
0100
0010
0100
1011
0100
0010
0001
1010
0100
1000
0010
,
1101
0010
0100
0010
0101
1000
0010
0100
1001
0010
0100
0001
1110
0001
0100
0001
,
1110
0001
0100
0001
1010
0100
0001
0010
1101
0010
0100
0010
0101
1000
0110
1000
,
0111
1000
0001
1000
0011
0100
0001
0010
0101
1000
0010
0100
1011
0100
0010
0100
,
1011
0100
0010
1000
0011
0100
0001
0010
1101
0010
0100
0010
1100
0001
0100
1000
,
0111
1000
0010
1000
0101
1000
0100
1000
0110
1000
0001
1000
0011
1000
0001
1000
,
0111
1000
0100
0001
1010
0001
0100
0001
1010
0001
1010
0001
1100
0001
1010
0001
,
1110
0001
0100
0010
1100
0010
1001
0100
1010
0001
1100
0010
0100
0001
1100
0010
,
0001
0010
1100
0010
0101
1000
0110
0001
0100
1000
0110
0001
0110
1000
0101
1000
,
0011
0100
0010
1000
0001
0010
1100
0010
0001
1000
0001
0010
0100
0001
1000
0010
,
0100
0001
0010
0100
1000
0010
0001
1000
0100
0010
1100
0001
1100
0010
0101
1000
,
0110
0001
1000
0001
0010
0100
1000
0001
0110
1000
0110
1000
0110
1000
0101
0010
,
0100
1000
0011
0100
0010
1000
0011
1000
0101
0010
1001
0010
1100
0001
0110
1000
,
0101
0010
1000
0001
0100
0010
1100
0001
0010
0100
1000
0100
0010
0001
0100
0010
,
1000
0001
0100
0010
1000
0010
0100
0001
1000
0010
1000
0010
1101
0010
1100
0001
,
1110
0001
0100
0010
1000
0100
1000
0010
0001
1000
0110
1000
0101
0010
1001
0100
,
0011
1000
0001
0010
0100
1000
0010
0100
1001
0010
0100
0001
0110
1000
0001
0100
,
0011
0100
0001
0010
0001
0100
1010
0001
0100
1000
0010
1000
0100
1000
0001
0100
,
0010
1000
0100
0010
0001
0010
0001
0100
0011
1000
0100
1000
0110
1000
0101
1000
,
0011
0100
1000
0010
0100
0010
1000
0001
0010
1000
0101
0010
1100
0010
0101
0010
,
1100
0010
1000
0010
0100
1000
0010
0100
1001
0010
0100
0001
1000
0100
0010
0100
,
0011
0100
0001
0100
1000
0100
0010
0100
0001
0100
1000
0100
1001
0100
1001
0010
,
1100
0001
1100
0010
1101
0010
1001
0100
1011
0100
1010
0001
1110
0001
1100
0010
,
1101
0010
1100
0010
0101
1000
0011
0100
1001
0010
1100
0010
0101
1000
0011
0100
,
0001
1000
0110
0001
1010
0001
1100
0010
0100
0001
1100
0010
1001
0100
0011
0100
,
1000
0010
0101
0010
1100
0010
0101
1000
0011
0100
0001
0010
1100
0001
0110
1000
,
0001
1000
0110
0001
1000
0001
0110
1000
0001
0100
1010
0100
1001
0010
0101
1000
,
0010
0100
1010
0100
0011
0100
1010
0100
0011
1000
0110
1000
0011
0100
1001
0010
,
0100
1000
0011
0100
1010
0001
1100
0010
0100
0010
1100
0001
0110
1000
0101
0010
,
0100
0001
0110
0001
1010
0001
1100
0010
1001
0100
0010
0001
1100
0001
1110
0001
,
0100
0001
1110
0001
0100
0010
1101
0010
0100
0010
1001
0010
0101
1000
0011
0100
,
1011
0100
0011
0100
1010
0100
0011
1000
0101
0010
1001
0010
1100
0010
0101
0010
,
0100
1000
0011
0100
1010
0001
0110
1000
0001
0100
1001
0010
1100
0010
1001
0100
,
1000
0010
0101
0010
1100
0010
0101
1000
0011
0100
1001
0100
0011
1000
0110
0001
,
0010
0100
1001
0010
0101
0010
1100
0010
0100
0001
0110
1000
0001
1000
0110
0001
,
1000
0001
1010
0100
0011
0100
1001
0010
1100
0010
1001
0010
1100
0001
0110
1000
,
0001
0100
1010
0001
1100
0010
1001
0010
0100
0010
1100
0010
0101
1000
0011
1000
,
0001
1000
0011
1000
0101
1000
0011
1000
0110
1000
0101
1000
0011
1000
0111
0000
,
MMMM
1011
MMMM
2222
0000
0000
0000
0000
,
3333
0000
0000
0000
;

//---------------dance-single - Copied from TOML Rip----------------
#NOTES:
     dance-single:
     Copied from TOML Rip:
     Edit:
     15:
     1.000,1.000,1.000,0.044,1.000,1111.000,407.000,4.000,0.000,164.000:
1001
1010
0101
1010
0011
0110
1001
0110
,
1000
0011
1100
1001
0001
0110
1001
0110
,
1000
0101
1010
0101
1001
0010
1100
1011
,
0100
1011
0100
1011
0100
1010
0101
1010
,
0010
0100
1001
0100
1011
0100
1001
0100
0011
0100
1010
0100
1011
0100
1001
0100
,
0001
0010
1100
0010
1101
0010
1100
0010
0001
0010
1100
0010
1101
0010
0101
0010
,
0001
1000
0011
0100
1011
0100
1001
0010
1001
0100
0001
0010
1101
0010
1101
0010
,
0100
0001
1110
0001
0100
1000
0111
1000
0001
0100
0010
0100
1010
0101
1010
0101
,
1011
0100
0011
1000
1101
0010
1001
0100
1001
0010
0101
1000
1011
0100
1001
0010
,
0100
1000
0011
0100
1110
0001
1100
0010
0100
0001
1100
0010
1011
0100
0011
1000
,
0001
0010
0101
1000
1011
0100
1001
0010
0101
1000
0001
0100
1011
0100
1001
0010
,
0100
0010
1001
0100
0011
0100
1001
0010
0100
0010
1100
0010
1101
0100
0011
0100
,
0001
0010
1100
0001
1011
0100
1001
0010
0101
1000
0101
0010
1101
0100
1010
0001
,
0010
0100
1001
0010
1110
0001
0110
1000
0001
0010
0101
1000
1110
0001
1100
0010
,
0100
0010
0101
1000
0111
1000
0101
0010
1100
0001
0010
0001
1110
0100
1011
0100
,
0001
0010
1101
0010
1000
0100
1011
0100
0010
0100
1001
0010
1101
0001
0110
0001
,
1110
0001
1010
0100
1011
0010
0101
1000
0011
0100
1010
0100
1011
1000
0101
0010
,
0100
0010
1100
0001
1110
1000
0101
0010
0100
0001
1100
0010
1101
0010
1100
0001
,
0100
0010
1001
0100
1110
0001
1100
0010
1001
0010
0101
1000
1110
0001
1010
0001
,
1000
0001
0110
1000
0111
0010
1100
0001
0100
0010
1001
0100
0011
0100
1001
0010
,
0100
0010
1100
0010
1101
0010
1001
0100
0011
1000
0101
1000
0110
1000
0110
0001
,
1000
0010
0101
0010
1110
0001
0110
1000
0001
0100
1000
0010
1101
1000
0011
0100
,
0001
1000
0110
1000
0111
1000
0110
1000
0011
1000
0110
1000
0111
1000
0111
1000
,
0100
0010
1101
0010
1000
0010
1101
0010
1000
0100
0010
0001
1010
0001
1100
0001
,
1110
0001
0010
0100
1011
0100
0010
0001
1010
0100
1000
0010
1101
0010
0100
0001
,
1010
0001
1000
0010
1101
0010
1000
0010
1100
0001
0010
0100
1011
0100
1000
0010
,
1101
0010
1000
0100
1011
0100
1000
0001
0110
0001
1000
0001
1110
0001
0010
1000
,
0111
1000
0001
0010
1101
0010
1000
0001
1010
0100
1000
0100
1011
0100
1010
0100
,
1011
0100
0001
1000
0111
1000
0100
0001
0110
1000
0010
0100
1011
0100
0010
1000
,
0111
1000
0001
0100
1011
0100
0001
0010
1101
0010
0100
1000
0111
1000
0010
0100
,
1011
0100
0001
0100
1011
0100
1000
0001
1010
0001
0100
0010
1101
0010
0100
0001
,
1110
0001
1000
0001
1110
0001
0100
0010
1101
0010
0100
0010
1111
1000
0110
0001
,
1111
1000
0010
0100
1011
0100
1000
0001
0110
0001
0010
0001
1111
0100
1000
0010
,
1100
0001
0010
0100
1011
0100
0010
0100
1011
0100
0001
0010
1101
0010
1000
0010
,
1101
0010
0100
0010
1101
0010
0100
0010
1001
0010
0100
0001
1111
0010
0100
0001
,
1110
0001
0010
0100
1011
0100
0001
0010
1101
0010
0001
1000
0111
1000
0110
1000
,
0111
1000
0001
0100
1011
0100
0001
0010
0101
1000
0010
0100
1111
1000
0010
0100
,
1011
0100
0010
1000
0111
1000
0001
0010
1101
0010
0100
0001
1110
0001
0100
1000
,
0111
1000
0010
1000
0111
1000
0100
1000
0110
1000
0001
1000
0111
1000
0001
1000
,
0111
1000
0100
0001
1110
0001
0100
0001
1010
0001
1010
0001
1110
0001
1110
0001
,
1110
0001
0100
0010
1101
0010
1001
0100
1010
0001
1100
0010
0101
0010
1100
0010
,
0001
0010
1100
0010
1101
1000
0110
0001
0100
1000
0110
0001
0111
1000
0101
1000
,
0011
0100
0010
1000
0101
0010
1100
0010
0101
1000
0001
0010
1101
0010
1000
0010
,
1100
0001
0010
0100
1011
0100
0001
1000
0101
0010
1100
0010
1101
0010
0101
1000
,
0110
0001
1000
0001
1010
0100
1000
0001
0110
1000
0110
1000
0111
1000
0101
0010
,
0100
1000
0011
0100
1010
0100
0011
1000
0101
0010
1001
0010
1110
0001
0110
1000
,
0101
0010
1000
0010
1101
0010
1100
0001
1010
0100
1000
0100
1011
0100
0001
0010
,
1100
0001
0100
0010
1101
0010
0100
0001
1100
0010
1000
0010
1101
0010
1100
0001
,
1110
0001
0100
0010
1001
0100
1000
0010
0001
1000
0110
1000
1101
0010
1001
0100
,
0011
1000
0001
0010
0101
1000
0010
0100
1001
0010
0100
0001
1110
1000
0001
0100
,
0011
0100
0001
0010
1101
0100
1010
0001
0110
1000
0010
1000
0111
1000
0001
0100
,
0011
1000
0100
0010
1101
0010
0001
0100
0011
1000
0100
1000
0111
1000
0101
1000
,
0011
0100
1000
0010
0101
0010
1000
0001
0010
1000
0101
0010
1101
0010
0101
0010
,
1101
0010
1000
0100
1011
0100
0010
0001
1110
0001
0100
0010
1101
0010
1000
0100
,
1011
0100
0001
0100
1011
0100
0010
0100
1001
0100
1000
0100
1011
0100
1001
0010
,
1100
0001
1100
0010
1101
0010
1001
0100
1011
0100
1010
0001
1110
0001
1100
0010
,
1101
0010
1100
0010
1101
1000
0011
0100
1001
0010
1100
0010
0111
1000
0011
0100
,
0001
1000
0110
0001
1110
0001
1100
0010
0100
0001
1100
0010
1011
0100
0011
0100
,
1000
0010
0101
0010
1101
0010
0101
1000
0011
0100
0001
0010
1110
0001
0110
1000
,
0001
1000
0110
0001
1010
0001
0110
1000
0001
0100
1010
0100
1101
0010
0101
1000
,
0010
0100
1010
0100
1011
0100
1010
0100
0011
1000
0110
1000
0111
0100
1001
0010
,
0100
1000
0011
0100
1110
0001
1100
0010
0100
0010
1100
0001
0111
1000
0101
0010
,
0100
0001
0110
0001
1110
0001
1100
0010
1001
0100
0010
0001
1110
0001
1110
0001
,
0100
0001
1110
0001
1100
0010
1101
0010
0100
0010
1001
0010
1101
1000
0011
0100
,
1011
0100
0011
0100
1011
0100
0011
1000
0101
0010
1001
0010
1101
0010
0101
0010
,
0100
1000
0011
0100
1110
0001
0110
1000
0001
0100
1001
0010
1101
0010
1001
0100
,
1000
0010
0101
0010
1101
0010
0101
1000
0011
0100
1001
0100
1011
1000
0110
0001
,
0010
0100
1001
0010
1101
0010
1100
0010
0100
0001
0110
1000
0101
1000
0110
0001
,
1000
0001
1010
0100
1011
0100
1001
0010
1100
0010
1001
0010
1110
0001
0110
1000
,
0001
0100
1010
0001
1110
0010
1001
0010
0100
0010
1100
0010
0111
1000
0011
1000
,
0001
1000
0011
1000
0111
1000
0011
1000
0110
1000
0101
1000
0111
1000
0111
1000
,
0010
0100
1011
0100
0010
0001
2222
0000
0000
0000
0000
0000
0000
0000
0000
0000
,
3333
0000
0000
0000
;
