#TITLE:Airman Ga Taose Nai;
#SUBTITLE:Mega Man II (1988);
#ARTIST:Sera arr. by nyanyannya;
#TITLETRANSLIT:;
#SUBTITLETRANSLIT:;
#ARTISTTRANSLIT:;
#CREDIT:;
#BANNER:Airman Ga Taose Nai.jpg;
#BACKGROUND:Airman Ga Taose Nai-bg.jpg;
#LYRICSPATH:;
#CDTITLE:cdtitle5.png;
#MUSIC:Airman Ga Taose Nai.mp3;
#OFFSET:-4.480;
#SAMPLESTART:57.600;
#SAMPLELENGTH:19.720;
#SELECTABLE:YES;
#BPMS:0.000=200.000;
#STOPS:;
#BGCHANGES:;
// cache tags:
#FIRSTBEAT:0.000;
#LASTBEAT:738.500;
#SONGFILENAME:Songs/VGMP 3/Airman Ga Taose Nai (Linus)/Airman Ga Taose Nai.sm;
#HASMUSIC:1;
#HASBANNER:1;
#MUSICLENGTH:232.548;
// end cache tags

//---------------dance-single - original challenge----------------
#NOTES:
     dance-single:
     original challenge:
     Beginner:
     13:
     1.000,1.000,1.000,0.598,0.667,1609.000,864.000,139.000,0.000,219.000:
2001
3001
1200
1300
0120
0130
1002
0003
0000
0000
1000
0000
0000
0000
1100
0000
,
0001
1000
0010
1000
0010
1001
0000
1001
,
0010
0101
1000
0101
0000
0110
0000
1100
,
0000
0101
0000
0101
0010
0101
0010
0001
,
1000
1100
0010
1001
0000
1000
0000
1100
,
0001
1000
0010
1000
0010
1001
0000
1001
,
0010
0101
1000
0011
0000
1010
0000
0110
,
0000
0000
0011
0000
0000
0000
0110
0000
1000
0000
1010
0000
0001
0000
1100
1000
,
0001
0001
1000
1000
0001
0001
0110
0000
0000
0000
0010
0000
0000
0000
1100
0000
,
0001
1000
0010
1000
0010
1001
0000
1010
,
0100
1001
0000
1001
0000
0101
0000
1010
,
0000
1001
0000
1010
0001
1010
0100
0000
,
0002
0003
0021
0031
2100
3000
0021
0030
0000
0000
0001
0000
0000
0000
1100
0000
,
0001
1000
0010
1000
0010
1001
0000
1001
,
0010
0101
1000
0101
0000
1100
0000
0110
,
0000
0101
0000
0011
0100
1001
0200
0000
,
0320
0000
0230
0000
0320
0000
0230
0000
0320
0000
0230
0000
0320
0000
0230
0000
0320
0000
1031
0000
0000
0000
0000
0000
1000
0000
0000
0000
0000
0000
1001
0000
0000
0000
0000
0000
1000
0000
0000
1000
0000
0000
0101
0000
0000
0000
0000
0000
,
0100
0000
0101
0000
0100
0100
1010
0000
0010
0000
1010
0000
0010
0010
1001
0000
,
0001
0000
1001
0000
0001
0001
0110
0000
0110
0000
0000
0000
0000
0000
1100
0000
,
1100
0000
0000
0000
0000
0000
0011
0000
0011
0000
0000
0000
0000
0000
0100
0100
,
0100
0000
0001
0000
1010
0000
0000
0000
1000
0100
1000
0000
1000
0100
1000
0000
,
1000
0100
1000
0000
1000
0100
1000
0000
1000
0100
1000
0000
1000
0100
1000
0000
,
1000
0100
1000
0000
1000
0100
1000
0000
1000
0100
1000
0000
1000
0100
1000
0000
,
1000
0100
1000
0000
1000
0100
1000
0000
1000
0100
1000
0000
1000
0100
1000
0000
,
0100
0010
0100
0000
0010
0001
0010
0000
0010
0001
0010
0000
0010
0001
0010
0000
,
0010
0001
0010
0000
0010
0001
0010
0000
0010
0001
0010
0000
0010
0001
0010
0000
,
0100
0000
0000
0100
0000
0000
0010
0000
0000
0000
0000
0000
0001
0000
0000
0000
0000
0000
1020
0000
0000
0000
0000
0000
0000
0000
0000
0000
0000
0000
1230
0000
0302
0000
0203
0000
0302
0000
0203
0000
0302
0000
1013
0000
0000
0000
0000
0000
,
0001
1100
0001
1000
0001
1100
0001
1000
,
0001
0010
0100
0001
0001
1001
0001
0101
,
0001
0011
0101
0010
1010
0011
0010
0010
,
1010
0110
0011
1100
1000
1100
1000
1010
,
1000
1001
1000
0101
1001
1100
1010
0011
,
1100
0011
1001
0210
0300
1010
1002
0003
,
0000
0110
0000
0201
0300
1001
0021
0030
,
2000
3000
0000
0010
0000
0000
0201
0300
0000
0001
0000
0000
1020
0030
0000
0000
0000
0000
1000
0000
0000
0000
0000
0000
1000
0000
0000
0000
0000
0000
1000
0000
0000
0000
0000
0000
1001
0000
0010
0000
0100
0000
1000
0000
0000
0000
0000
0000
,
1000
0000
1001
0100
1001
0100
0010
0010
0001
0001
0100
0100
0010
0010
1000
1000
,
0100
0100
0001
0010
0001
0010
1100
0000
1000
1000
0100
0000
1000
0000
0001
0000
,
0100
0000
1010
0000
0100
0000
1000
0000
0100
0100
0010
0000
1000
0000
0001
0000
,
0100
0000
1010
0000
0100
0000
1000
0000
0010
0010
0001
0000
1000
0000
0010
0000
,
0100
1010
0010
0101
0001
0110
0100
1010
,
0011
0001
1100
0100
1001
0001
1110
0000
0000
0000
0111
0000
0000
0000
1101
0000
,
0000
1111
1111
1110
0000
1011
0000
0111
,
0000
0000
1111
0000
1111
0000
1100
0000
1000
0000
1010
0000
1000
1000
1001
0000
,
1000
1010
1000
1101
0010
0111
1000
1110
,
0101
0001
1010
0010
0101
0100
2222
0000
3333
0000
1000
0000
1000
0000
1110
0000
,
1011
0000
1101
0100
0110
1011
0010
0101
,
1001
1110
1100
0110
0110
1110
1100
0101
,
0101
1110
1100
1001
0011
1101
0011
0001
,
1101
1011
1110
0111
1000
1001
1000
1101
,
1010
1001
1100
0011
1010
0111
0110
1011
,
0110
1011
1010
1101
1100
0111
0110
1101
,
0101
1011
0110
0111
1100
1011
0101
1001
,
1101
0001
1100
1000
0011
0001
2222
0000
3333
0000
0000
0000
0000
0000
1110
0000
,
0111
0000
2222
3333
1100
0111
0110
0101
,
0011
1101
1010
1100
1100
1011
1010
1001
,
1001
0000
1011
0000
0201
0300
0110
0100
1002
0003
0121
0030
1210
0300
0000
0000
,
1011
0100
1011
0100
1011
0001
1110
0000
0110
0000
1101
0000
0110
0000
0100
0000
,
0110
0000
0000
0101
0000
0000
1010
0100
0000
0010
0000
0000
1010
0000
0000
0111
0000
0000
1011
0000
0000
0010
0000
0000
,
0110
0111
1010
1010
1000
1011
1000
1100
,
0111
1101
0111
0000
1011
0110
1011
1101
,
0000
0000
0000
0000
1101
0000
0000
0000
1010
0100
0010
0100
1001
0000
0000
0000
1000
0000
0000
0000
1010
0000
0000
0000
1000
0000
0000
0000
1100
0000
0000
0000
,
0100
1010
1000
0010
0011
0110
1010
0010
,
0010
0000
0000
0000
0010
0000
0000
0000
1000
0100
0010
0001
1100
0000
0000
0000
1000
0000
0000
0000
1001
0000
0000
0000
1000
0000
0000
0000
0100
0000
0000
0000
,
1100
0110
0011
0000
0011
1010
0110
1000
,
1010
0011
1001
0100
0100
1101
0100
0100
,
1101
0000
0100
0000
0010
0000
0000
0001
0010
0001
1010
0100
1000
0001
0010
0100
,
1000
0100
1010
0001
0010
0100
1000
0000
0100
0000
1001
0000
0010
0000
0100
0000
,
0001
0000
0010
0000
2200
0000
0000
3300
2200
3300
0220
0330
0022
0033
1000
1000
,
0010
0000
0010
0000
1000
0000
1000
0000
0110
0001
1010
0100
1001
0000
0000
0000
1000
0000
0000
0000
0110
0000
0000
0000
1000
0000
0000
0000
1001
0000
0000
0000
,
1100
0000
1000
0000
1010
0000
0000
0000
0011
0000
1001
0010
1100
0000
0100
0000
,
1001
0110
0101
1001
1100
1010
0011
0010
,
1100
0010
1001
0000
0101
1010
0101
0000
,
1000
0000
0101
0001
1010
0000
1010
0000
1010
0000
1100
0000
1010
0000
1000
0000
,
1010
1000
0110
0000
1100
0101
0110
0100
,
0101
0000
0110
0000
1100
0000
1000
0000
1001
0100
0011
0000
1010
0100
0011
0000
,
1100
0010
1001
0000
1101
0000
0010
0000
1110
0000
0100
0000
0111
0000
1000
0000
,
1011
0000
0000
0001
0000
0000
0010
0000
0000
0010
0000
0000
0100
0000
0000
0100
0000
0000
1001
0000
0000
0000
0000
0000
1000
0000
0000
0000
0000
0000
1001
0000
0000
0000
0000
0000
1000
0000
0100
1000
0010
0000
0101
0000
0000
0000
0000
0000
,
0100
0000
0000
0000
0000
0000
0101
0000
0000
0000
0000
0000
0100
0000
0000
0100
0000
0000
1010
0000
0000
0000
0000
0000
0010
0000
0000
0000
0000
0000
1010
0000
0000
0000
0000
0000
0010
0000
0001
0010
0100
0000
1001
0000
0000
0000
0000
0000
,
0001
0000
1001
0000
0001
0001
0110
0000
0110
0000
0000
0000
0000
0000
1100
0000
,
1100
0000
0000
0000
0000
0000
0011
0000
0011
0000
0000
0000
0000
0000
0100
0100
,
0100
0000
0001
0000
1010
0000
0000
0000
1010
0100
1010
0000
1010
0100
1010
0000
,
1010
0100
1010
0000
1010
0100
1010
0000
1010
0100
1010
0000
1010
0100
1010
0000
,
1010
0100
1010
0000
1010
0100
1010
0000
1010
0100
1010
0000
1010
0100
1010
0000
,
1010
0100
1010
0000
1010
0100
1010
0000
1010
0100
1010
0000
1010
0100
1010
0000
,
0101
0010
0101
0000
1010
0001
1010
0000
1010
0001
1010
0000
1010
0001
1010
0000
,
1010
0001
1010
0000
1010
0001
1010
0000
1010
0001
1010
0000
1010
0001
1010
0000
,
0100
0000
0000
0100
0000
0000
0010
0000
0000
0000
0000
0000
0001
0000
0000
0000
0000
0000
1200
0000
0302
0000
0203
0000
0302
0000
0203
0000
0302
0000
1203
0000
0302
0000
0203
0000
0302
0000
0203
0000
0302
0000
1203
0000
0302
0000
0203
0000
,
0302
0203
0302
1203
0302
0203
0302
0203
0302
1203
0302
0203
0302
0203
0302
1203
0302
0203
0302
0203
0302
1203
0302
0203
,
0301
0010
0100
0001
0001
1001
0001
0101
,
0001
0011
0101
0010
1010
0011
0010
0010
,
1010
0110
0011
1100
1000
1100
1000
1010
,
1000
1001
1000
0101
1001
1100
1010
0011
,
1100
0011
1001
0210
0300
1010
1002
0003
,
0000
0110
0000
0201
0300
1001
0021
0030
,
2000
3000
0000
0010
0000
0000
0201
0300
0000
0001
0000
0000
1020
0030
0000
0000
0000
0000
1000
0000
0000
0000
0000
0000
1000
0000
0000
0000
0000
0000
1000
0000
0000
0000
0000
0000
1001
0000
0010
0000
0100
0000
1000
0000
0000
0000
0000
0000
,
1000
0000
1001
0100
1001
0100
0010
0010
0001
0001
0100
0100
0010
0010
1000
1000
,
0100
0100
0001
0010
0001
0010
1100
0000
1000
1000
0100
0000
1000
0000
0001
0000
,
0100
0000
1010
0000
0100
0000
1000
0000
0100
0100
0010
0000
1000
0000
0001
0000
,
0100
0000
1010
0000
0100
0000
1000
0000
0010
0010
0001
0000
1000
0000
0010
0000
,
0100
1010
0010
0101
0001
0110
0100
1010
,
0011
0001
1100
0100
1001
0001
1110
0000
0000
0000
0111
0000
0000
0000
1101
0000
,
0000
1111
1111
1110
0000
1011
0000
0111
,
0000
0000
1111
0000
1111
0000
1100
0000
1000
0000
1010
0000
1000
1000
1001
0000
,
1000
1010
1000
1101
0010
0111
1000
1110
,
0101
0001
1010
0010
0101
0100
2222
0000
3333
0000
1000
0000
1000
0000
1110
0000
,
1011
0000
1101
0100
0110
1011
0010
0101
,
1001
1110
1100
0110
0110
1110
1100
0101
,
0101
1110
1100
1001
0011
1101
0011
0001
,
1101
1011
1110
0111
1000
1001
1000
1101
,
1010
1001
1100
0011
1010
0111
0110
1011
,
0110
1011
1010
1101
1100
0111
0110
1101
,
0101
1011
0110
0111
1100
1011
0101
1001
,
1101
0001
1100
1000
0011
0001
2222
0000
3333
0000
0000
0000
0000
0000
1110
0000
,
0111
0000
2222
3333
1100
0111
0110
0101
,
0011
1101
1010
1100
1100
1011
1010
1001
,
1001
0000
1011
0000
0021
0030
0120
0130
1002
0003
0121
0030
1210
0300
0000
0000
,
1011
0100
1011
0100
1011
0001
1110
0000
0110
0000
1101
0000
0110
0000
0100
0000
,
0110
0000
0000
0101
0000
0000
1010
0100
0000
0010
0000
0000
1010
0000
0000
0111
0000
0000
1011
0000
0000
0010
0000
0000
,
0110
0111
1010
1010
1000
1011
1000
1100
,
0111
1101
0111
0000
1011
0110
1011
1101
,
0000
1101
1110
1111
0000
1000
1000
1100
,
1010
1001
1001
1000
1000
1000
1000
1100
,
1001
0000
1100
0000
1010
0000
1000
0000
1001
0000
1010
0000
1100
0000
1001
0100
,
1001
0100
1010
0000
1001
0000
1010
0000
1100
0000
0110
0000
1100
0000
1000
0000
,
1000
1000
1000
1010
1000
1010
1000
1100
,
0110
1000
1001
1000
1001
1010
1001
1000
,
1100
0000
1010
0000
1010
0000
1000
0000
1000
0000
1000
0000
1000
0000
1010
0001
,
1010
0000
0110
0000
1001
0000
0110
0000
1100
0000
1100
0000
1000
0000
1001
1000
,
0011
0010
1001
1000
0011
0010
1001
0000
1000
0000
1100
0000
1000
0000
1001
0000
,
1010
0000
1100
0010
1100
0000
1100
0000
1010
0000
0110
0000
1001
0000
1100
0000
,
1010
0000
0000
1010
0001
0010
1100
0000
0000
1100
0000
0000
1010
0000
0000
0110
0000
0000
1001
0000
0000
0101
0000
0000
,
1010
0000
0000
1100
0000
0000
1020
0000
0000
1000
0000
0000
1032
0023
0032
1023
0030
0000
1000
0000
0000
1100
0000
0000
,
1001
0000
1010
0010
1100
0000
1000
0000
1001
0000
1010
0001
1010
0000
0110
0000
,
1001
0000
0110
0000
1010
0000
0110
0001
0110
0000
1010
0000
1001
0000
1010
0100
,
1010
0100
1000
0000
1100
0010
1001
0010
1100
0010
1001
0010
1100
0010
1001
0010
,
1100
0010
1001
0010
1100
0010
1001
0010
1100
0010
1001
0010
1100
0010
1001
1010
,
0101
0000
0000
1001
0000
0000
0110
0000
0000
1010
0000
0000
0101
0000
0010
1000
0100
0000
1000
0000
0000
0000
0000
0000
0000
0000
0000
0000
0000
0000
0000
0000
0000
0000
0000
0000
0000
0000
0000
0000
0000
0000
0000
0000
0000
0000
0000
0000
,
0000
0000
0000
0000
,
0000
0000
0000
0000
,
0000
0000
0000
1111
0000
1111
0000
1111
,
0000
1111
0000
1110
0000
0111
0000
1101
,
0000
1111
1111
1110
0000
1011
0000
0111
,
0000
0000
1111
0000
1111
0000
1100
0000
1000
0000
1010
0000
1000
1000
1001
0000
,
1000
1010
1000
1101
0010
0111
1000
1110
,
0101
0001
1010
0010
0101
0100
1111
0000
0100
0100
1011
0000
0000
0000
1110
0000
,
1011
0010
1101
0100
0110
1011
0010
0101
,
1001
1110
1100
0111
0110
1110
1100
0101
,
0101
1110
1100
1001
0011
1101
0011
0001
,
1101
1011
1110
1111
1000
1001
1000
1101
,
1010
1001
1100
0111
1010
0111
0110
1011
,
0110
1011
1010
1111
1100
0111
0110
1101
,
0101
1011
0110
0111
1100
1011
0101
1001
,
1101
0001
1100
1000
0011
0001
2222
0000
3333
0000
1100
0000
1100
0000
1110
0000
,
0111
0000
2222
3333
1100
0111
0110
0101
,
0011
1101
1010
1101
1100
1011
1010
1001
,
1001
0000
1011
0000
0201
0300
0110
0100
1002
0003
0121
0030
1210
0300
0000
0000
,
1011
0100
1011
0100
1011
0001
1110
0000
0110
0000
1101
0000
0110
0000
0100
0000
,
0110
0000
0000
0101
0000
0000
1010
0100
0000
0011
0000
0000
1010
0000
0000
0111
0000
0000
1011
0000
0000
0010
0000
0000
,
0110
0111
1010
1110
1000
1011
1000
1100
,
0111
1101
0111
0000
1011
0110
1011
1101
,
0000
1101
1110
1011
0000
1000
1000
1100
,
1001
1000
0101
0000
0101
0011
0001
0011
,
0101
1001
0011
1100
0100
0100
1000
1010
,
1010
0110
0011
0000
1100
0011
0001
0001
,
0001
0010
0010
1000
1000
1100
1010
1001
,
1100
1010
0101
1000
0101
1010
1100
0110
,
0101
1001
0101
1010
0011
0110
0110
1100
,
1100
0000
0100
0000
1010
0000
0000
0000
0100
0000
1000
0000
0100
0000
0100
0100
,
1010
0010
0101
0100
1010
0010
1100
0000
1001
0010
1100
0000
1001
0000
1010
0000
,
1001
0000
1010
0001
0110
0000
0000
0000
0101
0000
0110
0000
1100
0000
1010
0000
,
0110
0011
0110
1100
1100
0110
1010
1001
,
1001
0010
0101
1000
0001
1010
0001
1000
,
0100
0000
0000
0000
0000
0000
0000
0000
0000
0000
0000
0000
0000
0000
0000
0000
0000
0000
0000
0000
0000
0000
0000
0000
0001
0000
0000
0000
0000
0000
0000
0000
0000
0000
0000
0000
0001
0000
0000
0000
0000
0000
0000
0000
0000
0000
0000
0000
0010
0000
0000
0000
0000
0000
0000
0000
0000
0000
0000
0000
0000
0000
0000
0000
0000
0000
0000
0000
0000
0000
0000
0000
0000
0000
0000
0000
0000
0000
0000
0000
0000
0000
0000
0000
0000
0000
0000
0000
0000
0000
0000
0000
0000
0000
0000
0000
1000
0000
0000
0000
0000
0000
0000
0000
0000
0000
0000
0000
0010
0000
0000
0000
0000
0000
0000
0000
0000
0000
0000
0000
0001
0000
0000
0000
0000
0000
0000
0000
0010
0000
0000
0000
0000
0000
0000
0000
0100
0000
0000
0000
0000
0000
0000
0000
1000
0000
0000
0000
0000
0000
0100
0000
0000
0000
0000
0000
0010
0000
0000
0000
0000
0000
0000
0000
0000
0000
0000
0000
0001
0000
0000
0000
0000
0000
0000
0000
0010
0000
0000
0000
0000
0000
0000
0000
0100
0000
0000
0000
0000
0000
0000
0000
,
1000
0100
0010
0000
0001
0010
0100
0000
1000
0100
0010
0000
0001
0010
0100
0000
0010
0000
0001
0000
0010
0000
1000
0000
0100
0000
0010
0000
0001
0000
0000
0000
,
1000
0000
0000
0000
0000
0000
1000
0000
0000
0000
0000
0000
1000
0000
0000
0000
0000
0000
0011
0000
0000
0000
0000
0000
0101
0000
0000
0000
0000
0000
0110
0000
0000
0000
0000
0000
1010
0000
0000
0000
0000
0000
1000
0000
0000
0001
0100
0000
,
1000
0000
0010
0001
0000
0000
0100
0000
0000
0001
0010
0000
1000
0000
0001
0100
0000
0000
0010
0000
0000
0000
0000
0000
0001
0000
0000
0000
0000
0000
0010
0000
0000
0000
0000
0000
0100
0000
0000
0000
0000
0000
0101
0000
0000
0100
0010
0000
,
0001
0000
0100
0001
0000
0000
1010
0000
0000
0010
0100
0000
1000
0000
0010
1000
0000
0000
1002
0000
0000
0000
0000
0000
1000
0000
0000
0000
0000
0000
1000
0000
0000
0000
0000
0000
1000
0000
0010
1000
0010
0000
0100
0000
0000
0000
0000
0000
,
0100
0000
0000
0000
0000
0000
0100
0000
0000
0000
0000
0000
0100
0000
0000
0100
0000
0000
0010
0000
0000
0000
0000
0000
0010
0000
0000
0000
0000
0000
0010
0000
0000
0000
0000
0000
0013
0000
1000
0010
1000
0000
0001
0000
0000
0000
0000
0000
,
0001
0000
0000
0000
0000
0000
0001
0000
0000
0000
0000
0000
0001
0000
0000
0001
0000
0000
1010
0000
0000
0000
0100
0000
0011
0000
1000
0000
0000
0000
1000
0000
0000
0100
0000
0000
0010
0000
0000
0001
0000
0000
1010
0000
0000
0000
0100
0000
,
0011
0000
1000
0000
0000
0000
1000
0000
0000
0100
0000
0000
0010
0000
0000
0001
0000
0000
1010
0000
0000
0000
0100
0000
0011
0000
1000
0000
0000
0000
1000
0000
0000
0100
0000
0000
0010
0000
0000
0001
0000
0000
0110
0000
0000
0001
0100
0000
,
0010
0000
1000
0000
0000
0000
1001
0000
0000
0100
0000
0000
2020
0000
0000
0000
0000
0000
0000
0000
0000
0000
0000
0000
0000
0000
0000
0000
0000
0000
0000
0000
0000
0000
0000
0000
0000
0000
0000
0000
0000
0000
0000
0000
0000
0000
0000
0000
,
0000
0000
0000
0000
,
0000
0000
0000
0000
,
0000
0000
0000
0000
,
0000
0000
0000
0000
0000
3030
0000
0000
;

//---------------dance-single - ----------------
#NOTES:
     dance-single:
     :
     Challenge:
     12:
     1.000,1.000,1.000,0.533,0.836,1689.000,862.000,124.000,0.000,11.000:
2001
3010
1200
0301
0120
1030
1002
0003
0000
0000
1000
0000
0000
0000
1100
0000
,
0001
1000
0010
1000
0010
1001
0000
1001
,
0010
0101
1000
0101
0000
0110
0000
1100
,
0000
0101
0000
0101
0010
0101
0010
0001
,
1000
1100
0010
1001
0000
1000
0000
1100
,
0001
1000
0010
1000
0010
1001
0000
1001
,
0010
0101
1000
0011
0000
1010
0000
0110
,
0000
0000
0011
0000
0000
0000
0110
0000
1000
0000
1010
0000
0001
0000
1100
0010
,
0001
0100
1000
0010
0001
0100
0110
0000
0000
0000
0010
0000
0000
0000
1100
0000
,
0001
1000
0010
1000
0010
1001
0000
1010
,
0100
1001
0000
1001
0000
0101
0000
1010
,
0000
1001
0000
1010
0001
1010
0100
0000
,
0002
0003
0021
0031
2100
3000
0021
0030
0000
0000
0001
0000
0000
0000
1100
0000
,
0001
1000
0010
1000
0010
1001
0000
1001
,
0010
0101
1000
0101
0000
1100
0000
0110
,
0000
0101
0000
0011
0100
1001
0200
0000
,
0320
0000
0230
0000
0320
0000
0230
0000
0320
0000
0230
0000
0320
0000
0230
0000
0320
0000
1031
0000
0000
0000
0000
0000
1000
0000
0000
0000
0000
0000
1001
0000
0000
0000
0000
0000
1000
0000
0000
1000
0000
0000
0101
0000
0000
0000
0000
0000
,
0100
0000
0101
0000
0100
0100
1010
0000
0010
0000
1010
0000
0010
0010
1001
0000
,
0001
0000
1001
0000
0001
0001
0110
0000
0110
0000
0000
0000
0000
0000
1100
0000
,
1100
0000
0000
0000
0000
0000
0011
0000
0011
0000
0000
0000
0000
0000
0100
0100
,
0100
0000
0001
0000
1010
0000
0000
0000
1000
0100
1000
0000
1000
0100
1000
0000
,
1000
0100
1000
0000
1000
0100
1000
0000
1000
0100
1000
0000
1000
0100
1000
0000
,
1000
0100
1000
0000
1000
0100
1000
0000
1000
0100
1000
0000
1000
0100
1000
0000
,
1000
0100
1000
0000
1000
0100
1000
0000
1000
0100
1000
0000
1000
0100
1000
0000
,
0100
0010
0100
0000
0010
0001
0010
0000
0010
0001
0010
0000
0010
0001
0010
0000
,
0010
0001
0010
0000
0010
0001
0010
0000
0010
0001
0010
0000
0010
0001
0010
0000
,
0100
0000
0000
0100
0000
0000
0010
0000
0000
0000
0000
0000
0001
0000
0000
0000
0000
0000
1020
0000
0000
0000
0000
0000
0000
0000
0000
0000
0000
0000
1230
0000
0302
0000
0203
0000
0302
0000
0203
0000
0302
0000
1013
0000
0000
0000
0000
0000
,
0001
1100
0001
1000
0001
1100
0001
1000
,
0001
0000
0010
0000
0100
0000
0001
0000
0001
0010
1001
0000
0001
0010
0101
0000
,
0001
1000
0011
0000
0101
1000
0010
0000
1010
0100
0011
0000
0010
0100
0010
0000
,
1010
0001
0110
0000
0011
0100
1100
0000
1000
0001
1100
0000
1000
0001
1010
0000
,
1000
0100
1001
0000
1000
0010
0101
0000
1001
0010
1100
0000
1010
0100
0011
0000
,
1100
0010
0011
0000
1001
0010
0210
0000
0300
0000
1010
0000
1002
0000
0003
0000
,
0000
0110
0000
0201
0300
1001
0021
0030
,
2000
3000
0000
0010
0000
0000
0201
0300
0000
0001
0000
0000
1020
0030
0000
0000
0000
0000
1000
0000
0000
0000
0000
0000
1000
0000
0000
0000
0000
0000
1000
0000
0000
0000
0000
0000
1001
0000
0010
0000
0100
0000
1000
0000
0000
0000
0000
0000
,
1000
0000
1001
0010
1001
0010
0101
0000
0001
0001
0010
0000
1100
0100
1000
0000
,
0001
0001
0010
0010
0100
0100
1100
0000
1000
1000
0100
0000
1000
0000
0001
0000
,
0100
0000
1010
0000
0100
0000
1000
0000
0100
0100
0010
0000
1000
0000
0001
0000
,
0100
0000
1010
0000
0100
0000
1000
0000
0010
0010
0001
0000
1000
0000
0010
0000
,
0100
1010
0010
0101
0001
0110
0100
1010
,
0011
0001
1010
0001
1010
0001
1100
0000
0000
0000
0101
0000
0000
0000
0011
0000
,
0000
1100
1100
1010
0000
0110
0000
0101
,
0000
0000
0011
0000
0011
0000
1100
0000
1000
0000
1010
0000
1000
0100
1001
0000
,
1000
1010
1000
1001
0010
0101
1000
0110
,
0101
0001
1010
0010
0101
1000
2002
0000
3003
0000
1000
0000
1000
0000
1010
0000
,
1001
0000
0101
0100
0110
1010
0010
0101
,
1001
1010
1100
0110
0110
1100
1100
0101
,
0101
0110
1100
1001
0011
1001
0011
0001
,
0101
1010
0110
0011
1000
1001
1000
1100
,
1010
1001
1100
0011
1010
0011
0110
0011
,
0110
0011
1010
0101
1100
0101
0110
1100
,
0101
1010
0110
0011
1100
1001
0101
1001
,
0101
0010
1100
1000
0011
1000
0220
0000
0330
0000
0000
0000
0000
0000
1010
0000
,
0101
0000
0220
0330
1100
0101
0110
0101
,
0011
1001
1010
1100
1100
1001
1010
1001
,
1001
0000
0011
0000
0201
0300
0110
0100
1002
0003
0021
0030
1200
0300
0000
0000
,
1001
0100
1001
0100
1001
0100
1010
0000
0110
0000
1100
0000
0110
0000
0100
0000
,
0110
0000
0000
0101
0000
0000
1010
0100
0000
0010
0000
0000
1010
0000
0000
0110
0000
0000
0011
0000
0000
0010
0000
0000
,
0110
0011
1010
1010
1000
1001
1000
1100
,
0011
1100
0110
0000
1010
0110
1010
0101
,
0000
0000
0000
0000
0101
0000
0000
0000
1010
0100
0010
0100
1001
0000
0000
0000
1000
0000
0000
0000
1010
0000
0000
0000
1000
0000
0000
0000
1100
0000
0000
0000
,
0100
1010
1000
0010
0011
0110
1010
0010
,
0010
0000
0000
0000
0010
0000
0000
0000
1000
0100
0010
0001
1100
0000
0000
0000
1000
0000
0000
0000
1001
0000
0000
0000
1000
0000
0000
0000
0100
0000
0000
0000
,
1100
0110
0011
0000
0011
1010
0110
1000
,
1010
0011
1001
0100
0100
0101
0100
0100
,
0101
0000
0100
0000
0010
0000
0000
0001
0010
0001
1010
0100
1000
0001
0010
0100
,
1000
0100
1010
0001
0010
0100
1000
0000
0100
0000
1001
0000
0010
0000
0100
0000
,
0001
0000
0010
0000
2200
0000
0000
3300
2200
3300
0220
0330
0022
0033
1000
0001
,
0100
0000
0010
0000
1000
0000
0001
0000
0110
0001
1010
0100
1001
0000
0000
0000
1000
0000
0000
0000
0110
0000
0000
0000
1000
0000
0000
0000
1001
0000
0000
0000
,
1100
0000
1000
0000
1010
0000
0000
0000
0011
0000
1001
0010
1100
0000
0100
0000
,
1001
0110
0101
1001
1100
1010
0011
0010
,
1100
0010
1001
0000
0101
1010
0101
0000
,
1000
0000
0101
0001
1010
0000
1010
0000
1010
0000
1100
0000
1010
0000
1000
0000
,
1010
1000
0110
0000
1100
0101
0110
0100
,
0101
0000
0110
0000
1100
0000
1000
0000
1001
0100
0011
0000
1010
0100
0011
0000
,
1100
0010
1001
0000
0101
0000
0010
0000
1100
0000
0100
0000
0011
0000
1000
0100
,
0011
0000
0000
0001
0000
0000
0010
0000
0000
0010
0000
0000
0100
0000
0000
0100
0000
0000
1001
0000
0000
0000
0000
0000
1000
0000
0000
0000
0000
0000
1001
0000
0000
0000
0000
0000
1000
0000
0100
1000
0010
0000
0101
0000
0000
0000
0000
0000
,
0100
0000
0000
0000
0000
0000
0101
0000
0000
0000
0000
0000
0100
0000
0000
0100
0000
0000
1010
0000
0000
0000
0000
0000
0010
0000
0000
0000
0000
0000
1010
0000
0000
0000
0000
0000
0010
0000
0001
0010
0100
0000
1001
0000
0000
0000
0000
0000
,
0001
0000
1001
0000
0001
0001
0110
0000
0110
0000
0000
0000
0000
0000
1100
0000
,
1100
0000
0000
0000
0000
0000
0011
0000
0011
0000
0000
0000
0000
0000
0100
0100
,
0100
0000
0001
0000
1010
0000
0000
0000
1010
0100
1010
0000
1010
0100
1010
0000
,
1010
0100
1010
0000
1010
0100
1010
0000
1010
0100
1010
0000
1010
0100
1010
0000
,
1010
0100
1010
0000
1010
0100
1010
0000
1010
0100
1010
0000
1010
0100
1010
0000
,
1010
0100
1010
0000
1010
0100
1010
0000
1010
0100
1010
0000
1010
0100
1010
0000
,
0101
0010
0101
0000
1010
0001
1010
0000
1010
0001
1010
0000
1010
0001
1010
0000
,
1010
0001
1010
0000
1010
0001
1010
0000
1010
0001
1010
0000
1010
0001
1010
0000
,
0100
0000
0000
0100
0000
0000
0010
0000
0000
0000
0000
0000
0001
0000
0000
0000
0000
0000
1200
0000
0302
0000
0203
0000
0302
0000
0203
0000
0302
0000
1203
0000
0302
0000
0203
0000
0302
0000
0203
0000
0302
0000
1203
0000
0302
0000
0203
0000
,
0302
0203
0302
1203
0302
0203
0302
0203
0302
1203
0302
0203
0302
0203
0302
1203
0302
0203
0302
0203
0302
1203
0302
0203
,
0301
0000
0010
0000
0100
0000
0001
0000
0001
0010
1001
0000
0001
0010
0101
0000
,
0001
1000
0011
0000
0101
1000
0010
0000
1010
0100
0011
0000
0010
0100
0010
0000
,
1010
0001
0110
0000
0011
0100
1100
0000
1000
0001
1100
0000
1000
0001
1010
0000
,
1000
0100
1001
0000
1000
0010
0101
0000
1001
0010
1100
0000
1010
0100
0011
0000
,
1100
0010
0011
0000
1001
0010
0210
0000
0300
0000
1010
0000
1002
0000
0003
0000
,
0000
0110
0000
0201
0300
1001
0021
0030
,
2000
3000
0000
0010
0000
0000
0201
0300
0000
0001
0000
0000
1020
0030
0000
0000
0000
0000
1000
0000
0000
0000
0000
0000
1000
0000
0000
0000
0000
0000
1000
0000
0000
0000
0000
0000
1001
0000
0010
0000
0100
0000
1000
0000
0000
0000
0000
0000
,
1000
0000
1001
0010
1001
0010
0101
0000
0001
0001
0010
0000
1100
0100
1000
0000
,
0001
0001
0010
0010
0100
0100
1100
0000
1000
1000
0100
0000
1000
0000
0001
0000
,
0100
0000
1010
0000
0100
0000
1000
0000
0100
0100
0010
0000
1000
0000
0001
0000
,
0100
0000
1010
0000
0100
0000
1000
0000
0010
0010
0001
0000
1000
0000
0010
0000
,
0100
1010
0010
0101
0001
0110
0100
1010
,
0011
0100
1001
0100
1001
0100
1100
0000
0000
0000
0101
0000
0000
0000
0011
0000
,
0000
1100
1100
1010
0000
0110
0000
0101
,
0000
0000
0011
0000
0011
0000
1100
0000
1000
0000
1010
0000
1000
1000
1001
0000
,
1000
1010
1000
1001
0010
0101
1000
0110
,
0101
0001
1010
0010
0101
1000
2002
0000
3003
0000
1000
0000
1000
0000
1010
0000
,
1001
0000
0101
0100
0110
1010
0010
0101
,
1001
1010
1100
0110
0110
1100
1100
0101
,
0101
0110
1100
1001
0011
1001
0011
0001
,
0101
1010
0110
0011
1000
1001
1000
1100
,
1010
1001
1100
0011
1010
0011
0110
0011
,
0110
0011
1010
0101
1100
0101
0110
1100
,
0101
1010
0110
0011
1100
1001
0101
1001
,
0101
0001
1100
0100
1010
1000
0220
0000
0330
0000
0000
0000
0000
0000
1010
0000
,
0101
0000
0220
0330
1100
0101
0110
0101
,
0011
1001
1010
1100
1100
1001
1010
1001
,
1001
0000
0101
0000
0021
0030
0120
0130
1002
0003
0021
0030
1200
0300
0000
0000
,
1001
0100
1001
0100
1001
0100
1010
0000
0110
0000
1100
0000
0110
0000
0100
0000
,
0110
0000
0000
0101
0000
0000
1010
0100
0000
0010
0000
0000
1010
0000
0000
0110
0000
0000
0011
0000
0000
0010
0000
0000
,
0110
0011
1010
1010
1000
1001
1000
1100
,
0011
1100
0110
0000
1010
0110
1010
0101
,
0000
0101
1100
0011
0000
1000
1000
1100
,
1010
1001
1001
1000
1000
1000
1000
1100
,
1001
0000
1100
0000
1010
0000
1000
0000
1001
0000
1010
0000
1100
0000
1001
0100
,
1001
0100
1010
0000
1001
0000
1010
0000
1100
0000
0110
0000
1100
0000
1000
0000
,
1000
1000
1000
1010
1000
1010
1000
1100
,
0110
1000
1001
1000
1001
1010
1001
1000
,
1100
0000
1010
0000
1010
0000
1000
0000
1000
0000
1000
0000
1000
0000
1010
0001
,
1010
0000
0110
0000
1001
0000
0110
0000
1100
0000
1100
0000
1000
0000
1001
0100
,
0011
0100
1001
0100
0011
0100
1001
0000
1000
0000
1100
0000
1000
0000
1001
0000
,
1010
0000
1100
0010
1100
0000
1100
0000
1010
0000
0110
0000
1001
0000
1100
0000
,
1010
0000
0000
1010
0001
0010
1100
0000
0000
1100
0000
0000
1010
0000
0000
0110
0000
0000
1001
0000
0000
0101
0000
0000
,
1010
0000
0000
1100
0000
0000
1020
0000
0000
1000
0000
0000
1032
0023
0032
1023
0030
0000
1000
0000
0000
1100
0000
0000
,
1001
0000
1010
0010
1100
0000
1000
0000
1001
0000
1010
0001
1010
0000
0110
0000
,
1001
0000
0110
0000
1010
0000
0110
0001
0110
0000
1010
0000
1001
0000
1010
0100
,
1010
0100
1000
0000
1100
0010
1001
0010
1100
0010
1001
0010
1100
0010
1001
0010
,
1100
0010
1001
0010
1100
0010
1001
0010
1100
0010
1001
0010
1100
0010
1001
0010
,
0101
0000
0000
1000
0000
0000
0110
0000
0000
1000
0000
0000
0101
0000
0010
0000
0100
0000
2000
0000
0000
0000
0000
0000
0000
0000
0000
0000
0000
0000
0000
0000
0000
0000
0000
0000
0000
0000
0000
0000
0000
0000
0000
0000
0000
0000
0000
0000
,
0000
0000
3000
0000
,
0000
0000
0000
0000
,
0000
0000
0000
1001
0000
1001
0000
1001
,
0010
0010
1001
0010
0010
0010
1100
0000
0000
0000
0101
0000
0000
0000
0011
0000
,
0000
1100
1100
1010
0000
0110
0000
0101
,
0000
0000
0011
0000
0011
0000
1100
0000
1000
0000
1010
0000
1000
1000
1001
0000
,
1000
0000
1010
0000
1000
0000
1001
0100
0010
1000
0101
0010
1000
0001
0110
1000
,
0101
0001
1010
0010
0101
1000
1001
0000
0100
0100
1001
0000
0000
0000
1010
0000
,
1001
0000
0000
0000
0101
0010
0100
0000
0110
0001
1010
0000
0010
1000
0101
0000
,
1001
0100
1010
0000
1100
0001
0110
0000
0110
0001
1100
0000
1100
0010
0101
0000
,
0101
1000
0110
0000
1100
0010
1001
0000
0011
0100
1001
0000
0011
1000
0001
0000
,
0101
0010
1010
0000
0110
1000
0011
0000
1000
0100
1001
0000
1000
0010
1100
0000
,
1010
0100
1001
0000
1100
0001
0011
0100
1010
0000
0011
1000
0110
0000
0011
1000
,
0110
0000
0011
0100
1010
0000
0101
0010
1100
0000
0101
1000
0110
0000
1100
0010
,
0101
0000
1010
0001
0110
0000
0011
0100
1100
0000
1001
0010
0101
0000
1001
0010
,
0101
0010
1100
1000
0011
1000
0220
0000
0330
0000
1000
0000
1000
0000
1010
0000
,
0101
0000
0000
0000
0220
0000
0330
0000
1100
0010
0101
0000
0110
1000
0101
0000
,
0011
0100
1001
0000
1010
0001
1100
0000
1100
0010
1001
0000
1010
0100
1001
0000
,
1001
0100
0011
0000
0201
0300
0110
0100
1002
0003
0021
0030
1200
0300
0000
0000
,
1001
0100
1001
0100
1001
0100
1010
0000
0110
0001
1100
0000
0110
0001
0100
0000
,
0110
0000
0000
1000
0000
0000
0101
0000
0000
0000
0000
0000
1010
0000
0100
0001
0000
0000
0010
0000
0000
0000
0000
0000
1010
0000
0000
0001
0000
0000
0110
0000
0000
0000
0000
0000
0011
0000
0000
1000
0000
0000
0010
0000
0000
0000
0000
0000
,
0110
1000
0011
0000
1010
0100
1010
0000
1000
0100
1001
0000
1000
0010
1100
0000
,
0011
1100
0110
0000
1010
0110
1010
0101
,
0000
0101
1100
0011
0000
1000
1000
1100
,
1001
1000
0101
0000
0101
0011
0001
0011
,
0101
1001
0011
1100
0100
0100
1000
1010
,
1010
0110
0011
0000
1100
0011
0001
0001
,
0001
0010
0010
1000
1000
1100
1010
1001
,
1100
1010
0101
1000
0101
1010
1100
0110
,
0101
1001
0101
1010
0011
0110
0110
1100
,
1100
0000
0100
0000
1010
0000
0000
0000
0100
0000
1000
0000
0100
0000
0100
0001
,
1010
0010
0101
0100
1010
0001
1100
0000
1001
0010
1100
0000
1001
0000
1010
0000
,
1001
0000
1010
0001
0110
0000
0000
0000
0101
0000
0110
0000
1100
0000
1010
0000
,
0110
0011
0110
1100
1100
0110
1010
1001
,
1001
0010
0101
1000
0001
1010
0001
1000
,
0100
0000
0000
0000
0000
0000
0000
0000
0000
0000
0000
0000
0000
0000
0000
0000
0000
0000
0000
0000
0000
0000
0000
0000
0001
0000
0000
0000
0000
0000
0000
0000
0000
0000
0000
0000
0001
0000
0000
0000
0000
0000
0000
0000
0000
0000
0000
0000
0010
0000
0000
0000
0000
0000
0000
0000
0000
0000
0000
0000
0000
0000
0000
0000
0000
0000
0000
0000
0000
0000
0000
0000
0000
0000
0000
0000
0000
0000
0000
0000
0000
0000
0000
0000
0000
0000
0000
0000
0000
0000
0000
0000
0000
0000
0000
0000
1000
0000
0000
0000
0000
0000
0000
0000
0000
0000
0000
0000
0010
0000
0000
0000
0000
0000
0000
0000
0000
0000
0000
0000
0001
0000
0000
0000
0000
0000
0000
0000
0010
0000
0000
0000
0000
0000
0000
0000
0100
0000
0000
0000
0000
0000
0000
0000
1000
0000
0000
0000
0000
0000
0100
0000
0000
0000
0000
0000
0010
0000
0000
0000
0000
0000
0000
0000
0000
0000
0000
0000
0001
0000
0000
0000
0000
0000
0000
0000
0010
0000
0000
0000
0000
0000
0000
0000
0100
0000
0000
0000
0000
0000
0000
0000
,
1000
0100
0010
0000
0001
0010
0100
0000
1000
0100
0010
0000
0001
0010
0100
0000
0010
0000
0001
0000
0010
0000
1000
0000
0100
0000
0010
0000
0001
0000
0000
0000
,
1000
0000
0000
0000
0000
0000
1000
0000
0000
0000
0000
0000
1000
0000
0000
0000
0000
0000
0011
0000
0000
0000
0000
0000
0101
0000
0000
0000
0000
0000
0110
0000
0000
0000
0000
0000
1010
0000
0000
0000
0000
0000
1000
0000
0000
0001
0100
0000
,
1000
0000
0010
0001
0000
0000
0100
0000
0000
0001
0010
0000
1000
0000
0001
0100
0000
0000
0010
0000
0000
0000
0000
0000
0001
0000
0000
0000
0000
0000
0010
0000
0000
0000
0000
0000
0100
0000
0000
0000
0000
0000
0101
0000
0000
1000
0010
0000
,
0001
0000
0100
0010
0000
0000
1001
0000
0000
0010
0100
0000
1000
0000
0010
0100
0000
0000
1002
0000
0000
0000
0000
0000
1000
0000
0000
0000
0000
0000
1000
0000
0000
0000
0000
0000
1000
0000
0100
1000
0010
0000
0100
0000
0000
0000
0000
0000
,
0100
0000
0000
0000
0000
0000
0100
0000
0000
0000
0000
0000
0100
0000
0000
0100
0000
0000
0010
0000
0000
0000
0000
0000
0010
0000
0000
0000
0000
0000
0010
0000
0000
0000
0000
0000
0013
0000
0100
0010
1000
0000
0001
0000
0000
0000
0000
0000
,
0001
0000
0000
0000
0000
0000
0001
0000
0000
0000
0000
0000
0001
0000
0000
0001
0000
0000
1010
0000
0000
0000
0100
0000
0011
0000
1000
0000
0000
0000
1000
0000
0000
0100
0000
0000
0010
0000
0000
0001
0000
0000
1010
0000
0000
0000
0100
0000
,
0011
0000
1000
0000
0000
0000
1000
0000
0000
0100
0000
0000
0010
0000
0000
0001
0000
0000
1010
0000
0000
0000
0100
0000
0011
0000
1000
0000
0000
0000
1000
0000
0000
0100
0000
0000
0010
0000
0000
0001
0000
0000
0110
0000
0000
0001
0100
0000
,
0010
0000
1000
0000
0000
0000
1001
0000
0000
0100
0000
0000
2020
0000
0000
0000
0000
0000
0000
0000
0000
0000
0000
0000
0000
0000
0000
0000
0000
0000
0000
0000
0000
0000
0000
0000
0000
0000
0000
0000
0000
0000
0000
0000
0000
0000
0000
0000
,
0000
0000
0000
0000
,
0000
0000
0000
0000
,
0000
0000
0000
0000
,
0000
0000
0000
0000
0000
3030
0000
0000
;

//---------------dance-single - ----------------
#NOTES:
     dance-single:
     :
     Hard:
     11:
     1.000,1.000,1.000,0.297,0.632,1588.000,731.000,69.000,0.000,3.000:
1000
0100
1000
0100
1000
0100
1001
0000
0000
0000
1000
0000
0000
0000
1100
0000
,
0001
1000
0010
1000
0010
1001
0000
1001
,
0010
0101
1000
0101
0000
0110
0000
1100
,
0000
0101
0000
0101
0010
0101
0010
0001
,
1000
1100
0010
1001
0000
1000
0000
1100
,
0001
1000
0010
1000
0010
1001
0000
1001
,
0010
0101
1000
0011
0000
1010
0000
0110
,
0000
0000
0011
0000
0000
0000
0110
0000
1000
0000
1010
0000
0001
0000
1100
0010
,
0001
0100
1000
0010
0001
0100
0110
0000
0000
0000
0010
0000
0000
0000
1100
0000
,
0001
1000
0010
1000
0010
1001
0000
1010
,
0100
1001
0000
1001
0000
0101
0000
1010
,
0000
1001
0000
1010
0001
1010
0100
0000
,
0002
0003
0021
0031
2100
3000
0021
0030
0000
0000
0001
0000
0000
0000
1100
0000
,
0001
1000
0010
1000
0010
1001
0000
1001
,
0010
0101
1000
0101
0000
1100
0000
0110
,
0000
0000
0101
0000
0000
0000
0011
0000
0100
0000
1001
0000
0100
0000
0001
0010
,
1000
0000
0010
0000
0010
0100
1001
0000
1000
0000
1001
0000
1000
0010
0101
0000
,
0100
0000
0101
0000
0100
0001
1010
0000
0010
0000
1010
0000
0010
0100
1001
0000
,
0001
0000
1001
0000
0001
0001
0110
0000
0110
0000
0000
0000
0000
0000
1100
0000
,
1100
0000
0000
0000
0000
0000
0011
0000
0011
0000
0000
0000
0000
0000
0100
0100
,
0100
0000
0001
0000
1010
0000
0000
0000
1000
0100
1000
0000
1000
0100
1000
0000
,
1000
0100
1000
0000
1000
0100
1000
0000
1000
0100
1000
0000
1000
0100
1000
0000
,
1000
0100
1000
0000
1000
0100
1000
0000
1000
0100
1000
0000
1000
0100
1000
0000
,
1000
0100
1000
0000
1000
0100
1000
0000
1000
0100
1000
0000
1000
0100
1000
0000
,
0100
0010
0100
0000
0010
0001
0010
0000
0010
0001
0010
0000
0010
0001
0010
0000
,
0010
0001
0010
0000
0010
0001
0010
0000
0010
0001
0010
0000
0010
0001
0010
0000
,
0100
0100
0010
0000
0001
0000
1020
0000
0000
0000
1230
0000
0000
0000
1310
0000
,
0001
1100
0001
1000
0001
1100
0001
1000
,
0001
0000
0010
0000
0100
0000
0001
0000
0001
0010
1001
0000
0001
0010
1001
0000
,
0001
0100
1001
0000
0001
0100
1010
0000
0010
0100
1010
0000
0010
0100
1010
0000
,
0010
0001
1010
0000
0010
0100
1001
0000
1000
0010
1001
0000
1000
0010
1001
0000
,
1000
0100
1001
0000
1000
0010
0101
0000
1000
0010
1001
0000
1000
0100
0011
0000
,
0100
0010
1001
0000
1000
0001
0210
0000
0300
0000
1010
0000
1002
0000
0003
0000
,
0000
0110
0000
0201
0300
1001
0021
0030
,
2000
3000
0000
0010
0000
0000
0201
0300
0000
0001
0000
0000
1020
0030
0000
0000
0000
0000
1000
0000
0000
0000
0000
0000
1000
0000
0000
0000
0000
0000
1000
0000
0000
0000
0000
0000
0001
0000
0010
0000
0100
0000
1000
0000
0000
0000
0000
0000
,
1000
0000
1001
0100
1000
0100
0010
0100
1000
0010
0100
0001
0010
0100
1000
0001
,
1000
1000
0001
0010
0001
0010
1100
0000
1000
1000
0100
0000
1000
0000
0001
0000
,
0100
0000
1010
0000
0100
0000
1000
0000
0100
0100
0010
0000
1000
0000
0001
0000
,
0100
0000
1010
0000
0100
0000
1000
0000
0010
0010
0001
0000
1000
0000
0010
0000
,
0100
1010
0010
0101
0001
0110
0100
1010
,
0001
0010
0001
0010
0001
0010
1100
0000
0000
0000
0101
0000
0000
0000
0011
0000
,
0000
1100
1100
1010
0000
0110
0000
0101
,
0000
0000
0011
0000
0011
0000
1100
0000
1000
0000
1010
0000
1000
0100
1001
0000
,
1000
1010
1000
1001
0010
0101
1000
0110
,
0001
0010
0100
0010
0100
1000
2002
0000
3003
0000
1000
0000
1000
0000
1010
0000
,
1001
0000
0101
0100
0110
1010
0010
0101
,
1001
1010
1100
0110
0110
1100
1100
0101
,
0101
0110
1100
1001
0011
1001
0011
0001
,
0101
1010
0110
0011
1000
1001
1000
1100
,
1010
1001
1100
0011
1010
0011
0110
0011
,
0110
0011
1010
0101
1100
0101
0110
1100
,
0101
1010
0110
0011
1100
1001
0101
1001
,
0101
1000
0100
0010
0100
0001
0202
0000
0303
0000
0000
0000
0000
0000
1010
0000
,
0101
0000
0220
0330
1100
0101
0110
0101
,
0011
1001
1010
1100
1100
1001
1010
1001
,
1001
0000
0011
0000
0201
0300
0100
0010
1002
0003
0021
0030
1200
0300
0000
0000
,
0001
0100
0001
0100
0001
0100
1010
0000
0110
0000
1100
0000
0110
0000
0100
0000
,
0110
0000
0000
0101
0000
0000
2010
3000
0000
0010
0000
0000
1010
0000
0000
0110
0000
0000
0011
0000
0000
0010
0000
0000
,
0110
0011
1010
1010
1000
1001
1000
1100
,
0011
1100
0110
0000
1010
0110
1010
0101
,
0000
0000
0000
0000
0101
0000
0000
0000
1000
0100
0010
0001
1000
0000
0000
0000
1000
0000
0000
0000
1010
0000
0000
0000
1000
0000
0000
0000
1100
0000
0000
0000
,
0100
1010
1000
0010
0011
0110
1010
0010
,
0010
0000
0000
0000
0010
0000
0000
0000
1000
0100
0010
0001
1000
0000
0000
0000
1000
0000
0000
0000
1001
0000
0000
0000
1000
0000
0000
0000
0100
0000
0000
0000
,
1100
0110
0011
0000
0011
1010
0110
1000
,
1010
0011
1001
0100
0100
0101
0100
0100
,
0101
0000
0100
0000
0010
0000
0000
0001
0010
0001
0010
0100
1000
0001
0010
0100
,
1000
0100
0010
0001
0010
0100
1000
0000
0100
0000
1001
0000
0010
0000
0100
0000
,
0001
0000
0010
0000
2200
0000
0000
3300
2200
3300
0220
0330
0022
0033
1000
0001
,
0100
0000
0010
0000
1000
0000
0001
0000
0010
1000
0100
0010
0001
0000
0000
0000
1000
0000
0000
0000
0110
0000
0000
0000
1000
0000
0000
0000
1001
0000
0000
0000
,
1100
0000
1000
0000
1010
0000
0000
0000
0011
0000
1001
0010
0100
0000
0100
0000
,
1001
0110
0101
1001
1100
1010
0011
0010
,
1100
0010
1001
0000
0101
1010
0101
0000
,
1000
0000
0100
0001
1010
0000
1010
0000
1010
0000
1100
0000
1010
0000
1000
0000
,
1010
1000
0110
0000
1100
0101
0110
0100
,
0101
0000
0110
0000
1100
0000
1000
0000
1000
0100
0011
0000
1000
0100
0011
0000
,
0100
0010
1001
0000
0101
0000
0010
0000
1100
0000
0100
0000
0011
0000
1000
0100
,
0010
0000
0000
0001
0000
0000
0100
0000
0000
1000
0000
0000
0100
0000
0000
0010
0000
0000
1001
0000
0000
0000
0000
0000
1000
0000
0000
0000
0000
0000
1001
0000
0000
0000
0000
0000
1000
0000
0100
0000
0010
0000
0100
0000
0000
0000
0000
0000
,
0100
0000
0000
0000
0000
0000
0101
0000
0000
0000
0000
0000
0100
0000
0000
0100
0000
0000
1010
0000
0000
0000
0000
0000
0010
0000
0000
0000
0000
0000
1010
0000
0000
0000
0000
0000
0010
0000
0001
0000
0100
0000
0001
0000
0000
0000
0000
0000
,
0001
0000
1001
0000
0001
0001
0110
0000
0110
0000
0000
0000
0000
0000
1100
0000
,
1100
0000
0000
0000
0000
0000
0011
0000
0011
0000
0000
0000
0000
0000
0100
0100
,
0100
0000
0001
0000
1010
0000
0000
0000
1010
0100
1000
0000
1010
0100
1000
0000
,
1010
0100
1000
0000
1010
0100
1000
0000
1010
0100
1000
0000
1010
0100
1000
0000
,
1010
0100
1000
0000
1010
0100
1000
0000
1010
0100
1000
0000
1010
0100
1000
0000
,
1010
0100
1000
0000
1010
0100
1000
0000
1010
0100
1000
0000
1010
0100
1000
0000
,
0101
0010
0100
0000
1001
0010
0001
0000
1001
0010
0001
0000
1001
0010
0001
0000
,
1001
0010
0001
0000
1001
0010
0001
0000
1001
0010
0001
0000
1001
0010
0001
0000
,
0100
0100
0010
0000
0001
0000
1100
0000
0100
0000
0101
0000
0100
0000
1100
0000
,
0100
0101
0100
1100
0100
0101
0100
1100
,
0001
0000
0010
0000
0100
0000
0001
0000
0001
0010
1001
0000
0001
0010
1001
0000
,
0001
0100
1001
0000
0001
0100
1010
0000
0010
0100
1010
0000
0010
0100
1010
0000
,
0010
0001
1010
0000
0010
0100
1001
0000
1000
0010
1001
0000
1000
0010
1001
0000
,
1000
0100
1001
0000
1000
0010
0101
0000
1000
0010
1001
0000
1000
0100
0011
0000
,
0100
0010
1001
0000
1000
0001
0210
0000
0300
0000
1010
0000
1002
0000
0003
0000
,
0000
0110
0000
0201
0300
1001
0021
0030
,
2000
3000
0000
0010
0000
0000
0201
0300
0000
0001
0000
0000
1020
0030
0000
0000
0000
0000
1000
0000
0000
0000
0000
0000
1000
0000
0000
0000
0000
0000
1000
0000
0000
0000
0000
0000
0001
0000
0010
0000
0100
0000
1000
0000
0000
0000
0000
0000
,
1000
0000
1000
0100
1000
0100
0010
0010
0001
0010
0100
1000
0010
0100
0001
0010
,
0100
1000
0001
0010
0001
0010
1100
0000
1000
1000
0100
0000
1000
0000
0001
0000
,
0100
0000
1010
0000
0100
0000
1000
0000
0100
0100
0010
0000
1000
0000
0001
0000
,
0100
0000
1010
0000
0100
0000
1000
0000
0010
0010
0001
0000
1000
0000
0010
0000
,
0100
1010
0010
0101
0001
0110
0100
1010
,
0011
0001
0010
0001
0010
0001
0110
0000
0000
0000
0101
0000
0000
0000
0011
0000
,
0000
1100
1100
1010
0000
0110
0000
0101
,
0000
0000
0011
0000
0011
0000
1100
0000
1000
0000
1010
0000
1000
1000
1001
0000
,
1000
1010
1000
1001
0010
0101
1000
0110
,
1001
0010
0100
0010
0100
1000
2002
0000
3003
0000
1000
0000
1000
0000
1010
0000
,
1001
0000
0101
0100
0110
1010
0010
0101
,
1001
1010
1100
0110
0110
1100
1100
0101
,
0101
0110
1100
1001
0011
1001
0011
0001
,
0101
1010
0110
0011
1000
1001
1000
1100
,
1010
1001
1100
0011
1010
0011
0110
0011
,
0110
0011
1010
0101
1100
0101
0110
1100
,
0101
1010
0110
0011
1100
1001
0101
1001
,
0101
0010
0100
1000
0010
1000
0220
0000
0330
0000
0000
0000
0000
0000
1010
0000
,
0101
0000
0220
0330
1100
0101
0110
0101
,
0011
1001
1010
1100
1100
1001
1010
1001
,
1001
0000
0101
0000
0021
0030
0120
0130
1002
0003
0021
0030
1200
0300
0000
0000
,
1000
0100
1000
0100
1000
0100
1010
0000
0110
0000
1100
0000
0110
0000
0100
0000
,
0110
0000
0000
0101
0000
0000
2010
3000
0000
0010
0000
0000
1010
0000
0000
0110
0000
0000
0011
0000
0000
0010
0000
0000
,
0110
0011
1010
1010
1000
1001
1000
1100
,
0011
1100
0110
0000
1010
0110
1010
0101
,
0000
0101
1100
0011
0000
1000
1000
1100
,
1010
1001
1001
1000
1000
1000
1000
1100
,
1001
0000
1100
0000
1010
0000
1000
0000
1001
0000
1010
0000
1100
0000
1002
0003
,
1002
0003
1010
0000
1001
0000
1010
0000
1100
0000
0110
0000
1100
0000
1000
0000
,
1000
1000
1000
1010
1000
1010
1000
1100
,
0110
1000
1001
1000
1001
1010
1001
1000
,
1100
0000
1010
0000
1010
0000
1000
0000
1000
0000
1000
0000
1000
0000
1020
0030
,
1010
0000
0110
0000
1001
0000
0110
0000
1100
0000
1100
0000
1000
0000
1001
0100
,
0001
0010
1000
0100
0001
0010
1001
0000
1000
0000
1100
0000
1000
0000
1001
0000
,
1010
0000
1100
0010
1100
0000
1100
0000
1010
0000
0110
0000
1001
0000
1100
0000
,
1010
0000
0000
1010
0002
0000
1103
0000
0000
1100
0000
0000
1010
0000
0000
0110
0000
0000
1001
0000
0000
0101
0000
0000
,
1010
0000
0000
1100
0000
0000
1020
0000
0000
1000
0000
0000
1000
0000
0000
1000
0030
0000
1000
0000
0000
1100
0000
0000
,
0000
0000
0010
0010
0100
0000
1000
0000
1001
0000
1000
0001
1010
0000
0110
0000
,
1001
0000
0110
0000
1010
0000
0100
0001
0110
0000
1010
0000
1001
0000
1000
0100
,
1010
0100
1000
0000
0100
0010
1000
0010
0100
0010
1000
0010
0100
0010
1000
0010
,
0100
0010
1000
0010
0100
0010
1000
0010
0100
0010
1000
0010
0100
0010
1000
0010
,
0100
1000
0001
0010
0100
1000
2000
0000
0000
0000
0000
0000
0000
0000
0000
0000
,
0000
0000
3000
0000
,
0000
0000
0000
0000
,
0000
0000
0000
1001
0000
1001
0000
1001
,
0010
0010
0001
0010
0100
0010
1100
0000
0000
0000
0101
0000
0000
0000
0011
0000
,
0000
1100
1100
1010
0000
0110
0000
0101
,
0000
0000
0011
0000
0011
0000
1100
0000
1000
0000
1010
0000
1000
1000
1001
0000
,
1000
0000
1010
0000
1000
0000
1001
0100
0010
0001
1001
0100
0010
0001
0011
0100
,
0010
0100
1001
0001
0010
0100
1000
0000
0100
0100
1001
0000
0000
0000
1010
0000
,
1001
0000
0101
0100
0110
1010
0010
0101
,
1001
1010
1100
0110
0110
1100
1100
0101
,
0101
0110
1100
1001
0011
1001
0011
0001
,
0101
1010
0110
0011
1000
1001
1000
1100
,
1010
1001
1100
0011
1010
0011
0110
0011
,
0110
0011
1010
0101
1100
0101
0110
1100
,
0101
1010
0110
0011
1100
1001
0101
1001
,
0001
0010
0001
0100
0001
1000
0220
0000
0330
0000
1000
0000
1000
0000
1010
0000
,
0101
0000
0220
0330
1100
0101
0110
0101
,
0011
1001
1010
1100
1100
1001
1010
1001
,
1001
0000
0011
0000
0201
0300
0110
0100
1002
0003
0021
0030
1200
0300
0000
0000
,
1000
0100
1000
0100
1000
0100
1010
0000
0110
0000
1100
0000
0110
0000
0100
0000
,
0110
0000
0000
0101
0000
0000
2010
3000
0000
0010
0000
0000
1010
0000
0000
0110
0000
0000
0011
0000
0000
0010
0000
0000
,
0110
0011
1010
1010
1000
1001
1000
1100
,
0011
1100
0110
0000
1010
0110
1010
0101
,
0000
0101
1100
0011
0000
1000
1000
1100
,
1001
1000
0101
0000
0101
0011
0001
0011
,
0101
1001
0011
1100
0100
0100
1000
1010
,
1010
0110
0011
0000
1100
0011
0001
0001
,
0001
0010
0010
1000
1000
1100
1010
1001
,
1100
1010
0101
1000
0101
1010
1100
0110
,
0101
1001
0101
1010
0011
0110
0110
1100
,
1100
0000
0100
0000
1010
0000
0000
0000
0100
0000
1000
0000
0100
0000
0100
1000
,
0010
0001
0100
1000
0010
0001
1100
0000
1001
0010
1100
0000
1001
0000
1010
0000
,
1001
0000
1010
0001
0110
0000
0000
0000
0101
0000
0110
0000
1100
0000
1010
0000
,
0110
0011
0110
1100
1100
0110
1010
1001
,
1001
0010
0101
1000
0001
1010
0001
1000
,
0100
0000
0000
0000
0000
0000
0000
0000
0000
0000
0000
0000
0000
0000
0000
0000
0000
0000
0000
0000
0000
0000
0000
0000
0001
0000
0000
0000
0000
0000
0000
0000
0000
0000
0000
0000
0001
0000
0000
0000
0000
0000
0000
0000
0000
0000
0000
0000
0010
0000
0000
0000
0000
0000
0000
0000
0000
0000
0000
0000
0000
0000
0000
0000
0000
0000
0000
0000
0000
0000
0000
0000
0000
0000
0000
0000
0000
0000
0000
0000
0000
0000
0000
0000
0000
0000
0000
0000
0000
0000
0000
0000
0000
0000
0000
0000
1000
0000
0000
0000
0000
0000
0000
0000
0000
0000
0000
0000
0010
0000
0000
0000
0000
0000
0000
0000
0000
0000
0000
0000
0001
0000
0000
0000
0000
0000
0000
0000
0010
0000
0000
0000
0000
0000
0000
0000
0100
0000
0000
0000
0000
0000
0000
0000
1000
0000
0000
0000
0000
0000
0100
0000
0000
0000
0000
0000
0010
0000
0000
0000
0000
0000
0000
0000
0000
0000
0000
0000
0001
0000
0000
0000
0000
0000
0000
0000
0010
0000
0000
0000
0000
0000
0000
0000
0100
0000
0000
0000
0000
0000
0000
0000
,
1000
0100
0010
0000
0001
0010
0100
0000
1000
0100
0010
0000
0001
0010
0100
0000
0010
0000
0001
0000
0010
0000
1000
0000
0100
0000
0010
0000
0001
0000
0000
0000
,
1000
0000
0000
1000
0000
0000
1000
0000
0000
0011
0000
0000
0101
0000
0000
0110
0000
0000
1010
0000
0000
1000
0000
0100
,
0000
0000
0010
0000
0000
0000
1000
0000
0000
0100
0000
0000
0010
0000
0000
0001
0000
0000
0010
0000
0000
0000
0000
0000
0001
0000
0000
0000
0000
0000
0010
0000
0000
0000
0000
0000
0100
0000
0000
0000
0000
0000
0101
0000
0000
0000
0010
0000
,
0000
0000
0100
0000
0000
0000
1000
0000
0000
0100
0000
0000
0010
0000
0000
0001
0000
0000
1002
0000
0000
0000
0000
0000
1000
0000
0000
0000
0000
0000
1000
0000
0000
0000
0000
0000
1000
0000
0100
0000
0010
0000
0100
0000
0000
0000
0000
0000
,
0100
0000
0000
0000
0000
0000
0100
0000
0000
0000
0000
0000
0100
0000
0000
0100
0000
0000
0010
0000
0000
0000
0000
0000
0010
0000
0000
0000
0000
0000
0010
0000
0000
0000
0000
0000
0013
0000
0100
0000
1000
0000
0001
0000
0000
0000
0000
0000
,
0001
0000
0000
0000
0000
0000
0001
0000
0000
0000
0000
0000
0001
0000
0000
0001
0000
0000
0010
0000
0000
0000
0100
0000
0000
0000
1000
0000
0000
0000
1000
0000
0000
0100
0000
0000
0010
0000
0000
0001
0000
0000
0010
0000
0000
0000
0100
0000
,
0000
0000
1000
0000
0000
0000
1000
0000
0000
0100
0000
0000
0010
0000
0000
0001
0000
0000
0010
0000
0000
0000
0100
0000
0000
0000
1000
0000
0000
0000
1000
0000
0000
0100
0000
0000
0010
0000
0000
0001
0000
0000
0110
0000
0000
0001
0100
0000
,
0010
0000
1000
0000
0000
0000
1001
0000
0000
0100
0000
0000
2020
0000
0000
0000
0000
0000
0000
0000
0000
0000
0000
0000
0000
0000
0000
0000
0000
0000
0000
0000
0000
0000
0000
0000
0000
0000
0000
0000
0000
0000
0000
0000
0000
0000
0000
0000
,
0000
0000
0000
0000
,
0000
0000
0000
0000
,
0000
0000
0000
0000
,
0000
0000
0000
0000
0000
3030
0000
0000
;

//---------------dance-single - original heavy----------------
#NOTES:
     dance-single:
     original heavy:
     Edit:
     12:
     1.000,1.000,1.000,0.305,0.662,1605.000,808.000,71.000,0.000,4.000:
1000
0100
1000
0100
1000
0100
1001
0000
0000
0000
1000
0000
0000
0000
1100
0000
,
0001
1000
0010
1000
0010
1001
0000
1001
,
0010
0101
1000
0101
0000
0110
0000
1100
,
0000
0101
0000
0101
0010
0101
0010
0001
,
1000
1100
0010
1001
0000
1000
0000
1100
,
0001
1000
0010
1000
0010
1001
0000
1001
,
0010
0101
1000
0011
0000
1010
0000
0110
,
0000
0000
0011
0000
0000
0000
0110
0000
1000
0000
1010
0000
0001
0000
1100
0010
,
0001
0100
1000
0010
0001
0100
0110
0000
0000
0000
0010
0000
0000
0000
1100
0000
,
0001
1000
0010
1000
0010
1001
0000
1010
,
0100
1001
0000
1001
0000
0101
0000
1010
,
0000
1001
0000
1010
0001
1010
0100
0000
,
0002
0003
0021
0031
2100
3000
0021
0030
0000
0000
0001
0000
0000
0000
1100
0000
,
0001
1000
0010
1000
0010
1001
0000
1001
,
0010
0101
1000
0101
0000
1100
0000
0110
,
0000
0000
0101
0000
0000
0000
0011
0000
0100
0000
1001
0000
0100
0000
0001
0010
,
1000
0000
0010
0000
0010
0100
1001
0000
1000
0000
1001
0000
1000
0010
0101
0000
,
0100
0000
0101
0000
0100
0001
1010
0000
0010
0000
1010
0000
0010
0100
1001
0000
,
0001
0000
1001
0000
0001
0001
0110
0000
0110
0000
0000
0000
0000
0000
1100
0000
,
1100
0000
0000
0000
0000
0000
0011
0000
0011
0000
0000
0000
0000
0000
0100
0100
,
0100
0000
0001
0000
1010
0000
0000
0000
1000
0100
1000
0000
1000
0100
1000
0000
,
1000
0100
1000
0000
1000
0100
1000
0000
1000
0100
1000
0000
1000
0100
1000
0000
,
1000
0100
1000
0000
1000
0100
1000
0000
1000
0100
1000
0000
1000
0100
1000
0000
,
1000
0100
1000
0000
1000
0100
1000
0000
1000
0100
1000
0000
1000
0100
1000
0000
,
0100
0010
0100
0000
0010
0001
0010
0000
0010
0001
0010
0000
0010
0001
0010
0000
,
0010
0001
0010
0000
0010
0001
0010
0000
0010
0001
0010
0000
0010
0001
0010
0000
,
0100
0000
0000
0100
0000
0000
0010
0000
0000
0000
0000
0000
0001
0000
0000
0000
0000
0000
1020
0000
0000
0000
0000
0000
0000
0000
0000
0000
0000
0000
1230
0000
0302
0000
0203
0000
0302
0000
0203
0000
0302
0000
1013
0000
0000
0000
0000
0000
,
0001
1100
0001
1000
0001
1100
0001
1000
,
0001
0000
0010
0000
0100
0000
0001
0000
0001
0010
1001
0000
0001
0010
1001
0000
,
0001
0100
1001
0000
0001
0100
1010
0000
0010
0100
1010
0000
0010
0100
1010
0000
,
0010
0001
1010
0000
0010
0100
1001
0000
1000
0010
1001
0000
1000
0010
1001
0000
,
1000
0100
1001
0000
1000
0010
0101
0000
1000
0010
1001
0000
1000
0100
0011
0000
,
0100
0010
1001
0000
1000
0001
0210
0000
0300
0000
1010
0000
1002
0000
0003
0000
,
0000
0110
0000
0201
0300
1001
0021
0030
,
2000
3000
0000
0010
0000
0000
0201
0300
0000
0001
0000
0000
1020
0030
0000
0000
0000
0000
1000
0000
0000
0000
0000
0000
1000
0000
0000
0000
0000
0000
1000
0000
0000
0000
0000
0000
1001
0000
0010
0000
0100
0000
1000
0000
0000
0000
0000
0000
,
1000
0000
1001
0100
1001
0100
0010
0100
0001
0010
0100
1000
0010
0100
1000
0001
,
0100
1000
0001
0010
0001
0010
1100
0000
1000
1000
0100
0000
1000
0000
0001
0000
,
0100
0000
1010
0000
0100
0000
1000
0000
0100
0100
0010
0000
1000
0000
0001
0000
,
0100
0000
1010
0000
0100
0000
1000
0000
0010
0010
0001
0000
1000
0000
0010
0000
,
0100
1010
0010
0101
0001
0110
0100
1010
,
0011
0100
1001
0010
0101
0010
1100
0000
0000
0000
0101
0000
0000
0000
0011
0000
,
0000
1100
1100
1010
0000
0110
0000
0101
,
0000
0000
0011
0000
0011
0000
1100
0000
1000
0000
1010
0000
1000
0100
1001
0000
,
1000
1010
1000
1001
0010
0101
1000
0110
,
0001
0010
0100
0010
0100
1000
2002
0000
3003
0000
1000
0000
1000
0000
1010
0000
,
1001
0000
0101
0100
0110
1010
0010
0101
,
1001
1010
1100
0110
0110
1100
1100
0101
,
0101
0110
1100
1001
0011
1001
0011
0001
,
0101
1010
0110
0011
1000
1001
1000
1100
,
1010
1001
1100
0011
1010
0011
0110
0011
,
0110
0011
1010
0101
1100
0101
0110
1100
,
0101
1010
0110
0011
1100
1001
0101
1001
,
0101
0010
1100
0001
0110
1000
0202
0000
0303
0000
0000
0000
0000
0000
1010
0000
,
0101
0000
0220
0330
1100
0101
0110
0101
,
0011
1001
1010
1100
1100
1001
1010
1001
,
1001
0000
0011
0000
0201
0300
0110
0100
1002
0003
0021
0030
1200
0300
0000
0000
,
1001
0100
1001
0100
1001
0100
1010
0000
0110
0000
1100
0000
0110
0000
0100
0000
,
0110
0000
0000
0101
0000
0000
1010
0100
0000
0010
0000
0000
1010
0000
0000
0110
0000
0000
0011
0000
0000
0010
0000
0000
,
0110
0011
1010
1010
1000
1001
1000
1100
,
0011
1100
0110
0000
1010
0110
1010
0101
,
0000
0000
0000
0000
0101
0000
0000
0000
1000
0100
0010
0001
1000
0000
0000
0000
1000
0000
0000
0000
1010
0000
0000
0000
1000
0000
0000
0000
1100
0000
0000
0000
,
0100
1010
1000
0010
0011
0110
1010
0010
,
0010
0000
0000
0000
0010
0000
0000
0000
1000
0100
0010
0001
1100
0000
0000
0000
1000
0000
0000
0000
1001
0000
0000
0000
1000
0000
0000
0000
0100
0000
0000
0000
,
1100
0110
0011
0000
0011
1010
0110
1000
,
1010
0011
1001
0100
0100
0101
0100
0100
,
0101
0000
0100
0000
0010
0000
0000
0001
0010
0001
1010
0100
1000
0001
0010
0100
,
1000
0100
1010
0001
0010
0100
1000
0000
0100
0000
1001
0000
0010
0000
0100
0000
,
0001
0000
0010
0000
2200
0000
0000
3300
2200
3300
0220
0330
0022
0033
1000
0001
,
0100
0000
0010
0000
1000
0000
0001
0000
0010
1000
0100
0010
1001
0000
0000
0000
1000
0000
0000
0000
0110
0000
0000
0000
1000
0000
0000
0000
1001
0000
0000
0000
,
1100
0000
1000
0000
1010
0000
0000
0000
0011
0000
1001
0010
1100
0000
0100
0000
,
1001
0110
0101
1001
1100
1010
0011
0010
,
1100
0010
1001
0000
0101
1010
0101
0000
,
1000
0000
0101
0001
1010
0000
1010
0000
1010
0000
1100
0000
1010
0000
1000
0000
,
1010
1000
0110
0000
1100
0101
0110
0100
,
0101
0000
0110
0000
1100
0000
1000
0000
1001
0100
0011
0000
1010
0100
0011
0000
,
1100
0010
1001
0000
0101
0000
0010
0000
1100
0000
0100
0000
0011
0000
1000
0100
,
0011
0000
0000
0100
0000
0000
0010
0000
0000
1000
0000
0000
0100
0000
0000
0010
0000
0000
1001
0000
0000
0000
0000
0000
1000
0000
0000
0000
0000
0000
1001
0000
0000
0000
0000
0000
1000
0000
0100
0000
0010
0000
0101
0000
0000
0000
0000
0000
,
0100
0000
0000
0000
0000
0000
0101
0000
0000
0000
0000
0000
0100
0000
0000
0100
0000
0000
1010
0000
0000
0000
0000
0000
0010
0000
0000
0000
0000
0000
1010
0000
0000
0000
0000
0000
0010
0000
0001
0000
0100
0000
1001
0000
0000
0000
0000
0000
,
0001
0000
1001
0000
0001
0001
0110
0000
0110
0000
0000
0000
0000
0000
1100
0000
,
1100
0000
0000
0000
0000
0000
0011
0000
0011
0000
0000
0000
0000
0000
0100
0100
,
0100
0000
0001
0000
1010
0000
0000
0000
1010
0100
1010
0000
1010
0100
1010
0000
,
1010
0100
1010
0000
1010
0100
1010
0000
1010
0100
1010
0000
1010
0100
1010
0000
,
1010
0100
1010
0000
1010
0100
1010
0000
1010
0100
1010
0000
1010
0100
1010
0000
,
1010
0100
1010
0000
1010
0100
1010
0000
1010
0100
1010
0000
1010
0100
1010
0000
,
0101
0010
0101
0000
1010
0001
1010
0000
1010
0001
1010
0000
1010
0001
1010
0000
,
1010
0001
1010
0000
1010
0001
1010
0000
1010
0001
1010
0000
1010
0001
1010
0000
,
0100
0100
0010
0000
0001
0000
1100
0000
0100
0000
0101
0000
0100
0000
1100
0000
,
0100
0101
0100
1100
0100
0101
0100
1100
,
0001
0000
0010
0000
0100
0000
0001
0000
0001
0010
1001
0000
0001
0010
1001
0000
,
0001
0100
1001
0000
0001
0100
1010
0000
0010
0100
1010
0000
0010
0100
1010
0000
,
0010
0001
1010
0000
0010
0100
1001
0000
1000
0010
1001
0000
1000
0010
1001
0000
,
1000
0100
1001
0000
1000
0010
0101
0000
1000
0010
1001
0000
1000
0100
0011
0000
,
0100
0010
1001
0000
1000
0001
0210
0000
0300
0000
1010
0000
1002
0000
0003
0000
,
0000
0110
0000
0201
0300
1001
0021
0030
,
2000
3000
0000
0010
0000
0000
0201
0300
0000
0001
0000
0000
1020
0030
0000
0000
0000
0000
1000
0000
0000
0000
0000
0000
1000
0000
0000
0000
0000
0000
1000
0000
0000
0000
0000
0000
1001
0000
0010
0000
0100
0000
1000
0000
0000
0000
0000
0000
,
1000
0000
1001
0100
1001
0100
0010
0100
0001
0010
0100
1000
0010
0100
1000
0001
,
0100
1000
0001
0010
0001
0010
1100
0000
1000
1000
0100
0000
1000
0000
0001
0000
,
0100
0000
1010
0000
0100
0000
1000
0000
0100
0100
0010
0000
1000
0000
0001
0000
,
0100
0000
1010
0000
0100
0000
1000
0000
0010
0010
0001
0000
1000
0000
0010
0000
,
0100
1010
0010
0101
0001
0110
0100
1010
,
0011
0001
1100
0010
1001
0010
1100
0000
0000
0000
0101
0000
0000
0000
0011
0000
,
0000
1100
1100
1010
0000
0110
0000
0101
,
0000
0000
0011
0000
0011
0000
1100
0000
1000
0000
1010
0000
1000
1000
1001
0000
,
1000
1010
1000
1001
0010
0101
1000
0110
,
1001
0010
0100
0010
0100
1000
2002
0000
3003
0000
1000
0000
1000
0000
1010
0000
,
1001
0000
0101
0100
0110
1010
0010
0101
,
1001
1010
1100
0110
0110
1100
1100
0101
,
0101
0110
1100
1001
0011
1001
0011
0001
,
0101
1010
0110
0011
1000
1001
1000
1100
,
1010
1001
1100
0011
1010
0011
0110
0011
,
0110
0011
1010
0101
1100
0101
0110
1100
,
0101
1010
0110
0011
1100
1001
0101
1001
,
0101
0010
1100
1000
0011
1000
0220
0000
0330
0000
0000
0000
0000
0000
1010
0000
,
0101
0000
0220
0330
1100
0101
0110
0101
,
0011
1001
1010
1100
1100
1001
1010
1001
,
1001
0000
0101
0000
0021
0030
0120
0130
1002
0003
0021
0030
1200
0300
0000
0000
,
1001
0100
1001
0100
1001
0100
1010
0000
0110
0000
1100
0000
0110
0000
0100
0000
,
0110
0000
0000
0101
0000
0000
1010
0100
0000
0010
0000
0000
1010
0000
0000
0110
0000
0000
0011
0000
0000
0010
0000
0000
,
0110
0011
1010
1010
1000
1001
1000
1100
,
0011
1100
0110
0000
1010
0110
1010
0101
,
0000
0101
1100
0011
0000
1000
1000
1100
,
1010
1001
1001
1000
1000
1000
1000
1100
,
1001
0000
1100
0000
1010
0000
1000
0000
1001
0000
1010
0000
1100
0000
1001
0100
,
1001
0100
1010
0000
1001
0000
1010
0000
1100
0000
0110
0000
1100
0000
1000
0000
,
1000
1000
1000
1010
1000
1010
1000
1100
,
0110
1000
1001
1000
1001
1010
1001
1000
,
1100
0000
1010
0000
1010
0000
1000
0000
1000
0000
1000
0000
1000
0000
1010
0001
,
1010
0000
0110
0000
1001
0000
0110
0000
1100
0000
1100
0000
1000
0000
1001
0100
,
0001
0010
1000
0100
0001
0010
1001
0000
1000
0000
1100
0000
1000
0000
1001
0000
,
1010
0000
1100
0010
1100
0000
1100
0000
1010
0000
0110
0000
1001
0000
1100
0000
,
1010
0000
0000
1010
0001
0010
1100
0000
0000
1100
0000
0000
1010
0000
0000
0110
0000
0000
1001
0000
0000
0101
0000
0000
,
1010
0000
0000
1100
0000
0000
1020
0000
0000
1000
0000
0000
1032
0023
0032
1023
0030
0000
1000
0000
0000
1100
0000
0000
,
0000
0000
0010
0010
0100
0000
1000
0000
1001
0000
1010
0001
1010
0000
0110
0000
,
1001
0000
0110
0000
1010
0000
0110
0001
0110
0000
1010
0000
1001
0000
1010
0100
,
1010
0100
1000
0000
0100
0010
1001
0010
0100
0010
1001
0010
0100
0010
1001
0010
,
0100
0010
1001
0010
0100
0010
1001
0010
0100
0010
1001
0010
0100
0010
1001
0010
,
0100
1000
0101
0010
0100
1000
2000
0000
0000
0000
0000
0000
0000
0000
0000
0000
,
0000
0000
3000
0000
,
0000
0000
0000
0000
,
0000
0000
0000
1001
0000
1001
0000
1001
,
0010
0010
1001
0010
0100
0010
1100
0000
0000
0000
0101
0000
0000
0000
0011
0000
,
0000
1100
1100
1010
0000
0110
0000
0101
,
0000
0000
0011
0000
0011
0000
1100
0000
1000
0000
1010
0000
1000
1000
1001
0000
,
1000
0000
1010
0000
1000
0000
1001
0100
0010
0001
1001
0100
0010
0001
0011
0100
,
0010
0100
1001
0001
0010
0100
1000
0000
0100
0100
1001
0000
0000
0000
1010
0000
,
1001
0000
0101
0100
0110
1010
0010
0101
,
1001
1010
1100
0110
0110
1100
1100
0101
,
0101
0110
1100
1001
0011
1001
0011
0001
,
0101
1010
0110
0011
1000
1001
1000
1100
,
1010
1001
1100
0011
1010
0011
0110
0011
,
0110
0011
1010
0101
1100
0101
0110
1100
,
0101
0000
1010
0000
0110
0000
0011
0000
1100
0000
1001
0000
0101
0000
1001
0010
,
0101
0010
1100
1000
0011
1000
0220
0000
0330
0000
1000
0000
1000
0000
1010
0000
,
0101
0000
0220
0330
1100
0101
0110
0101
,
0011
1001
1010
1100
1100
1001
1010
1001
,
1001
0000
0011
0000
0201
0300
0110
0100
1002
0003
0021
0030
1200
0300
0000
0000
,
1001
0100
1001
0100
1001
0100
1010
0000
0110
0000
1100
0000
0110
0000
0100
0000
,
0110
0000
0000
0101
0000
0000
1010
0100
0000
0010
0000
0000
1010
0000
0000
0110
0000
0000
0011
0000
0000
0010
0000
0000
,
0110
0011
1010
1010
1000
1001
1000
1100
,
0011
1100
0110
0000
1010
0110
1010
0101
,
0000
0101
1100
0011
0000
1000
1000
1100
,
1001
1000
0101
0000
0101
0011
0001
0011
,
0101
1001
0011
1100
0100
0100
1000
1010
,
1010
0110
0011
0000
1100
0011
0001
0001
,
0001
0010
0010
1000
1000
1100
1010
1001
,
1100
1010
0101
1000
0101
1010
1100
0110
,
0101
1001
0101
1010
0011
0110
0110
1100
,
1100
0000
0100
0000
1010
0000
0000
0000
0100
0000
1000
0000
0100
0000
0100
1000
,
0010
0001
0100
1000
0010
0001
1100
0000
1001
0010
1100
0000
1001
0000
1010
0000
,
1001
0000
1010
0001
0110
0000
0000
0000
0101
0000
0110
0000
1100
0000
1010
0000
,
0110
0011
0110
1100
1100
0110
1010
1001
,
1001
0010
0101
1000
0001
1010
0001
1000
,
0100
0000
0000
0000
0000
0000
0000
0000
0000
0000
0000
0000
0000
0000
0000
0000
0000
0000
0000
0000
0000
0000
0000
0000
0001
0000
0000
0000
0000
0000
0000
0000
0000
0000
0000
0000
0001
0000
0000
0000
0000
0000
0000
0000
0000
0000
0000
0000
0010
0000
0000
0000
0000
0000
0000
0000
0000
0000
0000
0000
0000
0000
0000
0000
0000
0000
0000
0000
0000
0000
0000
0000
0000
0000
0000
0000
0000
0000
0000
0000
0000
0000
0000
0000
0000
0000
0000
0000
0000
0000
0000
0000
0000
0000
0000
0000
1000
0000
0000
0000
0000
0000
0000
0000
0000
0000
0000
0000
0010
0000
0000
0000
0000
0000
0000
0000
0000
0000
0000
0000
0001
0000
0000
0000
0000
0000
0000
0000
0010
0000
0000
0000
0000
0000
0000
0000
0100
0000
0000
0000
0000
0000
0000
0000
1000
0000
0000
0000
0000
0000
0100
0000
0000
0000
0000
0000
0010
0000
0000
0000
0000
0000
0000
0000
0000
0000
0000
0000
0001
0000
0000
0000
0000
0000
0000
0000
0010
0000
0000
0000
0000
0000
0000
0000
0100
0000
0000
0000
0000
0000
0000
0000
,
1000
0100
0010
0000
0001
0010
0100
0000
1000
0100
0010
0000
0001
0010
0100
0000
0010
0000
0001
0000
0010
0000
1000
0000
0100
0000
0010
0000
0001
0000
0000
0000
,
1000
0000
0000
1000
0000
0000
1000
0000
0000
0011
0000
0000
0101
0000
0000
0110
0000
0000
1010
0000
0000
1000
0000
0100
,
1000
0000
0010
0000
0000
0000
1000
0000
0000
0100
0000
0000
1010
0000
0000
0001
0000
0000
0010
0000
0000
0000
0000
0000
0001
0000
0000
0000
0000
0000
0010
0000
0000
0000
0000
0000
0100
0000
0000
0000
0000
0000
0101
0000
0000
0000
0010
0000
,
0001
0000
0100
0000
0000
0000
1000
0000
0000
0100
0000
0000
1010
0000
0000
0001
0000
0000
1002
0000
0000
0000
0000
0000
1000
0000
0000
0000
0000
0000
1000
0000
0000
0000
0000
0000
1000
0000
0100
0000
0010
0000
0100
0000
0000
0000
0000
0000
,
0100
0000
0000
0000
0000
0000
0100
0000
0000
0000
0000
0000
0100
0000
0000
0100
0000
0000
0010
0000
0000
0000
0000
0000
0010
0000
0000
0000
0000
0000
0010
0000
0000
0000
0000
0000
0013
0000
0100
0000
1000
0000
0001
0000
0000
0000
0000
0000
,
0001
0000
0000
0000
0000
0000
0001
0000
0000
0000
0000
0000
0001
0000
0000
0001
0000
0000
0010
0000
0000
0000
0100
0000
0000
0000
1000
0000
0000
0000
1000
0000
0000
0100
0000
0000
0010
0000
0000
0001
0000
0000
0010
0000
0000
0000
0100
0000
,
0000
0000
1000
0000
0000
0000
1000
0000
0000
0100
0000
0000
0010
0000
0000
0001
0000
0000
0010
0000
0000
0000
0100
0000
0000
0000
1000
0000
0000
0000
1000
0000
0000
0100
0000
0000
0010
0000
0000
0001
0000
0000
0110
0000
0000
0001
0100
0000
,
0010
0000
1000
0000
0000
0000
1001
0000
0000
0100
0000
0000
2020
0000
0000
0000
0000
0000
0000
0000
0000
0000
0000
0000
0000
0000
0000
0000
0000
0000
0000
0000
0000
0000
0000
0000
0000
0000
0000
0000
0000
0000
0000
0000
0000
0000
0000
0000
,
0000
0000
0000
0000
,
0000
0000
0000
0000
,
0000
0000
0000
0000
,
0000
0000
0000
0000
0000
3030
0000
0000
;
