#TITLE:WE LUV LAMA;
#SUBTITLE:;
#ARTIST:SHARPNELSOUNDS;
#TITLETRANSLIT:;
#SUBTITLETRANSLIT:;
#ARTISTTRANSLIT:;
#CREDIT:;
#BANNER:../bn.png;
#BACKGROUND:../veyron.png;
#LYRICSPATH:;
#CDTITLE:;
#MUSIC:168 - WE LUV LAMA - SHARPNEL SOUNDS.ogg;
#OFFSET:0.540;
#SAMPLESTART:74.780;
#SAMPLELENGTH:18.380;
#SELECTABLE:YES;
#BPMS:0.000=210.000;
#STOPS:;
#BGCHANGES:;
// cache tags:
#FIRSTBEAT:4.000;
#LASTBEAT:1128.000;
#SONGFILENAME:Songs/Cirque du Veyron/Zaia - WE LUV LAMA/168 - WE LUV LAMA - SHARPNEL SOUNDS.sm;
#HASMUSIC:1;
#HASBANNER:1;
#MUSICLENGTH:326.347;
// end cache tags

//---------------dance-single - Zaia----------------
#NOTES:
     dance-single:
     Zaia:
     Challenge:
     17:
     1.000,1.000,0.113,0.463,1.000,3144.000,37.000,151.000,0.000,2.000:
0000
0000
0000
0000
,
1000
0000
0001
0100
0001
0000
1000
0001
,
0010
0001
1000
0000
0100
0000
0010
0100
,
1000
0000
0001
1000
0001
0000
0000
0000
0100
0000
0000
0000
0001
0000
1000
0000
,
0100
0000
0000
0000
0010
0000
0000
0000
0100
0000
1000
0001
0100
0000
0001
0000
,
1001
0000
1000
0001
0100
0000
0010
1000
,
0100
0010
0001
0000
1000
0000
0001
0010
,
0100
0000
1000
0001
0100
0000
0010
0000
,
1000
0000
0000
0001
0000
0000
0100
0000
0110
0000
0000
0000
0110
0000
0000
0000
,
0010
1000
0010
0000
0100
0000
0001
0100
0001
0100
0001
0000
1000
0000
0100
0010
,
0100
0010
0100
0000
0010
0000
0001
1000
0001
1000
0001
0000
0100
0000
0010
1000
,
0010
1000
0010
0000
0100
0000
0001
0100
0001
0100
0001
0000
1000
0000
0100
0010
,
0100
0010
0100
0000
0010
0000
0001
1000
0001
1000
0001
0000
0100
0000
0001
0010
,
0001
0010
0001
0000
1000
0000
0100
1000
0100
1000
0100
0000
1000
0000
0001
0100
,
0001
0100
0001
0000
1000
0000
0100
0010
0100
0010
0100
0000
1000
0000
0010
0100
,
0010
0100
0010
0000
0100
0000
0001
1000
0001
1000
0001
0000
1000
0000
0001
0010
,
0001
0000
0000
1000
0000
0000
0001
0000
0100
0000
0020
0000
2030
0000
3002
0000
,
1003
0010
1000
0010
1000
0001
1000
0001
1000
0100
1000
0001
1000
0100
0010
0001
,
1000
0010
1000
0010
1000
0001
1000
0001
1000
0100
1000
0001
1000
0100
0010
0001
,
1000
0010
1000
0010
1000
0001
1000
0001
1000
0100
1000
0001
1000
0100
0010
0001
,
1000
0010
1000
0010
1000
0001
1000
0001
1000
0100
1000
0001
1000
0100
0010
0001
,
1000
0100
1000
0100
1000
0001
1000
0001
1000
0010
1000
0001
1000
0010
0100
0001
,
1000
0100
1000
0100
1000
0001
1000
0001
1000
0010
1000
0001
1000
0010
0100
0001
,
1000
0100
1000
0100
1000
0001
1000
0001
1000
0010
1000
0001
1000
0010
0100
0001
,
1000
0100
1000
0100
1000
0001
1000
0001
1000
0010
1000
0001
1000
0010
0100
0001
,
1000
0001
0100
0001
0100
0001
1000
0001
1000
0001
0010
0001
1000
0001
0010
0100
,
1000
0001
0100
0001
0100
0001
1000
0001
1000
0001
0010
0001
1000
0001
0010
0100
,
1000
0001
0100
0001
0100
0001
1000
0001
1000
0001
0010
0001
1000
0001
0010
0100
,
1000
0001
0100
0001
0100
0001
1000
0001
1000
0001
0010
0001
1000
0001
0010
0100
,
1000
0001
0010
0001
0010
0001
1000
0001
1000
0001
0100
0001
1000
0001
0100
0010
,
1000
0001
0010
0001
0010
0001
1000
0001
1000
0001
0100
0001
1000
0001
0100
0010
,
1000
0001
0010
0100
1000
0001
1000
0100
0010
0001
1000
0100
1000
0001
0010
0100
,
1000
0000
0000
1000
0000
0000
1000
0000
1001
0000
0002
0000
0203
0000
0320
0000
,
1030
0001
0010
0010
1000
0001
0010
0010
,
1000
0001
0010
0010
1000
0001
0010
0010
,
1000
0001
0010
0010
1000
0001
0010
0010
,
1000
0001
0010
0010
1000
0001
0010
0001
,
0100
0100
1000
0001
0100
0100
1000
0001
,
0100
0100
1000
0001
0100
0100
1000
0001
,
0100
0100
1000
0001
0100
0100
1000
0001
,
0100
0000
0010
0100
0001
0000
0010
0001
0100
0000
0010
1000
0100
0000
0010
0001
,
1000
0010
0010
0001
1000
0100
0100
0001
,
1000
0010
0010
0001
1000
0100
0100
0001
,
1000
0010
0010
0001
1000
0100
0100
0001
,
1000
0001
0010
0001
1000
0001
0010
0001
,
1000
0001
0100
0100
1000
0001
0010
0010
,
1000
0001
0100
0100
1000
0001
0010
0010
,
1000
0001
0100
0100
1000
0001
0010
0001
,
1001
0000
1000
0010
0101
0100
0001
0100
,
0010
1000
0010
1000
0001
0100
0001
0100
0001
1000
0010
0100
0001
1000
0010
0100
,
0001
1000
0001
1000
0100
0010
0100
0010
0001
1000
0100
0010
0001
1000
0100
0010
,
0001
1000
0010
1000
0010
0100
0001
0100
0001
1000
0010
0100
0001
1000
0010
0100
,
0001
1000
0001
1000
0100
0010
0100
0010
0001
1000
0100
0010
0001
1000
0100
0010
,
0001
1000
0010
1000
0010
0100
0001
0100
0001
1000
0010
0100
0001
1000
0010
0100
,
0001
1000
0001
1000
0100
0010
0100
0010
0001
1000
0100
0010
0001
1000
0100
0010
,
0001
1000
0010
1000
0010
0100
0001
0100
0001
1000
0010
0100
0001
1000
0010
0100
,
0001
1000
0001
1000
0100
0010
0100
0010
0001
1000
0100
0010
0001
1000
0100
0010
,
0001
0010
0001
0010
0100
1000
0100
1000
0001
0100
0010
1000
0001
0100
0010
1000
,
0001
0100
0001
0100
0010
1000
0010
1000
0001
0010
0100
1000
0001
0010
0100
1000
,
0001
1000
0001
1000
0010
0100
0010
0100
0001
1000
0100
0010
0001
1000
0100
0010
,
0001
1000
0001
1000
0100
0010
0100
0010
0001
1000
0010
0100
0001
1000
0010
1000
,
0001
0010
0001
0010
0100
1000
0100
1000
0001
0100
0010
1000
0001
0100
0010
1000
,
0001
0100
0001
0100
0010
1000
0010
1000
0001
0010
0100
1000
0001
0010
0100
1000
,
0001
1000
0001
1000
0010
0100
0010
0100
0001
1000
0100
0010
0001
1000
0100
0010
,
0001
1000
0001
1000
0100
0010
0100
0010
0001
1000
0010
0100
0001
1000
0010
0100
,
0001
0000
0000
0000
,
2000
3000
0000
0000
0000
0000
0000
0000
0000
0000
0000
0000
0000
0000
0000
0000
,
0002
0003
0000
0000
0020
0030
0000
0000
0002
0003
0000
0000
1000
0010
1000
0001
,
2000
3000
0000
0000
0000
0000
0000
0000
0000
0000
0000
0000
0200
0300
0200
0300
,
0200
0300
0000
0000
0000
0000
0000
0000
1000
0010
1000
0001
1000
0010
1000
0001
,
2000
3000
0000
0000
0000
0000
0000
0000
0000
0000
0000
0000
0000
0000
0000
0000
,
0002
0003
0000
0000
0002
0003
0000
0000
0020
0030
0000
0000
0001
0010
0001
1000
,
0002
0003
0000
0000
0000
0000
0000
0000
0000
0000
0000
0000
2000
3000
0020
0030
,
2000
3000
0000
0000
0000
0000
0000
0000
0001
0010
0001
1000
0001
0010
0001
1000
,
0002
0003
0000
0000
0000
0000
0000
0000
0000
0000
0000
0000
0000
0000
0000
0000
,
0200
0300
0000
0000
0020
0030
0000
0000
2000
3000
0000
0000
0001
0010
0001
1000
,
0002
0003
0000
0000
0000
0000
0000
0000
0000
0000
0000
0000
0100
0000
0100
0000
,
0002
0003
0000
0000
0000
0000
0000
0000
1000
0010
1000
0001
1000
0010
1000
0001
,
2000
3000
0000
0000
0000
0000
0000
0000
0000
0000
0000
0000
0000
0000
0000
0000
,
0200
0300
0000
0000
0020
0030
0000
0000
2000
3000
0000
0000
0001
0010
0001
1000
,
0002
0003
0000
0000
0000
0000
0000
0000
0000
0000
0000
0000
0002
0003
2000
3000
,
0002
0003
0000
0000
0000
0000
0000
0000
1000
0010
1000
0001
1000
0010
1000
0001
,
2000
0000
0000
0000
,
0002
0003
0000
0000
0002
0003
0000
0000
0020
0030
0000
0000
3001
0010
0001
1000
,
0002
0000
0000
0000
0000
0000
0000
0000
0000
0000
0000
0000
2003
3000
0020
0030
,
2000
0000
0000
0000
0000
0000
0000
0000
3001
0010
0001
1000
0001
0010
0001
1000
,
0002
0003
0000
0000
0000
0000
0000
0000
0000
0000
0000
0000
0000
0000
0000
0000
,
2000
3000
0000
0000
2000
3000
0000
0000
0020
0030
0000
0000
1000
0010
1000
0001
,
2000
0000
0000
0000
0000
0000
0000
0000
0000
0000
0000
0000
3002
0003
0200
0300
,
0002
0000
0000
0000
0000
0000
0000
0000
1003
0010
1000
0001
1000
0010
1000
0001
,
2000
0000
0000
0000
,
0200
0300
0000
0000
0200
0300
0000
0000
0002
0003
0000
0000
3001
0010
0001
1000
,
0002
0000
0000
0000
0000
0000
0000
0000
0000
0000
0000
0000
0203
0300
0020
0030
,
0200
0000
0000
0000
0000
0000
0000
0000
0301
0010
0001
1000
0001
0010
0001
1000
,
0002
0000
0000
0000
,
0200
0300
0000
0000
0200
0300
0000
0000
2000
3000
0000
0000
1003
0010
1000
0001
,
2000
0000
0000
0000
0000
0000
0000
0000
0000
0000
0000
0000
3002
0003
2000
3000
,
0002
0000
0000
0000
0000
0000
0000
0000
1003
0010
1000
0001
1000
0010
1000
0001
,
2000
0000
0000
0000
,
0000
0000
0000
0000
,
3200
0000
2300
0000
,
3020
0000
0230
0000
,
0302
0000
0000
0000
,
0000
0000
0000
0000
,
2003
0000
0000
0000
,
0000
0000
3200
0320
,
0032
0000
0000
0000
,
0203
0000
0302
0000
,
2003
0000
0000
0000
,
3200
0000
0000
0000
,
0320
0000
0000
0000
,
0032
0003
0000
0000
0002
0003
0000
0000
0020
0030
0000
0000
0001
0010
0001
1000
,
0002
0003
0000
0000
0000
0000
0000
0000
0000
0000
0000
0000
2000
3000
2000
3000
,
0002
0003
0000
0000
0000
0000
0000
0000
1000
0010
1000
0001
1000
0010
1000
0001
,
2000
3000
0000
0000
0000
0000
0000
0000
0000
0000
0000
0000
0002
0003
2000
3000
,
0002
0003
0000
0000
0000
0000
0000
0000
0002
0003
0000
0000
0000
0000
0000
0000
,
0002
0003
0000
0000
0000
0000
0000
0000
0000
0000
0000
0000
0000
0000
0000
0000
,
0000
0000
0000
0000
,
1000
0001
0010
0100
1000
0001
1000
0100
1000
0001
0010
0001
1000
0001
0010
0100
,
0010
0001
1000
0001
1000
0100
0010
0100
1000
0001
0010
0100
1000
0001
1000
0001
,
0100
0010
1000
0010
0100
0001
1000
0010
1000
0001
0010
0100
0010
0001
1000
0001
,
0100
0001
1000
0010
0100
0001
1000
0001
1000
0100
1000
0001
0010
0100
1000
0001
,
0100
0010
1000
0001
1000
0010
0100
0001
1000
0001
0100
0010
1000
0001
0100
0010
,
0100
0010
1000
0001
1000
0010
0100
0001
0100
0010
1000
0001
0100
0001
0100
0010
,
1000
0100
0010
0100
1000
0001
1000
0100
0010
0001
0010
0001
1000
0100
1000
0001
,
0010
0100
1000
0100
0010
0001
1000
0001
0100
0001
1000
0010
1000
0001
0010
0001
,
1000
0010
0100
0001
0100
0010
1000
0001
1000
0010
0100
0001
0100
0010
1000
0001
,
0100
0001
0010
0100
1000
0100
0010
0001
1000
0010
0100
0001
1000
0010
0100
0010
,
1000
0100
0010
0100
1000
0001
0010
0001
1000
0100
0010
0100
1000
0001
1000
0001
,
0100
0001
0100
0010
1000
0010
0100
0001
1000
0010
1000
0001
0100
0001
1000
0010
,
1000
0001
0010
0001
0010
0100
1000
0001
1000
0010
0100
0010
0100
0001
1000
0100
,
1000
0001
0010
0001
0010
0100
1000
0001
0100
0010
1000
0010
1000
0001
0100
0010
,
0100
0001
1000
0001
1000
0100
0010
0001
1000
0100
0010
0100
0010
0001
1000
0001
,
0100
0010
1000
0001
1000
0100
0010
0001
1000
0010
0100
0001
1000
0100
0010
0001
,
1000
0001
0100
0010
1000
0001
1000
0010
1000
0001
0100
0001
1000
0001
0100
0010
,
0100
0001
1000
0001
1000
0010
0100
0010
1000
0001
0100
0010
1000
0001
1000
0001
,
0010
0100
1000
0100
0010
0001
1000
0100
1000
0001
0100
0010
0100
0001
1000
0001
,
0010
0001
1000
0100
0010
0001
1000
0001
1000
0010
1000
0001
0100
0010
1000
0001
,
0010
0100
1000
0001
1000
0100
0010
0001
1000
0001
0010
0100
1000
0001
0010
0100
,
0010
0100
1000
0001
1000
0100
0010
0001
0010
0100
1000
0001
0010
0001
0010
0100
,
1000
0010
0100
0010
1000
0001
1000
0010
0100
0001
0100
0001
1000
0010
1000
0001
,
0100
0010
1000
0010
0100
0001
1000
0001
0010
0001
1000
0100
1000
0001
0100
0001
,
1000
0100
0010
0001
0010
0100
1000
0001
1000
0100
0010
0001
0010
0100
1000
0001
,
0010
0001
0100
0010
1000
0010
0100
0001
1000
0100
0010
0001
1000
0100
0010
0100
,
1000
0010
0100
0010
1000
0001
0100
0001
1000
0010
0100
0010
1000
0001
1000
0001
,
0010
0001
0010
0100
1000
0100
0010
0001
1000
0100
1000
0001
0010
0001
1000
0100
,
1000
0001
0100
0001
0100
0010
1000
0001
1000
0100
0010
0100
0010
0001
1000
0010
,
1000
0001
0100
0001
0100
0010
1000
0001
0010
0100
1000
0100
1000
0001
0010
0100
,
0010
0001
1000
0001
1000
0010
0100
0001
1000
0010
0100
0010
0100
0001
1000
0001
,
0010
0100
1000
0001
0100
0010
0100
0001
1000
0100
0010
0100
1000
0001
0100
0010
,
0100
0001
0010
0100
1000
0001
1000
0100
1000
0001
0010
0001
1000
0001
0010
0100
,
0010
0001
1000
0001
1000
0100
0010
0100
1000
0001
0010
0100
1000
0001
1000
0001
,
0100
0010
1000
0010
0100
0001
1000
0010
1000
0001
0010
0100
0010
0001
1000
0001
,
0100
0001
1000
0010
0100
0001
1000
0001
1000
0100
1000
0001
0010
0100
1000
0001
,
0100
0010
1000
0001
1000
0010
0100
0001
1000
0001
0100
0010
1000
0001
0100
0010
,
0100
0010
1000
0001
1000
0010
0100
0001
0100
0010
1000
0001
0100
0001
0100
0010
,
1000
0100
0010
0100
1000
0001
1000
0100
0010
0001
0010
0001
1000
0100
1000
0001
,
0010
0100
1000
0100
0010
0001
1000
0001
0100
0001
1000
0010
1000
0001
0010
0001
,
1000
0010
0100
0001
0100
0010
1000
0001
1000
0010
0100
0001
0100
0010
1000
0001
,
0100
0001
0010
0100
1000
0100
0010
0001
1000
0010
0100
0001
1000
0010
0100
0010
,
1000
0100
0010
0100
1000
0001
0010
0001
1000
0100
0010
0100
1000
0001
1000
0001
,
0100
0001
0100
0010
1000
0010
0100
0001
1000
0010
1000
0001
0100
0001
1000
0010
,
1000
0001
0010
0001
0010
0100
1000
0001
1000
0010
0100
0010
0100
0001
1000
0100
,
1000
0001
0010
0001
0010
0100
1000
0001
0100
0010
1000
0010
1000
0001
0100
0010
,
0100
0001
1000
0001
1000
0100
0010
0001
1000
0100
0010
0100
0010
0001
1000
0001
,
0100
0010
1000
0001
1000
0100
0010
0001
1000
0010
0100
0001
1000
0100
0010
0001
,
1000
0001
0100
0010
1000
0001
1000
0010
1000
0001
0100
0001
1000
0001
0100
0010
,
0100
0001
1000
0001
1000
0010
0100
0010
1000
0001
0100
0010
1000
0001
1000
0001
,
0010
0100
1000
0100
0010
0001
1000
0100
1000
0001
0100
0010
0100
0001
1000
0001
,
0010
0001
1000
0100
0010
0001
1000
0001
1000
0010
1000
0001
0100
0010
1000
0001
,
0010
0100
1000
0001
1000
0100
0010
0001
1000
0001
0010
0100
1000
0001
0010
0100
,
0010
0100
1000
0001
1000
0100
0010
0001
0010
0100
1000
0001
0010
0001
0010
0100
,
1000
0010
0100
0010
1000
0001
1000
0010
0100
0001
0100
0001
1000
0010
1000
0001
,
0100
0010
1000
0010
0100
0001
1000
0001
0010
0001
1000
0100
1000
0001
0100
0001
,
1000
0010
0100
0001
1000
0010
0100
0001
1000
0100
0010
0001
1000
0100
0010
0001
,
1000
0010
0100
0001
1000
0010
0100
0001
1000
0100
0010
0001
1000
0100
0010
0001
,
1000
0010
0100
0001
0100
0010
1000
0001
1000
0100
0010
0001
1000
0001
0010
0100
,
1000
0001
0100
0010
1000
0010
0100
0001
1000
0100
1000
0001
0010
0100
1000
0001
,
0020
0030
0000
0000
0000
0000
0000
0000
0000
0000
0000
0000
0200
0300
0000
0000
0000
0000
0000
0000
0000
0000
0000
0000
2000
3000
0000
0000
0000
0000
0000
0000
0002
0003
0000
0000
0000
0000
0000
0000
0000
0000
0000
0000
0200
0300
0000
0000
0000
0000
0000
0000
0000
0000
0000
0000
0020
0030
0000
0000
0000
0000
0000
0000
,
0200
0300
0000
0000
0000
0000
0000
0000
0000
0000
0000
0000
0002
0003
0000
0000
0000
0000
0000
0000
0000
0000
0000
0000
0020
0030
0000
0000
0000
0000
0000
0000
0200
0300
0000
0000
0000
0000
0000
0000
0000
0000
0000
0000
0020
0030
0000
0000
0000
0000
0000
0000
0000
0000
0000
0000
0002
0003
0000
0000
0000
0000
0000
0000
,
2000
0000
0000
0000
3000
0000
0000
0000
0000
0000
0000
0000
0000
0000
0000
0000
0000
0000
0000
0000
0000
0000
0000
0000
0000
0000
0000
0000
0000
0000
0000
0000
0000
0000
0000
0000
0020
0000
0000
0000
0030
0000
0000
0000
0000
0000
0000
0000
0000
0000
0000
0000
0000
0000
0000
0000
0000
0000
0000
0000
0000
0000
0000
0000
0000
0000
0000
0000
0000
0000
0000
0000
0200
0000
0000
0000
0000
0000
0300
0000
0000
0000
0000
0000
0000
0000
0000
0000
0000
0000
0000
0000
0000
0000
0000
0000
0002
0000
0000
0000
0000
0000
0003
0000
0000
0000
0000
0000
0000
0000
0000
0000
0000
0000
0000
0000
0000
0000
0000
0000
0000
0000
0000
0000
0000
0000
0000
0000
0000
0000
0000
0000
2000
0000
0000
0000
0000
0000
0000
0000
3000
0000
0000
0000
0000
0000
0000
0000
0000
0000
0000
0000
0000
0000
0000
0000
0000
0000
0000
0000
0000
0000
0000
0000
0000
0000
0000
0000
0200
0000
0000
0000
0000
0000
0000
0000
0300
0000
0000
0000
0000
0000
0000
0000
0000
0000
0000
0000
0000
0000
0000
0000
,
0020
0000
0000
0030
0000
0000
0000
0000
0000
0200
0000
0000
0300
0000
0000
0000
0000
0000
2000
0000
0000
0000
3000
0000
0020
0000
0000
0000
0030
0000
0000
0000
0000
0200
0000
0000
0000
0000
0000
0300
0000
0000
0002
0000
0000
0000
0000
0000
,
1003
0010
1000
0001
1000
0000
0100
0000
0010
0001
1000
0001
0010
0000
0001
1000
,
0010
0100
0010
1000
0001
0000
1000
0000
0100
1000
0001
1000
0100
0000
0010
0001
,
1000
0001
0100
0010
1000
0000
0001
0000
0010
0100
0010
0001
0010
0000
0100
1000
,
0001
1000
0010
1000
0001
0000
0100
0000
0010
1000
0010
0100
0001
0000
2000
0000
,
3001
0010
0001
1000
0001
0000
0100
0000
0010
1000
0001
1000
0010
0000
1000
0001
,
0010
0100
0010
0001
1000
0000
0001
0000
0100
0001
1000
0001
0100
0000
0010
1000
,
0001
1000
0100
0010
0001
0000
1000
0000
0010
0100
0010
1000
0010
0000
0100
0001
,
1000
0001
0010
0001
1000
0000
0100
0000
0010
0001
0010
0100
1000
0000
0020
0000
,
0130
0000
0001
0100
0001
0000
1000
0010
,
1000
0100
1000
0000
1001
0000
0001
0100
,
0010
0000
1000
0001
1000
0000
0000
0000
1100
0000
0000
0000
0010
0000
0001
0000
,
0010
0000
0001
2000
3020
0230
0320
0230
,
1301
0000
1000
0010
1000
0000
0001
1000
,
0100
0010
0001
0000
1100
0000
0100
1000
,
0010
0000
0100
0001
0010
0000
0100
0000
,
1000
0000
0000
0001
0000
0000
1000
0000
1001
0000
0000
0000
1001
0000
0000
0000
,
0001
0100
0001
0100
0010
1000
0010
1000
0001
0100
0010
1000
0001
0100
0010
1000
,
0001
0010
0001
0010
0100
1000
0100
1000
0001
0010
0100
1000
0001
0010
0100
1000
,
0001
1000
0001
1000
0001
0100
0010
0100
0010
1000
0001
0100
0010
1000
0001
0100
,
0010
1000
0001
1000
0001
0010
0100
0010
0100
1000
0100
0010
0001
1000
0100
0010
,
0001
0010
0001
0010
0100
1000
0100
1000
0001
0010
0100
1000
0001
0010
0100
1000
,
0001
0100
0001
0100
0010
1000
0010
1000
0001
0100
0010
1000
0001
0100
0010
1000
,
0001
1000
0001
1000
0001
0010
0100
0010
0100
1000
0001
0010
0100
1000
0001
0010
,
0100
1000
0001
1000
0001
0100
0010
0100
0010
1000
0010
0100
0001
1000
0010
0100
,
0001
1000
0010
0100
0001
1000
0010
0100
0001
0100
0010
1000
0001
0100
0010
1000
,
0001
0010
0100
0010
0001
1000
0001
1000
0100
0010
0001
1000
0001
0010
0100
1000
,
0001
0100
0010
0100
0001
1000
0010
1000
0001
0100
0001
1000
0010
0100
0001
1000
,
0001
0010
0001
1000
0100
0010
0100
1000
0001
0010
0100
1000
0001
0010
0001
1000
,
0001
0100
0010
0100
0001
1000
0010
0100
0001
0100
0010
1000
0001
0100
0010
1000
,
0001
0010
0100
0010
0001
1000
0001
1000
0100
0010
0001
1000
0001
0010
0100
1000
,
0001
0100
0010
0100
0001
1000
0010
1000
0001
0100
0001
1000
0010
0100
0001
1000
,
0001
0010
0001
1000
0100
0010
0100
1000
0001
0010
0100
1000
0001
0010
0001
1000
,
0001
0010
0001
1000
0001
0010
0001
0100
,
0010
1000
0010
0100
0001
1000
0010
1000
,
0001
0010
0100
0010
0001
1000
0100
0010
,
0001
0000
0100
0000
0010
0000
1000
0000
0010
0000
0100
0001
1000
0000
0001
0000
,
0010
0001
0100
0001
0010
0001
1000
0001
,
1000
0100
1000
0010
1000
0100
1000
0001
,
1000
0010
0100
0010
1000
0100
0010
0100
,
1000
0000
0001
0100
0001
0000
1000
0100
1000
0000
0001
0010
0001
0000
1000
0001
,
1000
0010
1000
0100
1000
0001
0010
0100
,
1000
0010
1000
0100
0010
0001
0100
0010
,
1000
0001
0100
0010
0100
0001
1000
0100
,
0010
0000
0100
0000
1000
0000
0001
0000
1000
0000
0010
0100
0001
0000
1000
0000
,
0001
0010
0001
1000
0001
0010
0001
1000
,
0001
0100
0010
0100
0001
0100
0010
0100
,
0001
0010
0001
1000
0001
0010
0001
1000
,
0001
0000
1000
0100
1000
0000
0001
0100
0001
0000
1000
0010
1000
0000
0001
1000
,
0001
0100
0001
1000
0001
0100
0001
0010
,
0100
1000
0100
0010
0001
1000
0100
1000
,
0001
0100
0010
0100
0001
1000
0010
0100
,
0001
0000
0010
0000
0100
0000
1000
0000
0100
0000
0010
0001
1000
0000
0001
0000
,
0100
0001
0010
0001
0100
0001
1000
0001
,
1000
0010
1000
0100
1000
0010
1000
0001
,
1000
0100
0010
0100
1000
0010
0100
0010
,
1000
0000
0001
0010
0001
0000
1000
0010
1000
0000
0001
0100
0001
0000
1000
0001
,
1000
0100
1000
0010
1000
0001
0100
0010
,
1000
0100
1000
0010
0100
0001
0010
0100
,
1000
0001
0010
0100
0010
0001
1000
0010
,
0100
0000
0010
0000
1000
0000
0001
0000
1000
0000
0100
0010
0001
0000
1000
0000
,
0001
0100
0001
1000
0001
0100
0001
1000
,
0001
0010
0100
0010
0001
0010
0100
0010
,
0001
1000
0010
0100
0001
0100
0010
1000
0001
1000
0010
0100
0001
0100
0001
1000
,
0001
0000
1000
0010
1000
0000
0001
0010
0001
0000
1000
0010
1000
0000
0001
0000
,
1000
0001
0100
0010
1000
0001
1000
0010
1000
0001
0100
0001
1000
0001
0100
0010
,
0100
0001
1000
0001
1000
0010
0100
0010
1000
0001
0100
0010
1000
0001
1000
0001
,
0010
0100
1000
0100
0010
0001
1000
0100
1000
0001
0100
0010
0100
0001
1000
0001
,
0010
0001
1000
0100
0010
0001
1000
0001
1000
0010
1000
0001
0100
0010
1000
0001
,
0010
0100
1000
0001
1000
0100
0010
0001
1000
0001
0010
0100
1000
0001
0010
0100
,
0010
0100
1000
0001
1000
0100
0010
0001
0010
0100
1000
0001
0010
0001
0010
0100
,
1000
0010
0100
0010
1000
0001
1000
0010
0100
0001
0100
0001
1000
0010
1000
0001
,
0100
0010
1000
0010
0100
0001
1000
0001
0010
0001
1000
0100
1000
0001
0100
0001
,
1000
0100
0010
0001
0010
0100
1000
0001
1000
0100
0010
0001
0010
0100
1000
0001
,
0010
0001
0100
0010
1000
0010
0100
0001
1000
0100
0010
0001
1000
0100
0010
0100
,
1000
0010
0100
0010
1000
0001
0100
0001
1000
0010
0100
0010
1000
0001
1000
0001
,
0010
0001
0010
0100
1000
0100
0010
0001
1000
0100
1000
0001
0010
0001
1000
0100
,
1000
0001
0100
0001
0100
0010
1000
0001
1000
0100
0010
0100
0010
0001
1000
0010
,
1000
0001
0100
0001
0100
0010
1000
0001
0010
0100
1000
0100
1000
0001
0010
0100
,
0010
0001
1000
0001
1000
0010
0100
0001
1000
0010
0100
0010
0100
0001
1000
0001
,
0010
0100
1000
0001
0100
0010
0100
0001
1000
0100
0010
0100
1000
0001
0100
0010
,
0100
0001
0010
0100
1000
0001
1000
0100
1000
0001
0010
0001
1000
0001
0010
0100
,
0010
0001
1000
0001
1000
0100
0010
0100
1000
0001
0010
0100
1000
0001
1000
0001
,
0100
0010
1000
0010
0100
0001
1000
0010
1000
0001
0010
0100
0010
0001
1000
0001
,
0100
0001
1000
0010
0100
0001
1000
0001
1000
0100
1000
0001
0010
0100
1000
0001
,
0100
0010
1000
0001
1000
0010
0100
0001
1000
0001
0100
0010
1000
0001
0100
0010
,
0100
0010
1000
0001
1000
0010
0100
0001
0100
0010
1000
0001
0100
0001
0100
0010
,
1000
0100
0010
0100
1000
0001
1000
0100
0010
0001
0010
0001
1000
0100
1000
0001
,
0010
0100
1000
0100
0010
0001
1000
0001
0100
0001
1000
0010
1000
0001
0010
0001
,
1000
0010
0100
0001
0100
0010
1000
0001
1000
0010
0100
0001
0100
0010
1000
0001
,
0100
0001
0010
0100
1000
0100
0010
0001
1000
0010
0100
0001
1000
0010
0100
0010
,
1000
0100
0010
0100
1000
0001
0010
0001
1000
0100
0010
0100
1000
0001
1000
0001
,
0100
0001
0100
0010
1000
0010
0100
0001
1000
0010
1000
0001
0100
0001
1000
0010
,
0200
0300
0000
0000
0000
0000
0000
0000
0000
0000
0000
0000
0020
0030
0000
0000
0000
0000
0000
0000
0000
0000
0000
0000
2000
3000
0000
0000
0000
0000
0000
0000
0002
0003
0000
0000
0000
0000
0000
0000
0000
0000
0000
0000
0020
0030
0000
0000
0000
0000
0000
0000
0000
0000
0000
0000
0200
0300
0000
0000
0000
0000
0000
0000
,
0020
0030
0000
0000
0000
0000
0000
0000
0000
0000
0000
0000
0002
0003
0000
0000
0000
0000
0000
0000
0000
0000
0000
0000
0200
0300
0000
0000
0000
0000
0000
0000
0020
0030
0000
0000
0000
0000
0000
0000
0000
0000
0000
0000
0200
0300
0000
0000
0000
0000
0000
0000
0000
0000
0000
0000
0002
0003
0000
0000
0000
0000
0000
0000
,
2000
0000
0000
0000
3000
0000
0000
0000
0000
0000
0000
0000
0000
0000
0000
0000
0000
0000
0000
0000
0000
0000
0000
0000
0000
0000
0000
0000
0000
0000
0000
0000
0000
0000
0000
0000
0200
0000
0000
0000
0300
0000
0000
0000
0000
0000
0000
0000
0000
0000
0000
0000
0000
0000
0000
0000
0000
0000
0000
0000
0000
0000
0000
0000
0000
0000
0000
0000
0000
0000
0000
0000
0020
0000
0000
0000
0000
0000
0030
0000
0000
0000
0000
0000
0000
0000
0000
0000
0000
0000
0000
0000
0000
0000
0000
0000
0002
0000
0000
0000
0000
0000
0003
0000
0000
0000
0000
0000
0000
0000
0000
0000
0000
0000
0000
0000
0000
0000
0000
0000
0000
0000
0000
0000
0000
0000
0000
0000
0000
0000
0000
0000
2000
0000
0000
0000
0000
0000
0000
0000
3000
0000
0000
0000
0000
0000
0000
0000
0000
0000
0000
0000
0000
0000
0000
0000
0000
0000
0000
0000
0000
0000
0000
0000
0000
0000
0000
0000
0020
0000
0000
0000
0000
0000
0000
0000
0030
0000
0000
0000
0000
0000
0000
0000
0000
0000
0000
0000
0000
0000
0000
0000
,
0200
0000
0000
0300
0000
0000
0000
0000
0000
0020
0000
0000
0030
0000
0000
0000
0000
0000
2000
0000
0000
0000
3000
0000
0200
0000
0000
0000
0300
0000
0000
0000
0000
0020
0000
0000
0000
0000
0000
0030
0000
0000
0002
0000
0000
0000
0000
0000
,
1013
0000
0000
0110
0000
0000
0101
0000
1001
0000
0000
1100
0000
0000
0011
0000
,
0110
0000
0000
1001
0000
0000
0101
0000
0110
0000
0000
1010
0000
0000
1100
0000
,
0011
0000
0000
1100
0000
0000
0110
0000
1001
0000
0000
0101
0000
0000
1010
0000
,
1001
0000
0000
1100
0000
0000
0110
0000
0011
0000
0000
1001
0000
0000
0101
0000
,
0110
0000
0000
0000
;
