#TITLE:I'm Alive;
#SUBTITLE:;
#ARTIST:Luca Turilli;
#TITLETRANSLIT:;
#SUBTITLETRANSLIT:;
#ARTISTTRANSLIT:;
#CREDIT:;
#BANNER:(cerdo_claro)I'm Alive-bn.JPG;
#BACKGROUND:(cerdo_claro)I'm Alive-bg.jpg;
#LYRICSPATH:;
#CDTITLE:cdtitle.png;
#MUSIC:(cerdo_claro)I'm Alive.mp3;
#OFFSET:-0.778;
#SAMPLESTART:32.893;
#SAMPLELENGTH:11.980;
#SELECTABLE:YES;
#BPMS:0.000=155.000;
#STOPS:;
#BGCHANGES:;
// cache tags:
#FIRSTBEAT:0.000;
#LASTBEAT:555.000;
#SONGFILENAME:Songs/toune 2/(cerdo_claro)I'm Alive/(cerdo_claro)I'm Alive.sm;
#HASMUSIC:1;
#HASBANNER:1;
#MUSICLENGTH:223.302;
// end cache tags

//---------------dance-single - Blank----------------
#NOTES:
     dance-single:
     Blank:
     Hard:
     11:
     1.000,1.000,1.000,0.264,0.934,1345.000,240.000,59.000,0.000,7.000:





1000
0010
0100
0001
,
0100
0010
1000
0000
0001
0000
0100
0000
,
0010
1000
0001
0100
,
0010
1000
0001
0000
0100
0000
0022
0033
,
1000
0100
0001
0100
1000
0100
0001
0100
,
1000
0100
0001
0100
1000
0100
0001
0100
,
1000
0100
0001
0100
1000
0100
0001
0100
,
1000
0100
0001
0100
1000
0100
1100
1100
,
0001
0010
1000
0010
0001
0010
1000
0010
,
0001
0010
1000
0010
0001
0010
1000
0010
,
0001
0010
1000
0010
0001
0010
1000
0010
,
0001
0010
1000
0010
0001
0100
1010
1000
,
0100
0001
0100
1000
0100
0001
0100
1000
,
0100
0001
0100
1000
0001
0101
0101
0000
,
0000
0000
0000
1001
,
0000
0000
0000
0000
0000
1001
2001
0001
,
0010
0100
0010
0001
0100
0001
0010
0100
,
0010
0001
0100
0001
0010
3100
0102
1000
,
0100
0010
0100
1000
0100
1003
0220
0000
,
0000
0000
0330
0000
0100
0010
0100
0010
0100
0010
0100
0010
0100
0000
0010
0000
,
1000
0011
0011
1000
0010
0100
0011
0100
,
1100
0000
0011
0000
1100
0000
0001
1000
0000
1000
0001
0000
0101
0000
0100
0000
,
1010
0100
0011
1000
0110
1000
0011
0010
,
0110
0000
0100
0000
1001
0000
1000
0001
0000
0001
1000
0000
0011
0000
0001
0000
,
0011
0010
0110
0100
1100
1000
1100
0100
,
0110
0001
1001
1000
1001
0010
0200
0001
,
1000
0010
0311
0001
1100
0010
0110
0001
,
1001
0000
1000
0000
1001
0000
0001
1000
0000
1000
0001
0000
0101
0000
0010
0000
,
1000
0100
0011
0001
1001
0100
0110
1000
,
1001
0001
0101
0100
1010
0100
0101
0001
,
1001
1000
1001
0010
0101
0001
2000
0000
,
0000
0000
0000
0000
0000
0000
0001
0000
0000
0000
3011
0000
0001
0100
0001
0010
,
0001
1000
0001
0010
0001
1000
0001
0100
0001
0010
0001
1000
0001
0100
0001
0010
,
0001
1000
0001
0100
0010
1000
0011
0000
0000
0000
1001
0000
1000
0010
1000
0001
,
1000
0100
1000
0010
1000
0100
1000
0001
1000
0001
1000
0010
0002
0000
0000
0000
,
2003
0000
3002
0000
0203
0000
0320
0000
0032
0000
2003
0000
3001
0010
0100
1000
,
0100
0010
0001
1000
0010
0100
0001
0010
0100
0010
0001
1000
0001
1000
0010
0100
,
0010
0100
0001
0020
0031
1000
0011
0000
0000
0000
0011
0000
1000
0010
0100
0001
,
0010
0100
1000
0001
1000
0001
0100
0010
0100
0001
0010
0100
0001
1000
0001
1000
,
0001
1000
1000
0001
1000
0001
1000
0001
1000
0001
1000
0000
1000
0001
0100
0010
,
1100
0001
0100
0010
0101
1000
0010
0100
1010
0100
0001
1000
0011
0000
1000
0000
,
0010
1001
1001
0010
0001
1100
0011
0100
,
0011
0000
1000
0000
0110
0000
0001
1000
0000
1000
0001
0000
1000
0000
0011
0000
,
0010
1100
1100
0001
1000
0110
0011
1100
,
0011
0000
0110
0000
0011
0000
0010
0100
0000
0100
0010
0000
1000
0000
0011
0000
,
0101
1000
0011
0001
0101
1000
1002
0010
,
1000
0010
0100
1000
0013
1000
0011
0001
,
0101
0100
1001
0010
1010
0001
1010
0001
,
0101
1000
1001
0010
1000
0010
2001
0010
,
0001
0010
0001
0100
0001
0010
3001
1000
,
0010
0101
1010
1001
1000
0010
0011
1000
,
1001
0001
1001
1000
1001
0100
0002
0000
,
0000
0000
0000
0000
0000
0000
0010
0000
0000
0000
1013
0000
1000
0010
1000
0100
,
1000
0001
1000
0100
1000
0001
1000
0010
1000
0100
1000
0001
1000
0010
1000
0100
,
1000
0001
1000
0010
0100
0001
1100
0000
0000
0000
1001
0000
0001
0100
0001
1000
,
0001
0010
0001
0100
0001
0010
0001
1000
0001
1000
0001
0100
2000
0000
0000
0000
,
3002
0000
2003
0000
3020
0000
0230
0000
2300
0000
3002
0000
1003
0100
0010
0001
,
0010
0100
1000
0001
0100
0010
1000
0100
0010
0100
1000
0001
1000
0001
0100
0010
,
0100
0010
1000
0200
1300
0001
1100
0000
0000
0000
1100
0000
0001
0100
0010
1000
,
0100
0010
0001
1000
0001
1000
0010
0100
0010
1000
0100
0010
1000
0001
1000
0001
,
1000
0001
0001
1000
0001
1000
0001
1000
0001
1000
0001
0000
0011
1000
0010
0100
,
0011
1000
0010
0100
1010
0001
0100
0010
0101
0010
1000
0001
1100
0000
0000
0000
,
0002
2003
3010
0000
0100
0000
0001
0000
,
2000
3020
0130
0000
1100
0000
0001
0000
,
0002
0203
0310
0000
0011
0000
1010
0000
,
0101
0000
0000
0000
0110
0000
0000
0000
1001
0000
0000
0000
0001
1000
0001
0000
,
0100
0010
0100
0000
1000
0010
1000
0000
0001
0100
0010
0000
1000
0010
0100
0000
,
0001
1000
0010
0000
1000
0001
0010
0000
0001
0100
0001
0000
1000
0010
1000
0000
,
0001
0010
0100
0000
1000
0010
0100
0000
0001
1000
0100
0000
1002
0000
1000
0000
,
1000
0000
1000
0000
1000
0000
1000
0000
1000
0000
0103
0000
1000
0010
0100
0000
,
0001
0010
0001
0000
1000
0001
1000
0000
0010
0100
0001
0000
1000
0010
0100
0000
,
0001
1000
0001
0000
1000
0010
0100
0000
0001
1000
0001
0000
1000
0001
0100
0000
,
0001
1000
0001
0000
1000
0010
0100
0000
0001
0100
0010
0000
0001
1000
0010
0000
,
1000
0010
0100
0000
0001
0100
0010
0000
1000
0010
0100
0000
1000
0100
0010
0001
,
1000
0100
0010
0001
0100
0010
1000
0001
0010
0100
1000
0010
0100
0001
0010
0100
,
1000
0010
1000
0010
0101
0000
1010
0000
0101
0000
0110
0000
0001
0010
0100
1000
,
0001
0010
0100
1000
0010
0100
0001
1000
0100
0010
0001
0100
0010
1000
0100
0010
,
0001
0100
1000
0010
0101
0000
1010
0000
1001
0000
0110
0000
1000
0100
0010
0001
,
1000
0100
0010
0001
0100
0010
1000
0001
0010
0100
1000
0010
0100
0001
1000
0010
,
0100
0001
1000
0010
0101
0000
1010
0000
1001
0000
0110
0000
0001
0010
0100
1000
,
0001
0010
0100
1000
0010
0100
0001
1000
0100
0010
0001
1000
0100
0010
0001
0100
,
0010
0001
1000
0010
0101
0000
1010
0000
1001
0000
0000
0000
2000
0000
0000
0000
,
0000
0000
0000
3000
0011
0000
0000
1001
0000
0000
1001
0000
0102
0000
0000
0000
,
0000
0000
0003
0000
1010
0000
0000
1001
0000
0000
1001
0000
0201
0000
0000
0000
,
0000
0000
0000
0300
0011
0000
0000
1001
0000
0000
1001
0000
0120
0000
0000
0000
,
0000
0000
0000
0030
1100
0000
0000
0101
0000
0000
1001
0000
2010
0000
0000
0000
,
0000
0000
0000
3000
0101
0000
0000
1001
0000
0000
1001
0000
0210
0000
0000
0000
,
0000
0000
0000
0300
1010
0000
0000
1001
0000
0000
0101
0000
1002
0000
0000
0000
,
0000
0000
0000
0003
1001
0000
0000
1010
0000
0000
0101
0000
0201
0000
0000
0000
,
0000
0000
0000
0300
0011
0000
0000
1001
0000
0000
1010
0000
0001
0010
0100
1000
,
0001
0010
0100
1000
0010
0100
0001
0100
0010
1000
0100
0010
0001
1000
0100
0010
,
0001
0010
0100
0010
0001
1000
0100
0010
0100
1000
0001
0010
0100
1000
0001
0010
,
0100
1000
0010
0100
0001
1000
0100
0010
0001
1000
0100
0010
0001
0100
0010
1000
,
0001
0010
0100
1000
0100
0010
0100
1000
0100
0010
0001
0010
0100
0010
0001
0100
,
0010
1000
0100
0010
0001
0010
0100
1000
0010
0100
0001
0010
0001
0010
0100
0010
,
0100
1000
0100
1000
0010
0100
0001
0010
0100
1000
0010
0100
0001
0100
0001
1000
,
0001
0100
0010
1000
0100
0010
0001
0100
0010
1000
0010
0100
0001
1000
0001
1000
,
0001
0000
0000
0000
0012
0000
0000
0000
1000
0000
0000
0000
1003
0010
0100
0001
,
1000
0010
0100
0001
1000
0010
0100
0001
1000
0001
1000
0100
0010
0001
1000
0100
,
0010
0001
0100
0010
1000
0001
0010
0100
1000
0001
1000
0001
2100
0000
0000
0000
,
0000
0000
3012
0000
0000
0000
2013
0010
,
0010
0000
0010
0000
0010
0000
0010
0000
0010
0000
3010
0000
0011
0000
0000
1010
,
0000
0000
1001
0000
1001
0000
0000
0101
0000
0000
1010
0000
1001
0000
0000
0011
,
0000
0000
1001
0000
1001
0000
0000
0000
0000
0000
0000
0000
0101
0000
0000
1100
,
0000
0000
0101
0000
0101
0000
0000
0000
1001
0000
1001
0000
1001
0000
0000
1010
,
0000
0000
1001
0000
1001
0000
0000
0000
0101
0000
0000
0000
1001
0000
0000
1001
,
0000
0000
1010
0000
1010
0000
0000
0101
0000
0000
1001
0000
1001
0000
0000
0101
,
0000
0011
1001
0000
0000
0000
0101
0000
,
1001
0000
0000
0000
0000
0000
0001
0010
0100
2000
0000
0000
0000
0000
0000
3000
0000
0000
1001
0000
0000
0000
0000
0000
,
0101
0000
0000
0000
0000
1000
0100
0010
0001
0000
0000
0000
0000
0000
0000
0000
0000
0000
0011
0000
0000
0000
0000
0000
,
0110
0000
0000
0000
1001
0000
0000
0000
1001
0000
0000
0000
0000
0000
0000
0000
0000
0000
0000
0000
0000
0000
1000
0100
0010
0000
0000
0000
0000
0000
0001
0010
,
0100
0000
0000
0000
0000
0000
1000
0100
0010
0000
0000
0000
0000
0000
0010
0100
1000
0000
0000
0000
0000
0000
0000
0000
0020
0000
0000
0000
0000
0000
0000
0000
,
0000
0000
0000
0000
0000
0030
0011
0010
,
0110
0100
1100
1000
1001
0100
0110
0001
,
1001
0100
1010
0100
0011
0010
0101
0010
,
1100
0001
1001
1000
0110
0001
0101
0001
,
0011
0000
0100
0000
1001
0000
0001
1000
0000
1000
0001
0000
1010
0000
0010
0000
,
0100
0001
1001
1000
1001
0001
1001
0010
,
0110
0100
0101
0012
0000
0000
0100
0000
,
1103
0011
0110
2000
,
0000
0000
0000
0000
0000
0000
0001
0000
0000
0000
3110
0000
0001
0100
0001
0010
,
0001
1000
0001
0010
0001
1000
0001
0100
0001
0010
0001
1000
0001
0100
0001
0010
,
0001
1000
0001
0100
0010
1000
0011
0000
0000
0000
1001
0000
1000
0010
1000
0001
,
1000
0100
1000
0010
1000
0100
1000
0001
1000
0001
1000
0010
0002
0000
0000
0000
,
2003
0000
3002
0000
0203
0000
0320
0000
0032
0000
2003
0000
3001
0010
0100
1000
,
0100
0010
0001
1000
0010
0100
0001
0010
0100
0010
0001
1000
0001
1000
0010
0100
,
0010
0100
0001
0020
0031
1000
0011
0000
0000
0000
0011
0000
1000
0010
0100
0001
,
0010
0100
1000
0001
1000
0001
0100
0010
0100
0001
0010
0100
0001
1000
0001
1000
,
0001
1000
0001
1000
0001
0000
2000
0000
0000
0000
0001
0000
3001
0010
0100
1000
,
0001
0010
0001
1000
0001
1000
0001
0010
0100
1000
0001
0100
0010
1000
0001
1000
,
0001
0100
0010
1000
0001
0100
0011
0000
0000
0000
1001
0000
1000
0100
0010
0001
,
0100
0010
1000
0100
1000
0001
0010
0100
1000
0010
0100
0001
0010
0100
1000
0001
,
1000
0010
0100
0001
1000
0100
0011
0000
0000
0000
1001
0000
0001
0010
0100
1000
,
0010
0100
0001
1000
0001
1000
0001
0100
0010
1000
0001
1000
0001
0100
0010
0100
,
0001
0010
0100
1000
0010
0100
0011
0000
0000
0000
1001
0000
1000
0010
0100
0001
,
0010
0100
1000
0010
0100
0001
1000
0010
0100
0001
1000
0000
0101
0000
1000
0001
,
1000
0001
1000
0001
1000
0001
1000
0001
1000
0000
0110
0000
0100
0010
0100
0010
,
0100
0010
0100
0010
0100
0010
0100
0010
0100
0000
0110
0000
0001
1000
0001
1000
,
0001
1000
0001
1000
0001
1000
0110
0000
0000
0000
0011
0000
1001
0000
0000
0000
;

//---------------dance-single - HEAVY----------------
#NOTES:
     dance-single:
     HEAVY:
     Challenge:
     13:
     1.000,1.000,1.000,0.273,1.000,1462.000,290.000,61.000,0.000,8.000:


1000
0010
0100
0001
,
0100
0010
1000
0000
0001
0000
0100
0000
,
0010
1000
0001
0100
,
0010
1000
0001
0000
0100
0000
0012
0000
,
1000
0100
1000
0010
1000
0100
1000
0010
,
1000
0100
1000
0010
1000
0100
1000
0010
,
1000
0100
1000
0010
1000
0100
1000
0010
,
1000
0100
1000
0010
1000
0103
0110
2100
,
0001
0010
0100
0010
0001
0010
0100
0010
,
0001
0010
0100
0010
0001
0010
0100
0010
,
0001
0010
0100
0010
0001
0010
0100
0010
,
0001
0010
0100
0010
3001
0100
1020
1000
,
0100
0001
0100
1000
0100
0001
0100
1000
,
0100
0001
0100
1000
0031
0101
0101
0000
,
0000
0000
0000
1001
,
0000
0000
0000
0000
0000
1001
2001
0001
,
0010
0100
0010
0001
0100
0001
0010
0100
,
0010
0001
0100
0001
0010
3100
0102
1000
,
0100
0010
0100
1000
0100
1003
0220
0000
,
0000
0000
0330
0000
1100
0011
1100
0011
1100
0011
1100
0011
1100
0000
0010
0000
,
1000
0011
0011
1000
0010
0100
0011
0100
,
1100
0000
0011
0000
1100
0000
0001
1000
0000
1000
0001
0000
0101
0000
0100
0000
,
1010
0100
0011
1000
0110
1000
0011
0010
,
0110
0000
0100
0000
1001
0000
1000
0001
0000
0001
1000
0000
0011
0000
0001
0000
,
0011
0010
0110
0100
1100
1000
1100
0100
,
0110
0001
1001
1000
1001
0010
0200
0001
,
1000
0010
0311
0001
1100
0010
0110
0001
,
1001
0000
1000
0000
1001
0000
0001
1000
0000
1000
0001
0000
0101
0000
0010
0000
,
1000
0100
0011
0001
1001
0100
0110
1000
,
1001
0001
0101
0100
1010
0100
0101
0001
,
1001
1000
1001
0010
0101
0001
2000
0000
,
0000
0000
0000
0000
0000
0000
0001
0000
0000
0000
3011
0000
0001
0100
0001
0010
,
0001
1000
0001
0010
0001
1000
0001
0100
0001
0010
0001
1000
0001
0100
0001
0010
,
0001
1000
0001
0100
0010
1000
0011
0000
0000
0000
1001
0000
1000
0010
1000
0001
,
1000
0100
1000
0010
1000
0100
1000
0001
1000
0001
1000
0010
0002
0000
0000
0000
,
2003
0000
3002
0000
0203
0000
0320
0000
0032
0000
2003
0000
3001
0010
0100
1000
,
0100
0010
0001
1000
0010
0100
0001
0010
0100
0010
0001
1000
0001
1000
0010
0100
,
0010
0100
0001
0020
0031
1000
0011
0000
0000
0000
0011
0000
1000
0010
0100
0001
,
0010
0100
1000
0001
1000
0001
0100
0010
0100
0001
0010
0100
0011
1100
0011
1100
,
0011
1100
1100
0011
1100
0011
1100
0011
1100
0011
1100
0000
1100
0001
0100
0010
,
1100
0001
0100
0010
0101
1000
0010
0100
1010
0100
0001
1000
0011
0000
1000
0000
,
0010
1001
1001
0010
0001
1100
0011
0100
,
0011
0000
1000
0000
0110
0000
0001
1000
0000
1000
0001
0000
1000
0000
0011
0000
,
0010
1100
1100
0001
1000
0110
0011
1100
,
0011
0000
0110
0000
0011
0000
0010
0100
0000
0100
0010
0000
1000
0000
0011
0000
,
0101
1000
0011
0001
0101
1000
1002
0010
,
1000
0010
0100
1000
0013
1000
0011
0001
,
0101
0100
1001
0010
1010
0001
1010
0001
,
0101
1000
1001
0010
1000
0010
2001
0010
,
0001
0010
0001
0100
0001
0010
3001
1000
,
0010
0101
1010
1001
1000
0010
0011
1000
,
1001
0001
1001
1000
1001
0100
0002
0000
,
0000
0000
0000
0000
0000
0000
0010
0000
0000
0000
1013
0000
1000
0010
1000
0100
,
1000
0001
1000
0100
1000
0001
1000
0010
1000
0100
1000
0001
1000
0010
1000
0100
,
1000
0001
1000
0010
0100
0001
1100
0000
0000
0000
1001
0000
0001
0100
0001
1000
,
0001
0010
0001
0100
0001
0010
0001
1000
0001
1000
0001
0100
2000
0000
0000
0000
,
3002
0000
2003
0000
3020
0000
0230
0000
2300
0000
3002
0000
1003
0100
0010
0001
,
0010
0100
1000
0001
0100
0010
1000
0100
0010
0100
1000
0001
1000
0001
0100
0010
,
0100
0010
1000
0200
1300
0001
1100
0000
0000
0000
1100
0000
0001
0100
0010
1000
,
0100
0010
0001
1000
0001
1000
0010
0100
0010
1000
0100
0010
1100
0011
1100
0011
,
1100
0011
0011
1100
0011
1100
0011
1100
0011
1100
0011
0000
0011
1000
0010
0100
,
0011
1000
0010
0100
1010
0001
0100
0010
0101
0010
1000
0001
1100
0000
0000
0000
,
0002
2003
3010
0000
0100
0000
0001
0000
,
2000
3020
0130
0000
1100
0000
0001
0000
,
0002
0203
0310
0000
0011
0000
1010
0000
,
0101
0000
0000
0000
0110
0000
0000
0000
1001
0000
0000
0000
0001
1000
0001
0000
,
0100
0010
0100
0000
1000
0010
1000
0000
0001
0100
0010
0000
1000
0010
0100
0000
,
0001
1000
0010
0000
1000
0001
0010
0000
0001
0100
0001
0000
1000
0010
1000
0000
,
0001
0010
0100
0000
1000
0010
0100
0000
0001
1000
0100
0000
1002
0000
1000
0000
,
1000
0000
1000
0000
1000
0000
1000
0000
1000
0000
0103
0000
1000
0010
0100
0000
,
0001
0010
0001
0000
1000
0001
1000
0000
0010
0100
0001
0000
1000
0010
0100
0000
,
0001
1000
0001
0000
1000
0010
0100
0000
0001
1000
0001
0000
1100
0001
0100
0000
,
0001
1000
0001
0000
1000
0010
0100
0000
0001
0100
0010
0000
0011
1000
0010
0000
,
1000
0000
0000
0010
0000
0000
0100
0000
0000
0000
0000
0000
0001
0000
0000
0100
0000
0000
0010
0000
0000
0000
0000
0000
1000
0000
0000
0010
0000
0000
0100
0000
0000
0000
0000
0000
1000
0000
0100
0000
0010
0000
0001
0000
1000
0000
0100
0000
,
0010
0001
1000
0100
0010
0001
0100
0010
1000
0001
0100
0010
1000
0001
0100
0010
1000
0100
0010
0001
1000
0100
0010
0001
,
0100
0000
0010
0000
0100
0000
1000
0000
0000
0010
0000
0000
0101
0000
0000
0000
0000
0000
1010
0000
0000
0000
0000
0000
0101
0000
0000
0000
0000
0000
0110
0000
0000
0000
0000
0000
0001
0000
0010
0000
0100
0000
1000
0000
0001
0000
0010
0000
,
0100
1000
0001
0010
0100
1000
0010
0100
0001
1000
0010
0100
0001
1000
0010
0100
0001
0010
0100
1000
0001
0010
0100
1000
,
0010
0000
0100
0000
0001
0000
1000
0000
0000
0010
0000
0000
0101
0000
0000
0000
0000
0000
1010
0000
0000
0000
0000
0000
1001
0000
0000
0000
0000
0000
0110
0000
0000
0000
0000
0000
1000
0000
0100
0000
0010
0000
0001
0000
1000
0000
0100
0000
,
0010
0001
1000
0100
0010
0001
0100
0010
1000
0001
0100
0010
1000
0001
0100
0010
1000
0100
0010
0001
1000
0100
0010
0001
,
0100
0000
0010
0000
0001
0000
1000
0000
0000
0010
0000
0000
0101
0000
0000
0000
0000
0000
1010
0000
0000
0000
0000
0000
1001
0000
0000
0000
0000
0000
0110
0000
0000
0000
0000
0000
0001
0000
0010
0000
0100
0000
1000
0000
0001
0000
0010
0000
,
0100
1000
0001
0010
0100
1000
0010
0100
0001
1000
0010
0100
0001
1000
0010
0100
0001
0010
0100
1000
0001
0010
0100
1000
,
0010
0000
0100
0000
0001
0000
1000
0000
0000
0010
0000
0000
0101
0000
0000
0000
0000
0000
1010
0000
0000
0000
0000
0000
1001
0000
0000
0000
0000
0000
0000
0000
0000
0000
0000
0000
2000
0000
0000
0000
0000
0000
0000
0000
0000
0000
0000
0000
,
0000
0000
0000
3000
0011
0000
0000
1001
0000
0000
1001
0000
0102
0000
0000
0000
,
0000
0000
0003
0000
1010
0000
0000
1001
0000
0000
1001
0000
0201
0000
0000
0000
,
0000
0000
0000
0300
0011
0000
0000
1001
0000
0000
1001
0000
0120
0000
0000
0000
,
0000
0000
0000
0030
1100
0000
0000
0101
0000
0000
1001
0000
2010
0000
0000
0000
,
0000
0000
0000
3000
0101
0000
0000
1001
0000
0000
1001
0000
0210
0000
0000
0000
,
0000
0000
0000
0300
1010
0000
0000
1001
0000
0000
0101
0000
1002
0000
0000
0000
,
0000
0000
0000
0003
1001
0000
0000
1010
0000
0000
0101
0000
0201
0000
0000
0000
,
0000
0000
0000
0000
0000
0000
0000
0000
0000
0300
0000
0000
0011
0000
0000
0000
0000
0000
0000
0000
0000
1001
0000
0000
0000
0000
0000
0000
0000
0000
1010
0000
0000
0000
0000
0000
0001
0000
0010
0000
0100
0000
1000
0000
0010
0000
0100
0000
,
0001
0010
0100
1000
0100
0010
0001
1000
0001
0100
0010
1000
0001
0010
0100
1000
0010
0100
0001
1000
0010
0100
0001
1000
,
0001
0100
0010
1000
0100
0010
0001
0010
0100
1000
0001
1000
0001
0100
0010
1000
0100
0010
0001
0010
0100
1000
0010
0100
,
0001
1000
0010
0100
0001
1000
0001
0010
0100
1000
0010
0100
0001
0010
0100
1000
0010
0100
0001
0010
0100
1000
0010
0100
,
0001
0100
0010
1000
0100
0010
0001
1000
0001
1000
0010
0100
0001
0010
0100
1000
0010
0100
0001
0010
0100
1000
0010
0100
,
0001
0100
0010
1000
0001
1000
0100
0010
0001
1000
0010
0100
0001
0010
0100
1001
0010
0100
1000
0010
0100
0001
1000
0001
,
1000
0100
0010
0001
0100
0010
1000
0100
0010
0001
0100
0010
1000
0010
0100
0001
1000
0001
1000
0010
0100
0001
1000
0010
,
0100
0001
0010
0100
1000
0010
0100
0001
1000
0010
0100
0001
1000
0010
0100
0001
1000
0001
1000
0010
0100
0001
1000
0001
,
1000
0000
0000
0000
0000
0000
0012
0000
0000
0000
0000
0000
1000
0000
0000
0000
0000
0000
1003
0100
0010
0001
1000
0100
,
0010
0001
1000
0100
0010
0001
1000
0100
0010
0001
1000
0100
0010
0001
1000
0100
0010
0001
0010
0100
1000
0100
0010
0001
,
0010
0100
1000
0100
0010
0001
0010
0100
1000
0100
0010
0001
0010
0100
1000
0100
0010
0001
2100
0000
0000
0000
0000
0000
,
0000
0000
3012
0000
0000
0000
2013
0010
,
0010
0000
0010
0000
0010
0000
0010
0000
0010
0000
3010
0000
0011
0000
0000
1010
,
0000
0000
1001
0000
1001
0000
0000
0101
0000
0000
1010
0000
1001
0000
0000
0011
,
0000
0000
1001
0000
1001
0000
0000
0000
0000
0000
0000
0000
0101
0000
0000
1100
,
0000
0000
0101
0000
0101
0000
0000
0000
1001
0000
1001
0000
1001
0000
0000
1010
,
0000
0000
1001
0000
1001
0000
0000
0000
0101
0000
0000
0000
1001
0000
0000
1001
,
0000
0000
1010
0000
1010
0000
0000
0101
0000
0000
1001
0000
1001
0000
0000
0101
,
0000
0011
1001
0000
0000
0000
0101
0000
,
1001
0000
0000
0000
0000
0000
0001
0010
0100
2000
0000
0000
0000
0000
0000
3000
0000
0000
1001
0000
0000
0000
0000
0000
,
0101
0000
0000
0000
0000
1000
0100
0010
0001
0000
0000
0000
0000
0000
0000
0000
0000
0000
0011
0000
0000
0000
0000
0000
,
0110
0000
0000
0000
1001
0000
0000
0000
1001
0000
0000
0000
0000
0000
0000
0000
0000
0000
0000
0000
0000
0000
1000
0100
0010
0000
0000
0000
0000
0000
0001
0010
,
0100
0000
0000
0000
0000
0000
1000
0100
0010
0000
0000
0000
0000
0000
0010
0100
1000
0000
0000
0000
0000
0000
0000
0000
0020
0000
0000
0000
0000
0000
0000
0000
,
0000
0000
0000
0000
0000
0030
0011
0010
,
0110
0100
1100
1000
1001
0100
0110
0001
,
1001
0100
1010
0100
0011
0010
0101
0010
,
1100
0001
1001
1000
0110
0001
0101
0001
,
0011
0000
0100
0000
1001
0000
0001
1000
0000
1000
0001
0000
1010
0000
0010
0000
,
0100
0001
1001
1000
1001
0001
1001
0010
,
0110
0100
0101
0012
0000
0000
0100
0000
,
1103
0011
0110
2000
,
0000
0000
0000
0000
0000
0000
0001
0000
0000
0000
3110
0000
0001
0100
0001
0010
,
0001
1000
0001
0010
0001
1000
0001
0100
0001
0010
0001
1000
0001
0100
0001
0010
,
0001
1000
0001
0100
0010
1000
0011
0000
0000
0000
1001
0000
1000
0010
1000
0001
,
1000
0100
1000
0010
1000
0100
1000
0001
1000
0001
1000
0010
0002
0000
0000
0000
,
2003
0000
3002
0000
0203
0000
0320
0000
0032
0000
2003
0000
3001
0010
0100
1000
,
0100
0010
0001
1000
0010
0100
0001
0010
0100
0010
0001
1000
0001
1000
0010
0100
,
0010
0100
0001
0020
0031
1000
0011
0000
0000
0000
0011
0000
1000
0010
0100
0001
,
0010
0100
1000
0001
1000
0001
0100
0010
0100
0001
0010
0100
0011
1100
0011
1100
,
0011
1100
0011
1100
0011
0000
2000
0000
0000
0000
0001
0000
3001
0010
0100
1000
,
0001
0010
0001
1000
0001
1000
0001
0010
0100
1000
0001
0100
0010
1000
0001
1000
,
0001
0100
0010
1000
0001
0100
0011
0000
0000
0000
1001
0000
1000
0100
0010
0001
,
0100
0010
1000
0100
1000
0001
0010
0100
1000
0010
0100
0001
0010
0100
1000
0001
,
1000
0010
0100
0001
1000
0100
0011
0000
0000
0000
1001
0000
0001
0010
0100
1000
,
0010
0100
0001
1000
0001
1000
0001
0100
0010
1000
0001
1000
0001
0100
0010
0100
,
0001
0010
0100
1000
0010
0100
0011
0000
0000
0000
1001
0000
1000
0010
0100
0001
,
0010
0100
1000
0010
0100
0001
1000
0010
0100
0001
1000
0000
0102
1000
0100
1000
,
0100
1000
0100
1000
0100
1000
0100
1000
0100
0000
0000
0000
1000
0100
1000
0100
,
1000
0100
1000
0100
1000
0100
1000
0100
1000
0000
0000
0000
0100
1000
0100
1000
,
0100
1000
0100
1000
0100
1000
0113
0000
0000
0000
0011
0000
1001
0000
0000
0000
;
