#TITLE:Galactic Astro Domination;
#SUBTITLE:;
#ARTIST:Dragonforce;
#TITLETRANSLIT:;
#SUBTITLETRANSLIT:;
#ARTISTTRANSLIT:;
#CREDIT:;
#BANNER:../banner.png;
#BACKGROUND:../bg.png;
#LYRICSPATH:;
#CDTITLE:;
#MUSIC:Galactic Astro Domination.ogg;
#OFFSET:0.280;
#SAMPLESTART:30.920;
#SAMPLELENGTH:19.400;
#SELECTABLE:YES;
#DISPLAYBPM:200.000;
#BPMS:0.000=200.000,217.188=4000000.250,217.250=200.000;
#STOPS:223.938=0.019
;
#BGCHANGES:;
// cache tags:
#FIRSTBEAT:4.000;
#LASTBEAT:294.500;
#SONGFILENAME:Songs/Cirque du Lykan/Galactic Astro Domination - [Zaia]/Galactic Astro Domination.sm;
#HASMUSIC:1;
#HASBANNER:1;
#MUSICLENGTH:90.984;
// end cache tags

//---------------dance-single - Zaia - 14(low-mid)----------------
#NOTES:
     dance-single:
     Zaia - 14(low-mid):
     Challenge:
     14:
     1.000,1.000,0.121,0.550,1.000,866.000,11.000,50.000,0.000,0.000:
0000
0000
0000
0000
,
0001
0100
0010
1000
0001
0100
0001
0100
0010
1000
0001
0010
0100
1000
0001
1000
,
0001
0000
0010
0000
0000
0000
0100
0000
1000
0000
0001
1000
0010
0000
0100
0000
,
0001
0000
0000
0001
0000
0000
0000
0000
0000
1000
0000
0000
0100
0000
0000
0010
0000
0000
0002
0000
0000
0000
0000
0003
,
1000
0010
0100
0001
1000
0100
1000
0001
0100
0010
0100
0001
1000
0001
0010
0100
,
1000
0010
0100
0001
0010
0100
1000
0001
0200
0000
0000
0000
0320
0000
0000
0000
,
1030
0000
0001
0010
0001
0100
0001
1000
0010
0000
0100
0001
1000
0100
1000
0010
,
1000
0001
0100
0010
0100
0001
1000
0100
0010
0000
0001
1000
0001
0100
0010
1000
,
0001
0000
0101
0100
0010
0000
1010
0010
,
0100
0001
0100
0001
1000
0010
1000
0001
0010
0001
1000
0100
0010
0001
1000
0001
,
0100
0010
1000
0001
0010
0001
0100
0010
1000
0001
0010
0001
0100
0010
1000
0001
,
1000
0100
0010
0001
1000
0010
0100
0001
1000
0100
0010
0001
1000
0010
0100
0010
,
1000
0000
0001
0000
0000
0000
0010
0000
0100
0000
1000
0001
1000
0000
0010
0000
,
0100
0001
0000
0010
0100
1000
0001
0100
,
0010
1000
0001
0100
0001
1000
0100
1000
0001
0010
0001
1000
0010
1000
0001
0010
,
0001
1000
0010
0100
0010
1000
0001
0010
0100
0010
0001
1000
0001
0100
0010
1000
,
0002
0000
0023
0000
0230
0000
2300
0000
3020
0000
0230
0000
0301
0010
0100
0010
,
0001
1000
0001
1000
0010
0100
0010
0100
0001
1000
0001
1000
0100
0010
0100
0010
,
0001
1000
0000
0010
0000
0100
0001
0010
,
0100
0010
0001
0001
0000
0100
0010
1000
,
0100
0010
0001
1000
0001
0100
0001
1000
0100
0010
0001
0010
0100
1000
0010
0100
,
0001
1000
0100
0010
0001
0100
0010
1000
0001
0010
0100
1000
0002
0000
0000
0000
,
1003
0010
0100
0001
1000
0001
0010
0001
1000
0010
1000
0001
0010
0100
0010
0001
,
1000
0010
0100
0001
0010
0100
1000
0001
1000
0010
1000
0001
0010
0001
0100
0010
,
1000
0001
1000
0100
0010
0001
1000
0001
0100
0010
1000
0001
0100
0001
1000
0100
,
0010
0001
0010
0001
1000
0100
0010
0001
1000
0010
1000
0010
0100
0001
1000
0010
,
0100
0000
0001
1000
0001
0000
0010
0000
0100
0000
0010
0000
0001
0000
1000
0000
,
1010
0000
0010
0100
0010
0000
0100
0000
0001
0000
0010
0000
0100
0000
0010
0000
,
0011
0000
0001
1000
0001
0000
0100
0000
0010
0000
1000
0000
0001
0000
0010
0000
,
0100
1000
0100
1000
0001
0000
0000
0000
0100
0010
0100
0010
1000
0000
0000
0000
,
1001
0000
0001
0100
0001
0000
1000
0000
0100
0000
0010
0000
0001
0000
1000
0000
,
1100
0000
0100
0010
0100
0000
1000
0000
0001
0000
0100
0000
0010
0000
0100
0000
,
0101
0000
0001
1000
0001
0000
0010
0000
0100
0000
1000
0000
0010
0000
0100
0000
,
0001
1000
0001
1000
0010
0000
0000
0000
0100
0001
0100
0001
1000
0000
0000
0000
,
0001
0010
0001
0010
0100
1000
0001
0100
0010
0100
0001
1000
0100
0010
0001
1000
,
0010
0100
0010
0100
0001
1000
0100
1000
0001
0100
0010
0100
0001
1000
0100
0010
,
0001
1000
0001
1000
0010
0100
0010
1000
0001
1000
0100
0010
0001
1000
0010
1000
,
0001
0010
0001
0010
0100
1000
0010
0100
0001
1000
0001
1000
0100
0010
0001
0100
,
0010
1000
0010
1000
0001
0010
0100
0010
0001
1000
0001
0100
0010
1000
0001
1000
,
0100
0010
0100
0010
0001
1000
0010
0100
0010
1000
0001
1000
0010
0100
0001
0010
,
0100
1000
0100
1000
0001
0100
0010
1000
0001
0010
0001
1000
0010
0100
0001
1000
,
0001
0100
0010
1000
0100
0010
0100
0010
0001
0100
0010
1000
0001
1000
0001
0010
,
0100
0000
1000
0000
0001
0100
0001
0000
1000
0000
0100
0000
0010
0100
0010
0000
,
0001
0000
1000
0000
0010
1000
0010
0000
0100
0000
0001
0000
1000
0100
1000
0000
,
0002
0023
0230
0320
0032
0203
0320
2030
,
3002
0023
0230
2300
0000
0000
3001
0000
,
1000
0010
1000
0001
0010
0001
1000
0100
1000
0001
0100
0001
1000
0100
0010
0001
,
1000
0010
1000
0001
0010
0001
1000
0100
1000
0001
0100
0001
1000
0010
0100
0001
,
2000
3002
2003
3002
,
1003
0100
1000
0100
0010
0001
1000
0001
0100
0010
1000
0001
0010
0001
1000
0001
,
0100
0010
1000
0001
0010
0001
1000
0010
0100
0001
1000
0100
0010
0001
1000
0001
,
0200
0000
0310
1000
0001
0010
0100
0010
0001
0100
0010
1000
0001
0000
0010
0000
,
0100
0000
0200
0000
0000
0000
0000
0000
1300
0000
0001
0100
0010
0000
1000
0000
,
0010
0020
0000
0130
0001
1000
0100
0010
,
0002
0000
0000
0000
0000
0000
0000
0000
0000
0000
0000
0000
0000
0000
0000
0000
0003
0000
0000
0000
0000
0000
0000
0000
0000
1000
0000
0000
0000
0010
0000
0000
0000
0100
0000
0000
0000
0001
0000
0000
0000
1000
0000
0000
0000
0001
0000
0000
0000
0100
0000
0000
0000
0010
0000
0000
0000
1000
0000
0000
0000
0001
0000
0000
,
0000
1000
0000
0000
0000
0001
0000
0000
0000
0010
0000
0000
0000
0100
0000
0000
0000
1000
0000
0000
0000
0001
0000
0000
0000
0010
0000
0000
0000
0001
0000
0000
0000
1000
0000
0000
0000
0100
0000
0000
0000
0010
0000
0000
0000
0001
0000
0000
0000
0010
0000
0000
0000
0100
0000
0000
0000
1000
0000
0000
0000
0001
0000
0000
,
1000
0010
1000
0010
0100
0001
1000
0001
0010
0001
1000
0100
0010
0100
1000
0001
,
1000
0010
0100
0001
0010
0100
1000
0001
0100
0010
0100
0010
1000
0100
0010
0001
,
0100
0010
1000
0010
0100
0001
0010
0001
0100
0010
1000
0010
0100
0001
0010
0001
,
1000
0100
0010
0001
1000
0001
0100
0010
1000
0001
0010
0001
0200
0000
0000
0000
,
0320
2030
3002
0023
,
0032
2003
3020
0230
,
0310
1000
0001
0010
0100
0010
0001
1000
0010
0100
0010
1000
0001
0010
0001
1000
,
0010
0100
0001
1000
0001
0010
0100
0010
0001
1000
0001
0100
0010
1000
0001
1000
,
0100
0010
0001
0100
0010
1000
0001
1000
0010
0100
0001
1000
0100
0010
0001
1000
,
0100
0010
0100
0010
0001
1000
0001
1000
0010
0100
0010
0100
0001
1000
0001
1000
,
0020
0000
0000
0230
0000
0000
0302
0000
,
2003
0000
0000
0000
3000
0000
0200
0320
,
0032
0000
0000
2003
0000
0000
3020
0000
,
0130
0001
0010
0100
1000
0010
1000
0001
,
0010
0100
0010
0001
1000
0001
0100
0010
1000
0001
0010
0001
1000
0010
1000
0100
,
0010
0001
0010
0001
1000
0100
1000
0100
0010
0001
0010
0001
1000
0010
1000
0010
,
0100
0001
1000
0001
0100
0000
0000
0000
0101
0000
0000
1010
0000
0000
0110
0000
,
2002
0000
0000
0000
0000
3003
0000
0000
;

//---------------dance-single - Zaia - 13(mid)----------------
#NOTES:
     dance-single:
     Zaia - 13(mid):
     Hard:
     13:
     1.000,1.000,0.099,0.780,1.000,716.000,9.000,71.000,0.000,0.000:
0000
0000
0000
0000
,
0001
0000
1000
0000
0001
0010
0001
0000
1000
0000
0001
0000
0010
0100
0010
0000
,
0001
0000
0010
0000
0000
0000
0100
0000
1000
0000
0001
1000
0010
0000
0100
0000
,
0001
0000
0000
0001
0000
0000
0000
0000
0000
1000
0000
0000
0100
0000
0000
0010
0000
0000
0002
0000
0000
0000
0000
0003
,
1000
0010
1000
0001
0100
0001
1000
0010
1000
0001
1000
0100
0010
0100
1000
0001
,
1000
0010
0100
0001
0010
0100
1000
0001
0200
0000
0000
0000
0320
0000
0000
0000
,
1030
0000
0001
0010
0001
1000
0001
1000
0010
0000
0100
0001
1000
0001
1000
0010
,
1000
0001
0100
0010
0100
0001
1000
0100
0010
0000
0001
1000
0001
0100
0010
1000
,
0001
0000
0101
0100
0010
0000
1010
0010
,
0100
0001
0100
0001
1000
0010
1000
0001
0010
0001
1000
0100
0010
0001
1000
0001
,
0200
0000
0310
2000
0000
3001
0020
0230
,
1300
0001
1000
0000
0001
0100
0001
0000
1000
0100
1000
0000
0001
0010
0001
0000
,
1000
0000
0001
0000
0000
0000
0010
0000
0100
0000
1000
0001
1000
0000
0010
0000
,
0100
0001
0000
0010
0100
1000
0001
0100
,
0010
1000
0001
0100
0001
1000
0100
1000
0001
0010
0001
1000
0010
1000
0001
0010
,
0001
1000
0100
1000
0001
0100
0010
0100
,
0002
0000
0023
0000
0230
0000
2300
0000
3020
0000
0230
0000
0301
0010
0100
0010
,
0002
2003
3020
0230
,
0301
1000
0000
0010
0000
0100
0001
0010
,
0100
0010
0001
0001
0000
0100
0010
1000
,
0100
0000
0010
0000
0100
1000
0100
0000
1000
0000
0010
0000
0100
0001
0100
0000
,
0010
0000
1000
0000
0001
0010
0001
0000
0100
0000
0010
0000
2000
0000
0000
0000
,
3001
0100
0010
1000
0001
1000
0100
1000
0001
0100
0001
1000
0100
0010
0100
1000
,
0001
0100
0010
1000
0100
0010
0001
1000
0001
0100
0001
1000
0100
1000
0010
0100
,
0001
1000
0001
0010
0100
1000
0001
1000
0010
0100
0001
1000
0010
1000
0001
0010
,
0200
0000
0000
0000
1300
0001
1000
0000
0020
0000
0000
0000
0130
0001
0100
0000
,
0010
0000
1000
0001
1000
0000
0100
0000
0010
0000
0100
0000
1000
0000
0001
0000
,
1000
0000
0010
0100
0010
0000
0100
0000
0001
0000
1000
0000
0100
0000
0010
0000
,
0100
0000
1000
0001
1000
0000
0010
0000
0100
0000
0001
0000
1000
0000
0100
0000
,
0010
0001
0010
0001
1000
0000
0000
0000
0010
0100
0010
0100
0001
0000
0000
0000
,
1000
0000
0001
0100
0001
0000
1000
0000
0100
0000
0010
0000
0001
0000
1000
0000
,
0001
0000
0010
0100
0010
0000
0001
0000
1000
0000
0010
0000
0100
0000
0010
0000
,
1000
0000
0001
1000
0001
0000
0010
0000
0100
0000
1000
0000
0010
0000
0100
0000
,
0101
0001
1001
0011
,
0001
0000
1000
0100
1000
0000
0010
0000
0100
0000
0001
0000
0010
0000
0100
0000
,
1000
0000
0001
0100
0001
0000
0010
0000
0001
0000
0100
0000
0010
0000
1000
0000
,
0100
0000
0010
0001
0010
0000
0001
0000
1000
0000
0010
0000
0100
0000
0001
0000
,
1000
0010
1000
0010
0100
0000
0000
0000
0001
0100
0001
0100
0010
0000
0000
0000
,
1000
0000
0001
0100
0001
0000
0010
0000
0100
0000
1000
0000
0010
0000
0100
0000
,
0001
0000
1000
0100
1000
0000
0010
0000
1000
0000
0100
0000
0010
0000
0001
0000
,
0100
0000
0010
1000
0010
0000
1000
0000
0001
0000
0010
0000
0100
0000
1000
0000
,
0001
0010
0001
0010
0100
1000
0010
0100
0001
1000
0001
1000
0100
0010
0001
0100
,
0020
2030
3020
0230
0000
0302
0023
0230
,
0320
0032
0203
0320
0000
0000
0000
0030
,
2000
3200
0320
0230
2300
3020
0230
0302
,
2003
3200
0320
0032
0000
0000
1003
0000
,
0001
0100
0001
1000
0100
1000
0001
0010
0001
1000
0010
1000
0001
0010
0100
1000
,
0001
0100
0001
1000
0100
1000
0001
0010
0001
1000
0010
1000
0001
0100
0010
1000
,
0002
2003
3002
2003
,
3001
0010
0001
0010
0100
1000
0001
1000
0010
0100
0001
1000
0100
1000
0001
1000
,
0010
0100
0001
1000
0100
1000
0001
0100
0010
1000
0001
0010
0100
1000
0001
1000
,
0020
0000
0130
0001
1000
0100
0010
0100
1000
0010
0100
0001
1000
0000
0100
0000
,
0010
0000
0020
0000
0000
0000
0000
0000
0031
0000
1000
0010
0100
0000
0001
0000
,
0100
0200
0000
0310
1000
0001
0010
0100
,
2000
0000
0000
0000
0000
0000
0000
0000
0000
0000
0000
0000
0000
0000
0000
0000
3000
0000
0000
0000
0000
0000
0000
0000
0000
0001
0000
0000
0000
0100
0000
0000
0000
0010
0000
0000
0000
1000
0000
0000
0000
0001
0000
0000
0000
1000
0000
0000
0000
0010
0000
0000
0000
0100
0000
0000
0000
0001
0000
0000
0000
1000
0000
0000
,
0000
0001
0000
0000
0000
1000
0000
0000
0000
0100
0000
0000
0000
0010
0000
0000
0000
0001
0000
0000
0000
1000
0000
0000
0000
0100
0000
0000
0000
1000
0000
0000
0000
0001
0000
0000
0000
0010
0000
0000
0000
0100
0000
0000
0000
1000
0000
0000
0000
0100
0000
0000
0000
0010
0000
0000
0000
0001
0000
0000
0000
1000
0000
0000
,
0001
0100
0010
1000
0100
1000
0010
0100
,
0001
0100
0010
1000
0100
0010
0001
1000
0010
0100
0010
0100
0001
0010
0100
1000
,
0010
0100
0100
0001
1000
1000
0100
0010
,
0001
0100
0010
1000
0100
1000
0020
0000
,
0230
0302
2003
3200
,
2300
3002
0203
0320
,
0130
0001
1000
0100
0010
0100
1000
0001
0100
0010
0100
0001
1000
0100
1000
0001
,
0100
0010
1000
0001
1000
0100
0010
0100
1000
0001
1000
0010
0100
0001
1000
0001
,
0010
0100
1000
0010
0100
0001
1000
0001
0100
0010
1000
0001
0010
0100
1000
0001
,
0010
0000
0100
0000
1000
0100
1000
0000
0001
0000
0100
0000
0010
1000
0010
0000
,
0200
0000
0000
0320
0000
0000
2030
0000
,
3002
0000
0000
0000
0003
0000
0020
0230
,
2300
0000
0000
3002
0000
0000
0203
0000
,
0310
1000
0100
0010
0001
0100
0001
1000
,
0100
0010
0100
1000
0001
1000
0010
0100
0001
1000
0100
1000
0001
0100
0001
0010
,
0100
1000
0100
1000
0001
0010
0001
0010
0100
1000
0100
1000
0001
0100
0001
0100
,
0010
1000
0001
1000
0010
0000
0000
0000
1010
0000
0000
0101
0000
0000
0110
0000
,
2002
0000
0000
0000
0000
3003
0000
0000
;

//---------------dance-single - Zaia - 11(low-mid)----------------
#NOTES:
     dance-single:
     Zaia - 11(low-mid):
     Medium:
     11:
     0.975,1.000,0.110,0.824,0.280,536.000,10.000,75.000,0.000,0.000:
0000
0000
0000
0000
,
0001
0000
1000
0000
0001
0010
0001
0000
1000
0000
0001
0000
0010
0100
0010
0000
,
0001
0000
0010
0000
0000
0000
0100
0000
1000
0000
0001
1000
0010
0000
0100
0000
,
0001
0000
0000
0001
0000
0000
0000
0000
0000
1000
0000
0000
0100
0000
0000
0010
0000
0000
0002
0000
0000
0000
0000
0003
,
1000
0010
0100
0001
0010
0100
1000
0010
,
0100
0010
1000
0001
0200
0000
0320
0000
,
1030
0000
0000
0001
0000
0000
1000
0000
0100
0000
1000
0000
0100
0000
0000
0010
0000
0000
0001
0000
0100
0000
0001
0000
,
0100
0010
1000
0001
1000
0010
0100
0001
,
1000
0000
1010
0010
0100
0000
0101
0100
,
0010
1000
0010
0100
0001
0100
0010
1000
,
0020
0000
0130
0002
0000
1003
0200
0320
,
0031
1000
0001
0000
1000
0010
1000
0000
0001
0010
0001
0000
1000
0100
1000
0000
,
0001
0000
1000
0000
0000
0000
0100
0000
0010
0000
0001
1000
0001
0000
0100
0000
,
0010
1000
0000
0100
0010
0001
1000
0010
,
0100
0001
1000
0100
1000
0001
0100
0001
,
1000
0001
0010
0001
1000
0010
0100
0010
,
2000
0000
3200
0000
0320
0000
0032
0000
0203
0000
0320
0000
1030
0001
0010
0001
,
2000
3002
0203
0320
,
1030
0001
0000
0100
0000
0010
1000
0100
,
0010
0100
1000
1000
0000
0010
0100
0001
,
0010
0000
0100
0000
0010
0001
0010
0000
0001
0000
0100
0000
0010
1000
0010
0000
,
0100
0000
0001
0000
1000
0100
1000
0000
0010
0000
0100
0000
0002
0000
0000
0000
,
1003
0010
0100
0001
0010
0100
1000
0010
,
1000
0001
0010
0001
0100
0010
1000
0100
,
0010
0001
0100
0001
0010
0100
1000
0001
,
0020
0000
0000
0000
0031
1000
0001
0000
0200
0000
0000
0000
0310
1000
0010
0000
,
0100
0000
0001
1000
0001
0000
0010
0000
0100
0000
0010
0000
0001
0000
1000
0000
,
0001
0000
0100
0010
0100
0000
0010
0000
1000
0000
0001
0000
0010
0000
0100
0000
,
0010
0000
0001
1000
0001
0000
0100
0000
0010
0000
1000
0000
0001
0000
0010
0000
,
0100
1000
0100
1000
0001
0000
0000
0000
0100
0010
0100
0010
1000
0000
0000
0000
,
0001
0000
1000
0010
1000
0000
0001
0000
0010
0000
0100
0000
1000
0000
0001
0000
,
1000
0000
0100
0010
0100
0000
1000
0000
0001
0000
0100
0000
0010
0000
0100
0000
,
0001
0000
1000
0001
1000
0000
0100
0000
0010
0000
0001
0000
0100
0000
0010
0000
,
1010
1000
1001
1100
,
1000
0000
0001
0010
0001
0000
0100
0000
0010
0000
1000
0000
0100
0000
0010
0000
,
0001
0000
1000
0010
1000
0000
0100
0000
1000
0000
0010
0000
0100
0000
0001
0000
,
0010
0000
0100
1000
0100
0000
1000
0000
0001
0000
0100
0000
0010
0000
1000
0000
,
0001
0100
0001
0100
0010
0000
0000
0000
1000
0010
1000
0010
0100
0000
0000
0000
,
0001
0000
1000
0010
1000
0000
0100
0000
0010
0000
0001
0000
0100
0000
0010
0000
,
1000
0000
0001
0010
0001
0000
0100
0000
0001
0000
0010
0000
0100
0000
1000
0000
,
0010
0000
0100
0001
0100
0000
0001
0000
1000
0000
0100
0000
0010
0000
0001
0000
,
1000
0100
1000
0010
0100
0001
0010
0001
,
0200
0302
0203
0320
0000
2030
3200
0320
,
0230
2300
3020
0230
0000
0000
0000
0300
,
0002
0023
0230
0320
0032
0203
0320
2030
,
3002
0023
0230
2300
0000
0000
3001
0000
,
1000
0100
0010
0001
0100
0001
0010
0100
,
1000
0010
0100
0010
1000
0001
0010
0001
,
2000
3002
2003
3002
,
2003
3200
0320
0032
,
1003
0010
1000
0001
1000
0001
0100
0001
,
2000
3100
0010
0001
1000
0010
0100
0001
,
0010
0000
0020
0000
0000
0000
0000
0000
0031
0000
1000
0010
0100
0000
0001
0000
,
0100
0200
0000
0310
1000
0001
0010
0100
,
2000
0000
0000
0000
0000
0000
0000
0000
0000
0000
0000
0000
0000
0000
0000
0000
3000
0000
0000
0000
0000
0000
0000
0000
0000
0004
0000
0000
0000
0000
0000
0000
0000
0000
0000
0000
0000
0000
0000
0000
0000
0000
0000
0000
0000
0000
0000
0000
0000
0000
0000
0000
0000
0000
0000
0000
0000
0000
0000
0000
0000
0000
0000
0000
,
0000
0000
0000
0000
,
1003
0010
0100
0001
0010
0001
0100
0010
,
1000
0100
1000
0000
0001
0100
0001
0000
1000
0000
0010
0000
1000
0000
0001
0000
,
0100
0010
0010
1000
0001
0001
0010
0100
,
1000
0010
0100
0001
0010
0001
0200
0000
,
0320
2030
3002
0023
,
0032
2003
3020
0230
,
0301
0010
0100
0010
0001
1000
0010
0100
,
0010
1000
0001
0010
0001
1000
0010
1000
,
0001
0010
0100
1000
0010
0100
0001
0010
,
0100
0000
0010
0000
0001
0010
0001
0000
1000
0000
0010
0000
0100
0001
0100
0000
,
0020
0000
0000
0230
0000
0000
0302
0000
,
2003
0000
0000
0000
3000
0000
0200
0320
,
0032
0000
0000
2003
0000
0000
3020
0000
,
0130
0001
0010
0100
1000
0010
1000
0001
,
0010
0100
1000
0010
0100
0001
0010
0100
,
1000
0010
1000
0000
0001
1000
0001
0000
0100
0001
0100
0000
0010
0100
0010
0000
,
1000
0001
0100
0001
1000
0000
0000
0000
0101
0000
0000
1010
0000
0000
0110
0000
,
2002
0000
0000
0000
0000
3003
0000
0000
;
