#TITLE:Super Mario Bros.;
#SUBTITLE:Underwater Theme;
#ARTIST:Nintendo;
#TITLETRANSLIT:;
#SUBTITLETRANSLIT:;
#ARTISTTRANSLIT:Joao Pedro Wojcikiewicz Duarte Silva;
#CREDIT:;
#BANNER:banner.JPG;
#BACKGROUND:underwater.jpg;
#LYRICSPATH:;
#CDTITLE:;
#MUSIC:1-03_underwater.mp3;
#OFFSET:0.000;
#SAMPLESTART:100.000;
#SAMPLELENGTH:12.000;
#SELECTABLE:YES;
#BPMS:0.000=240.000,520.000=180.000;
#STOPS:;
#BGCHANGES:0.000=underwater.jpg=1.000=0=0=1,
99999=-nosongbg-=1.000=0=0=0 // don't automatically add -songbackground-
;
// cache tags:
#FIRSTBEAT:4.333;
#LASTBEAT:470.000;
#SONGFILENAME:Songs/toune 4/Super Mario Bros. - Underwater/1-03_underwater.sm;
#HASMUSIC:1;
#HASBANNER:1;
#MUSICLENGTH:119.857;
// end cache tags

//---------------dance-single - ----------------
#NOTES:
     dance-single:
     :
     Easy:
     1:
     0.466,0.539,0.100,0.909,0.722,270.000,12.000,109.000,0.000,0.000:
0000
0000
0000
0000
,
0000
1000
0000
0001
0000
0000
0010
0000
0000
0100
0000
0000
,
1000
0000
0000
0100
0000
0000
0010
0000
0010
0000
0010
0000
,
0000
0010
0000
0000
0010
0000
0000
0000
0000
0000
1000
2000
,
0000
0000
3002
0000
0000
0000
0000
0000
0000
0203
0000
0000
,
0000
0000
2300
0000
,
0000
0000
0000
0000
0000
0000
3000
0010
0000
0101
0000
0100
,
1000
0000
0010
0000
2000
0000
0000
0000
0000
0000
0000
0000
,
3200
0000
0000
0000
0000
0000
0000
0000
0301
0000
0020
0000
,
0000
0000
0000
0000
,
0000
0030
2000
0000
0000
0000
0000
0000
0000
0000
0000
0000
,
0000
3000
0002
0000
0000
0000
0000
0000
0000
0000
0000
0003
,
0200
0000
0000
0000
,
0300
0000
1000
0000
0100
0000
0001
0000
0010
0000
0020
0000
,
0000
0000
0000
0000
0000
0000
0000
2030
0000
0000
0000
0000
,
0000
0000
3100
0000
0102
0000
0000
0000
0000
0000
0000
0000
,
0000
0000
0000
0000
0000
0003
0000
0100
0000
2000
0000
0000
,
0000
0000
0000
0000
0000
3000
0000
0200
0000
0000
0000
0000
,
0000
0000
0000
0000
0300
0020
0000
0000
0000
0000
0000
0000
,
0030
0000
0000
0001
0000
0100
0000
0000
0000
0000
0000
0000
,
1000
2000
0000
0000
0000
0000
0000
0000
0000
0000
0000
3002
,
0000
0000
0000
0000
0000
0000
0000
0003
0020
0000
0000
0000
,
0000
0000
0000
0000
0030
0000
0100
0000
1000
0000
0000
0000
,
0000
0000
2000
0002
0000
0000
0000
0000
0000
0000
0000
0000
,
0000
0000
3003
0001
0000
0000
0010
0000
0000
0100
0000
0000
,
1000
1000
0000
1000
0000
0000
0000
1000
0000
0100
0000
0100
,
0000
0000
0000
0000
0001
0000
0000
0010
0000
0100
0000
0000
,
0000
1000
0000
0000
0100
0000
0000
0001
0000
0000
0010
0000
,
0000
0100
0100
0000
0100
0000
0000
0000
0100
0000
0000
0100
,
0000
0000
0000
0000
0000
1000
0000
0000
0020
0000
0000
0000
,
0000
0000
0000
0000
0030
0002
0000
0000
0000
0000
0000
0000
,
0000
0003
2000
0000
0000
0000
0000
0000
0000
0000
0000
0000
,
0000
3000
0000
0000
0100
0000
0001
0000
0010
0000
0100
0000
,
2000
0000
0000
0000
0000
0000
0000
0000
3000
0200
0000
0000
,
0000
0000
0000
0000
0301
0000
0002
0000
0000
0000
0000
0000
,
0000
0000
0000
0000
0000
0003
0000
0000
0010
0000
0200
0000
,
0000
0000
0000
0000
0000
0000
0000
0000
0300
2000
0000
0000
,
0000
0000
0000
0000
0000
0000
3000
0002
0000
0000
0000
0000
,
0000
0000
0000
0000
0000
0000
0003
0000
0000
0010
0000
1000
,
0100
0000
1000
0000
0002
0000
0000
0000
0000
0000
0000
0000
,
0000
0003
0200
0000
0000
0000
0000
0000
0000
0300
1000
0020
,
0000
0000
0000
0000
0000
0000
0000
0000
0000
0000
0030
0000
,
0000
0000
0000
2002
0000
0000
0000
0000
0000
0000
0000
3003
,
0000
0000
2002
0000
0000
0000
0000
0000
0000
0000
3003
0000
,
0002
2000
0000
0000
0000
0000
0000
0000
0003
3000
0000
1000
,
0000
0000
0010
0000
0000
0000
0000
0100
0000
2000
0002
0000
,
0000
0000
0000
0000
3003
0000
2002
0000
0000
0000
0000
0000
,
0000
0003
3000
0000
2002
0000
0000
0000
0000
0000
0003
3000
,
0000
1000
0000
0000
0010
0000
0000
0000
0000
2000
0002
0000
,
0000
0000
3003
0100
,
0010
0100
0000
0001
0000
0000
0000
1000
0000
1000
0000
0000
,
0000
0000
0000
2000
0001
0200
0000
0000
0000
0000
0000
0000
,
0000
0000
0000
0000
3300
0000
0000
0010
0000
0000
0100
0000
,
0000
0001
0000
0000
1000
0000
0000
0000
0010
0000
0010
0010
,
0000
0010
0010
0000
,
0000
0000
0000
0000
2020
0000
0000
0000
0000
0000
0000
3030
,
0000
0202
0000
0000
0000
0000
0000
0000
0303
0000
0020
2000
,
0000
0000
0000
0000
0000
0000
3030
0000
0000
0000
0000
0100
,
0000
1010
0000
0001
0000
0000
0100
0000
0020
0000
0000
0000
,
0000
0000
0030
0200
0000
0000
0000
0000
0000
0000
0300
1000
,
0000
0000
0002
0000
0000
0000
0000
0000
0000
0000
0000
0000
,
0000
0000
0003
0000
0000
0100
0000
0010
0000
2000
0000
0000
,
0000
0000
0000
0000
3000
0002
0000
0000
0000
0000
0000
0000
,
0000
0003
0000
0020
0000
0000
0000
0000
0000
0000
0000
0000
,
0030
0000
0000
0000
0100
0000
1000
0000
0010
0001
0000
0200
,
0000
0000
0000
0000
0000
0000
0300
0000
2000
0000
0000
0000
,
0000
0000
0000
3000
0021
0000
0000
0000
0000
0000
0000
0000
,
0000
0000
0000
0000
0030
0000
0000
0000
0000
0100
0000
2000
,
0000
0000
0000
0000
0000
0000
0000
3000
0000
0002
0000
0000
,
0000
0000
0000
0000
0000
0000
0003
2000
0000
0000
0000
0000
,
0000
0000
0000
0000
3000
0000
0100
0000
0000
0010
0000
0000
,
0000
0000
0100
0000
0002
0000
0000
0000
0000
0000
0000
0003
,
0000
2000
0000
0000
0000
0000
0000
3000
0000
0200
0000
0000
,
0000
0000
0000
0000
0000
0000
0300
0000
0010
0000
0000
0001
,
0000
0000
0000
0000
0000
0020
2000
0000
0000
0000
0000
0000
,
0000
0000
3030
0000
0001
0000
0000
0100
0000
0010
0000
0000
,
0000
0200
0000
0000
0000
0000
0000
0000
0300
1000
2000
0000
,
0000
0000
0000
3000
0000
0000
0000
0000
0001
0000
0000
0000
,
0010
0100
1000
0100
,
0000
0001
0000
0000
0010
0000
0010
0010
0000
0000
0000
0010
,
0000
0000
0010
0000
0000
0000
0000
0000
1000
0000
0000
0200
,
0000
0000
0000
0000
0000
0300
0000
0002
0000
0000
0000
0000
,
0000
0000
0003
0000
0020
0000
0000
0000
0000
0000
0000
0000
,
0000
0000
0030
0000
0000
0000
0100
1000
0000
0100
0001
0000
,
0010
0000
0010
0200
0000
0000
0000
0000
0000
0300
2000
0000
,
0000
0000
0000
0000
0000
3000
0001
0000
0020
0000
0000
0000
,
0000
0000
0000
0000
0000
0030
0000
0000
0000
0000
0000
0100
,
0000
2000
0000
0000
0000
0000
0000
0000
0000
0000
0000
3002
,
0000
0000
0000
0203
,
0000
0000
0000
0000
0000
0000
0300
0000
0000
1000
0000
0100
,
0000
0100
0000
0010
0001
0000
0200
0000
0000
0000
0000
0000
,
0000
0300
2000
0000
0000
0000
0000
0000
0000
0000
3100
0000
,
0010
0002
0000
0000
,
0003
0000
0000
0000
0000
0100
0000
2000
0000
0000
0000
0000
,
0000
0000
0000
3000
0002
0000
0000
0000
0000
0000
0000
0000
,
0003
2000
0000
0000
0000
0000
0000
0000
0000
0000
3000
0000
,
0010
0000
0000
0000
0100
0000
0000
0000
0000
0000
1000
0000
,
0200
0000
0000
0000
0000
0000
0000
0300
0000
0002
0000
0000
,
0000
0000
0000
0000
0003
2000
0000
0000
0000
0000
0000
0000
,
0000
3000
0000
0100
0000
0000
0010
0000
0000
0000
0000
0000
,
2000
0000
0000
0000
0000
0000
0000
0000
3000
0000
0100
0000
,
0000
0001
0000
0000
0010
0000
0000
0000
0100
0100
0000
0100
,
0000
0000
0000
1000
0000
0100
0000
0000
0000
0000
0000
0000
,
0001
0000
0000
0000
0000
0010
0000
0000
0000
0100
0000
0000
,
0000
1000
0000
0000
0100
0000
0000
0000
0010
0000
0000
0001
,
0000
0001
0001
0000
0000
0000
0001
0000
0001
0000
0000
0000
,
0000
0000
0000
1000
0000
0000
0002
2000
0000
0000
0000
0000
,
0000
0003
3000
0200
0020
0000
0000
0000
0000
0000
0000
0330
,
0002
2000
0000
0000
0000
0000
0000
0000
0000
0003
3000
0000
,
0010
0000
1000
0100
0000
0000
0001
0010
0000
0000
0202
0000
,
0000
0000
0000
0000
0000
0003
2300
0200
0000
0000
0000
0000
,
0000
0000
3300
0010
0002
0000
0000
0000
0000
0000
0000
0000
,
0000
0003
0000
0000
0000
0000
0000
1000
0000
0020
0000
0000
,
0000
0000
0000
0000
0000
0000
0030
0200
0000
0000
0000
0000
,
0000
0000
0000
0000
0300
2000
0000
0000
0000
0000
0000
0000
,
0000
0000
0000
3000
0000
0000
0000
0001
0010
0000
0000
1100
,
0000
0100
0000
0002
0000
0000
0000
0000
0000
0000
0003
0200
,
0000
0000
0300
0000
;
