#TITLE:Dueling Violins;
#SUBTITLE:;
#ARTIST:Feet of Flames;
#TITLETRANSLIT:;
#SUBTITLETRANSLIT:;
#ARTISTTRANSLIT:;
#CREDIT:;
#BANNER:Dueling Violins Banner.png;
#BACKGROUND:Dueling Violins.png;
#LYRICSPATH:;
#CDTITLE:;
#MUSIC:02 Track 2.mp3;
#OFFSET:-0.120;
#SAMPLESTART:183.740;
#SAMPLELENGTH:15.000;
#SELECTABLE:YES;
#BPMS:0.000=51.340,27.833=89.190,31.667=160.010,323.000=109.190,324.667=109.190,365.625=160.010;
#STOPS:;
#BGCHANGES:;
// cache tags:
#FIRSTBEAT:4.000;
#LASTBEAT:496.000;
#SONGFILENAME:Songs/juju steps/Dueling Violins/02 Track 2.sm;
#HASMUSIC:1;
#HASBANNER:1;
#MUSICLENGTH:226.298;
// end cache tags

//---------------dance-single - ----------------
#NOTES:
     dance-single:
     :
     Hard:
     10:
     0.961,0.904,0.225,0.243,1.000,1416.000,51.000,55.000,0.000,0.000:
0000
0000
0000
0000
,
0002
0000
0000
0000
0000
0000
2003
0000
3200
0000
0000
0302
0000
0000
0000
0000
0003
0002
0000
2003
3200
0000
0320
0000
,
0000
0000
0000
0032
0000
0023
0230
0000
2300
0000
0000
0000
0000
0000
0000
0000
0000
0000
0000
3000
0000
0000
0000
0020
,
0000
0000
0000
0000
0000
0032
0000
2003
0000
0000
3200
0000
0000
0000
0000
0302
0000
0203
0320
0000
0032
0000
0000
0000
,
0000
2003
0000
0000
3200
0000
0320
0000
0000
0000
0000
0000
0000
0000
0000
0000
0000
0000
0030
0000
0000
0002
0000
0000
,
0000
0000
0000
0203
0000
0320
0000
0000
0032
0000
0000
0000
0000
0203
0000
0302
0023
0000
2030
0000
0000
0000
0000
0000
,
3002
0000
0023
0230
0000
0302
0000
0000
0000
0000
0000
0000
0000
0000
0000
0000
0000
0003
0000
0000
0000
0000
0000
1000
,
0000
0000
0000
0000
0000
0000
0000
0000
0001
0000
0000
0100
0000
0000
0010
0000
0000
0000
0000
0000
0100
0000
0000
1000
0000
0000
0100
0000
0010
0000
0001
0000
0010
0000
0100
0000
1000
0000
0100
0000
0010
0000
0001
0000
0010
0000
0000
0000
,
1000
0100
1000
0010
1000
0100
1000
0001
1000
0010
1000
0100
,
1000
0010
1000
0011
0000
0100
0010
0100
0001
1000
0100
0010
,
0100
1000
0010
0100
0001
1000
0100
0110
0000
0001
0010
0001
,
0010
0001
0010
0100
1000
0100
1000
0100
1000
0001
0010
0110
,
0000
1000
0100
1100
0000
0010
0100
0001
0010
0100
1000
1100
,
0000
0000
0000
1001
1000
0001
0100
0010
1000
0100
0010
0001
,
0010
0100
1000
0001
0100
0010
1000
0100
0010
0001
0100
0010
,
1000
0010
1000
0100
1000
0010
1000
0100
1000
0001
1000
0100
,
0010
0100
1000
0001
0100
0001
0010
0100
1000
0100
1000
0010
,
0100
0001
1000
0001
0100
0001
0010
0100
0010
0001
0100
0010
,
1000
0010
0100
0001
1000
0001
0100
0001
0010
0100
1000
0100
,
0010
0001
1000
0001
0100
0010
1000
0001
1000
0010
0100
0010
,
1000
0100
0010
0001
1000
0001
0100
0001
0010
0100
1000
0001
,
0100
0001
1000
0010
0100
0001
1000
0100
1000
0010
0100
0010
,
1000
0001
0100
0001
0010
0100
1000
0001
0100
0001
1000
0010
,
1000
0010
0100
0001
0010
0001
0000
0110
0000
0000
0000
2001
,
0000
3001
1000
0010
1000
0001
0010
0100
1000
0010
0100
0001
,
1000
0100
1000
0020
0000
0130
0001
1000
0100
1000
0010
0100
,
0001
1000
0100
1000
0010
0100
0001
0020
0000
0130
0010
0001
,
0100
0010
1000
0100
0010
0100
1000
0010
0100
0001
0100
0002
,
0000
1003
0100
2000
0000
3001
0100
0001
0010
0100
0010
0001
,
0100
0010
1000
0200
0000
0310
0001
0100
0010
1000
0001
0100
,
0010
1000
0100
0010
0001
0010
0100
2000
0000
3100
0010
0100
,
1000
0100
0010
0001
0100
0001
1000
0001
1000
0001
0100
0002
,
0000
0013
0001
1000
0100
1000
0010
0100
0010
0001
0010
0100
,
0010
1000
0100
0020
0000
0031
1000
0200
0000
0310
0001
0100
,
0010
0100
0001
1000
0100
0010
0100
1000
0001
0100
0001
0010
,
0100
1000
0100
1000
0010
0100
0001
1000
0001
0100
0001
0010
,
0100
0010
0001
0100
0010
1000
0010
0100
0001
1000
0001
0100
,
0001
0010
0100
1000
0100
0010
0001
1000
0001
0100
0010
1000
,
0001
1000
0010
0100
0010
1000
0100
0010
0001
1000
0001
0100
,
0001
0010
0100
1000
0001
0100
0001
1000
0010
0100
0001
1000
,
0100
1000
0010
0100
0010
1000
0001
0100
0001
0010
0100
1000
,
0001
0100
0001
1000
0010
1000
0010
0100
0001
0010
0001
0010
,
0100
1000
0001
0100
0001
1000
0010
0100
0001
1000
0100
0010
,
0001
1000
0010
1000
0100
1000
0010
0100
0001
0100
0010
1000
,
0010
0100
0001
1000
0100
0010
0001
1000
0010
1000
0100
2000
,
0000
3000
0000
0110
0000
0110
0001
0010
0100
1000
0100
1000
,
0010
0100
0010
0100
1001
0000
1001
0001
0010
0001
0010
0100
,
1000
0100
1000
0100
0001
0010
0110
0000
0110
1000
0010
0100
,
0001
1000
0100
0010
0001
0010
1000
0011
0000
0011
1000
0100
,
0010
0100
0010
0001
0010
1000
0100
0010
0110
0000
0110
0010
,
0001
0010
0001
0010
0100
1000
0100
1000
0010
1100
0000
1100
,
0001
0010
0100
0001
0010
0001
1000
0100
0010
0100
1000
0011
,
0000
0011
1000
0100
0010
0001
0010
0100
1000
0100
0010
0001
,
1001
0000
1001
0010
0100
0010
0100
1000
0001
0010
1000
0100
,
0010
0000
0000
0001
0000
0010
0000
0100
0000
1000
0000
0100
0000
0010
0000
0001
0000
0010
0000
0100
0000
1000
0000
0200
,
0000
0000
0000
1300
0000
0001
0000
1000
0000
0001
0000
1000
0000
0100
0000
1000
0000
0100
0000
1000
0000
0001
0000
1000
,
0000
0002
0000
0000
0000
0013
0000
0001
0000
1000
0000
0100
0000
1000
0000
0001
0000
0100
0000
0010
0000
1000
0000
0001
,
0000
0100
0000
0010
0000
1000
0000
0100
0000
1000
0000
0010
0000
1000
0000
0010
0000
0200
0000
0000
0000
0300
0000
0100
,
0000
1000
0000
0100
0000
1000
0000
0100
0000
0000
0000
0010
0000
0001
0000
0010
0000
0100
0000
1000
0000
0100
0000
0010
,
0000
0100
0000
1000
0000
0001
0000
0010
0000
0200
0000
0000
0000
1300
0000
0100
0000
0010
0000
0001
0000
1000
0000
0100
,
0000
0010
0000
0100
0000
1000
0000
0001
0000
0010
0000
0100
0000
0020
0000
0000
0000
0130
0000
1000
0000
0100
0000
0010
,
0000
0001
0000
0001
0000
0010
0000
0001
0000
0010
0000
0100
0000
0010
0000
0001
0000
0020
0000
0000
0000
0130
0000
1000
,
0000
0100
0000
0010
0000
0001
0000
0010
0000
0100
0000
1000
0000
0100
0000
0010
0000
0001
0000
0020
0000
0000
0000
0030
,
0000
1000
0100
0010
0001
0010
0001
0010
0100
0010
0100
1000
,
0100
0010
0001
0010
0100
1000
0100
1000
0100
1000
0100
0010
,
0001
0010
0001
0010
0100
0010
0100
1000
0100
0010
0001
0010
,
0100
1000
0100
1000
0100
1000
0100
0010
0001
0010
0001
0010
,
0100
0010
0100
0001
0010
0001
0010
0100
1000
0100
1000
0100
,
0010
0001
0010
0001
0010
0100
0010
0100
1000
0100
1000
0100
,
0010
0001
0010
0001
0010
0001
0010
0100
0010
0100
1000
1000
,
0100
0010
0001
0010
0001
0010
0100
0010
0100
1000
0100
0100
,
0010
0001
0010
0100
1000
0100
0010
0100
0010
0100
1000
0000
,
1001
1000
0100
0010
0001
0010
0001
0010
0001
0010
0100
1000
,
1000
0100
1000
0100
0010
0001
0010
0001
0010
0001
0010
0100
,
1000
0100
1000
0100
0010
0100
0010
0001
0010
0001
0010
0100
,
1000
0100
0010
0100
0010
0001
0010
0100
1000
0100
1000
0100
,
1000
0100
0010
0001
1000
0100
0010
1000
0001
0010
0100
1000
,
0001
0100
0010
0100
0010
0001
1000
0100
0010
0100
1000
0001
,
0010
0001
0010
0100
0001
0010
1000
0100
0010
0001
0010
0100
,
0010
0001
0010
0100
0010
1000
0100
0010
0001
1000
0100
1000
,
0010
0000
0000
0000
0001
0000
0000
0000
0010
0000
0000
0000
1000
0000
0000
0000
0100
0000
0000
0000
0010
0000
0000
0000
0001
0000
0000
0000
0000
0000
0000
0000
0000
0000
0000
0000
1001
0000
0100
0000
0000
0010
0000
0000
0001
0000
0000
0010
,
0000
0000
0100
0000
0000
1000
0000
0000
0100
0000
0000
1000
0000
0000
0010
0000
0000
0001
0000
0000
0010
0000
0000
0100
0000
0000
1000
0000
0000
0100
0000
0000
1000
0000
0000
0001
0000
0000
0100
0000
0000
0010
0000
0000
0001
0000
0000
0010
,
0000
0000
0100
0000
0000
0010
0000
0000
0001
0000
0000
1000
0000
0000
0100
0000
0000
0010
0000
0000
0100
0000
0000
0010
0000
0000
1000
0000
0000
0100
0000
0000
0010
0000
0000
0001
0000
0000
0010
0000
0000
0001
0000
0000
1000
0000
0000
0100
,
0000
0000
0001
0000
0000
0100
0000
0000
1000
0000
0000
0001
0000
0000
0010
0000
0000
0001
0000
0000
1000
0000
0000
0100
0000
0000
0010
0000
0000
1000
0000
0000
0100
0000
0000
0001
0000
0000
0010
0000
0000
1000
0000
0000
0100
0000
0000
0010
,
0000
0000
0100
0000
0000
0010
0000
0000
0001
0000
0000
0100
0000
0000
1000
0000
0000
0100
0000
0000
0010
0000
0000
0001
0000
0000
0010
0000
0000
0100
0000
0000
0001
0000
0000
1000
0000
0000
0100
0000
0000
0010
0000
0000
0100
0000
0000
0010
,
0000
0000
0001
0000
0000
1000
0000
0000
0100
0000
0000
1000
0000
0000
0100
0000
0000
0010
0000
0000
0001
0000
0000
0010
0000
0000
0001
0000
0000
0010
0000
0000
1000
0000
0100
0000
0000
0001
0000
0000
0010
0000
0000
0100
0000
0000
0010
0000
,
0000
0001
0000
0000
0010
0000
0000
0000
0001
0000
0000
1000
0000
0000
0100
0000
0000
0010
0000
0000
0001
0000
0000
0010
0000
0000
0001
0000
0000
0100
0000
0000
0010
0000
0000
0100
0000
0000
0001
0000
0000
0010
0000
0000
0100
0000
0000
1000
,
0000
0000
0100
0000
0000
1000
0000
0000
0010
0000
0000
0001
0000
0000
0010
0000
0000
0100
0000
0000
1000
0000
0000
0100
0000
0000
0001
0000
0000
0010
0000
0000
1000
0000
0000
0100
0000
0000
0010
0000
0000
0001
0000
0000
1000
0000
0000
1001
,
0000
0000
0000
0000
0000
0000
0000
0000
0000
0000
0000
0000
0000
0000
0000
0000
0000
0000
0000
0000
0000
0000
0000
0000
0110
0000
0000
0000
0000
0000
0000
0000
0000
0000
0000
0000
0000
0000
0000
0000
0000
0000
0010
0000
0000
0000
0000
0000
0000
0000
0000
0100
0000
0000
0000
0000
0000
0000
0000
0000
0000
0000
0000
0000
1001
0000
0000
0000
0000
0000
0000
0000
0000
0000
0000
0000
0000
0000
0000
0000
0000
0000
0000
0000
0001
0000
0000
0000
0000
0000
0000
0000
0000
0100
0000
0000
0000
0000
0000
0000
0000
0000
0000
0000
0000
0000
0000
0000
1100
0000
0000
0000
0000
0000
0000
0000
0000
0000
0000
0000
0000
0000
0000
0000
0000
0000
0100
0000
0000
0000
0000
0000
0000
0000
0000
0001
0000
0000
0000
0000
0000
0000
0000
0000
0000
0000
0000
0000
0000
0000
0011
0000
0000
0000
0000
0000
0000
0000
0000
0000
0000
0000
0000
0000
0000
0000
0000
0000
0100
0000
0000
0000
0000
0000
0000
0000
0000
1000
0000
0000
0000
0000
0000
0000
0000
0000
0000
0000
0000
0000
0000
0000
,
1001
0000
0000
0000
0000
0000
0010
0000
0000
0100
0000
0000
0000
0000
1000
0000
0000
0000
0100
0000
0000
0000
0010
0000
0000
0000
0001
0000
0000
0000
0010
0000
0000
0000
0001
0000
0000
0000
0000
0000
0000
0000
1001
0000
0000
0000
0000
0000
0010
0000
0000
0100
0000
0000
0000
0000
0011
0000
0000
0000
0000
0000
0010
0000
,
0000
1000
0000
0000
0000
0000
0101
0000
0000
0000
0000
0000
0000
1000
0000
0000
0010
0000
0000
0000
1100
0000
0000
0000
0000
0000
0001
0000
0000
1000
0000
0000
0000
0000
0110
0000
0000
0000
0000
0000
0100
0000
0000
0010
0000
0000
0000
0000
1001
0000
0000
0000
0000
0000
0100
0000
0000
0010
0000
0000
0000
0000
0001
0000
,
0000
0000
0000
0000
0000
0000
0010
0000
0000
0000
0000
0000
0000
0000
0000
0000
0000
0000
0100
0000
0000
0000
0000
0000
0000
0000
0000
0000
0000
0000
0010
0000
0000
0000
0000
0000
0000
0000
0000
0000
0000
0000
0001
0000
0000
0000
0000
0000
0000
0000
0000
0000
0000
0000
0100
0000
0000
0000
0000
0000
0000
0000
0000
0000
0000
0000
1000
0000
0000
0000
0000
0000
0000
0000
0000
0000
0000
0000
0000
0000
0000
0000
0000
0000
0000
0000
0000
0000
0010
0000
0000
0000
0000
0000
0000
0000
0000
0000
0000
0000
0000
0000
0000
0000
0001
0000
0000
0000
0000
0000
0000
0000
0000
0000
0000
0000
0000
0000
0000
0000
0010
0000
0000
0000
0000
0000
0000
0000
0000
0000
0000
0000
0000
0000
0000
0000
0100
0000
0000
0000
0000
0000
0000
0000
0000
0000
0000
0000
0000
0000
0000
0000
0010
0000
0000
0000
0000
0000
0000
0000
0000
0000
0000
0000
0000
0000
0000
0000
0001
0000
0000
0000
0000
0000
0000
0000
0000
0000
0000
0000
0000
0000
0000
0000
1000
0000
0000
0000
0000
0000
0000
0000
,
0000
0100
0000
0010
0000
0100
0000
0001
0000
0010
0000
0100
0000
0001
0000
1000
0000
0100
0000
1000
0000
0010
0000
0001
,
0000
1000
0000
0100
0000
0010
0000
0100
0000
0010
0000
0001
0000
0010
0000
0100
0000
1000
0000
0100
0000
1000
0000
0100
,
0000
0010
0000
0100
0000
0010
0000
0001
0000
1000
0000
0100
0000
0010
0000
0100
0000
0001
0000
0100
0000
0010
0000
0100
,
0000
1000
0000
0100
0000
1000
0000
0001
0000
0010
0000
0001
0000
0100
0000
0010
0000
1000
0000
0001
0000
1000
0000
0100
,
0000
0010
0000
1000
0000
0100
0000
0010
0000
0001
0000
0010
0000
0001
0000
0001
0000
0001
0000
0100
0000
0010
0000
0100
,
0000
1000
0000
1000
0000
0100
0000
0010
0000
0100
0000
0010
0000
0001
0000
0010
0000
0100
0000
1000
0000
0100
0000
0010
,
0000
0100
0000
1000
0000
0100
0000
0001
0000
0010
0000
1000
0000
1000
0000
0010
0000
0100
0000
0010
0000
0001
0000
1000
,
0000
0001
0000
0010
0000
0100
0000
0001
0000
0100
0000
0001
0000
0010
0000
0100
0000
0010
0000
0001
0000
0010
0000
0001
,
0000
0100
0000
1000
0000
0100
0000
1000
0000
0001
0000
0010
0000
1000
0000
0100
0000
1000
0000
0001
0000
0010
0000
0100
,
0000
0010
0000
0100
0000
1000
0000
0010
0000
0001
0000
1000
0000
0100
0000
0010
0000
0001
0000
0010
0000
0001
0000
0010
,
0000
0100
0000
0010
0000
0100
0000
0010
0000
0100
0000
1000
0000
0100
0000
1000
0000
0100
0000
0100
0000
0010
0000
0010
,
0000
0001
0000
0001
0000
0010
0000
0010
0000
0100
0000
0100
0000
1000
0000
1000
0000
0100
0000
0010
0000
0001
0000
0010
,
0000
0100
0000
1000
0000
1000
0000
0010
0000
0001
0000
0010
0000
0100
0000
0010
0000
1000
0000
0100
0000
1000
0000
0010
,
0000
0100
0000
0010
0000
0001
0000
0010
0000
0001
0000
0100
0000
1000
0000
0100
0000
0010
0000
0001
0000
0010
0000
0001
,
0000
1000
0000
0100
0000
1000
0000
0100
0000
0010
0000
0001
0000
0010
0000
0100
0000
1000
0000
0100
0000
1000
0000
0011
,
0000
1000
0000
0100
0000
0010
0000
0001
0000
0010
0000
0100
0000
1000
0000
0100
0000
0010
0000
0001
0000
0010
0000
0100
,
0000
1000
0000
0100
0000
0010
0000
0001
0000
1010
0000
0001
0000
0010
0000
0100
0000
0001
0000
1000
0000
0100
0000
0010
,
0000
0001
0000
0100
0000
0001
0000
0010
0000
0100
0000
0010
0000
1000
0000
0110
0000
0100
0000
0010
0000
0001
0000
0100
,
0000
1000
0000
0001
0000
0010
0000
0001
0000
0100
0000
1000
0000
0001
0000
1000
0000
0010
0000
0100
0000
0001
0000
1100
,
0000
0001
0000
0010
0000
0100
0000
1000
0000
0001
0000
1000
0000
0010
0000
0100
0000
0001
0000
1000
0000
0001
0000
0010
,
0000
1000
0000
0100
0000
1000
0000
0110
0000
1000
0000
0010
0000
0001
0000
0001
0000
0100
0000
0010
0000
1000
0000
0100
,
0000
1000
0000
0001
0000
0010
0000
0100
0000
0001
0000
0010
0000
0100
0000
1010
0000
0001
0000
0010
0000
0100
0000
1000
,
0000
0100
0000
1000
0000
0100
0000
0010
0000
0100
0000
0010
0000
1000
0000
0010
0000
0001
0000
0010
0000
1100
0000
0010
,
0000
0001
0000
0010
0000
0100
0000
1000
0000
0100
0000
0001
0000
0010
0000
1000
0000
0100
0000
0001
0000
0010
0000
0001
,
0000
0010
0000
0100
0000
1000
0000
0010
0000
0100
0000
0010
0000
0001
0000
1000
0000
0001
0000
0100
0000
0010
0000
1000
,
0000
0001
0000
0100
0000
1010
0000
0001
0000
0010
0000
1100
0000
0001
0000
1000
0000
0010
0000
0100
0000
1000
0000
0010
,
0000
0001
0000
1000
0000
1000
0000
0100
0000
0010
0000
0001
0000
0100
0000
0010
0000
1000
0000
0110
0000
0001
0000
0010
,
0000
1000
0000
0100
0000
1000
0000
0010
0000
0001
0000
0100
0000
1000
0000
0010
0000
1000
0000
0100
0000
0010
0000
0100
,
0000
0010
0000
1100
0000
0001
0000
1000
0000
0100
0000
0001
0000
0010
0000
1000
0000
0100
0000
0001
0000
0100
0000
1000
,
0000
0001
0000
1000
0000
0010
0000
0001
0000
1000
0000
0110
0000
0100
0000
0010
0000
0001
0000
0001
0000
1000
0000
1000
,
0000
0100
0000
0010
0000
1000
0000
1000
0000
0010
0000
0010
0000
0001
0000
0220
0000
0000
0000
0000
0000
0000
0000
0000
,
0000
0000
0000
0000
,
0330
0000
0000
0000
;
