#TITLE:B.B Revenge;
#SUBTITLE:;
#ARTIST:AKHT;
#TITLETRANSLIT:;
#SUBTITLETRANSLIT:;
#ARTISTTRANSLIT:;
#CREDIT:Beatdown;
#BANNER:BB revenge.png;
#BACKGROUND:BB revenge-bg.png;
#LYRICSPATH:;
#CDTITLE:super_sonic.PNG;
#MUSIC:BB revenge.mp3;
#OFFSET:-0.840;
#SAMPLESTART:202.900;
#SAMPLELENGTH:15.000;
#SELECTABLE:YES;
#BPMS:0.000=204.020;
#STOPS:;
#BGCHANGES:;
// cache tags:
#FIRSTBEAT:16.000;
#LASTBEAT:871.000;
#SONGFILENAME:Songs/Definitive Keyboard Megapack/B.B.- Revenge(SonicX)/BB revenge.sm;
#HASMUSIC:1;
#HASBANNER:1;
#MUSICLENGTH:259.113;
// end cache tags

//---------------dance-single - ----------------
#NOTES:
     dance-single:
     :
     Challenge:
     12:
     1.000,1.000,0.232,0.019,0.562,1847.000,60.000,5.000,0.000,0.000:
0000
0000
0000
0000
,
0000
0000
0000
0000
,
0000
0000
0000
0000
,
0000
0000
0000
0000
,
2001
0000
0000
0000
,
0000
0000
0000
3000
,
0201
0000
0000
0000
0000
0300
0000
1001
,
0000
0000
0001
0100
0010
0001
0010
0100
1000
0001
0100
0010
1000
0100
0010
0001
,
1000
0100
0001
0010
0001
0100
0010
1000
,
0100
0001
0100
0010
1000
0010
0001
0100
,
0001
0010
1000
0001
0100
1000
0010
0001
,
0010
0100
1000
0100
1000
0001
0100
0001
,
0100
1000
0001
0100
0001
0010
0100
1000
,
0001
0100
0010
1000
0100
0010
0001
0100
,
0010
0001
0100
0010
1000
0100
0001
0100
,
0001
0010
1000
0100
1000
0000
0001
0100
0010
1000
0100
0000
0000
0000
0001
0000
,
0000
0001
1000
0010
0100
0001
0100
0010
,
1000
0010
0100
1000
0001
0100
0010
0001
,
1000
0010
0100
0001
1000
0100
0001
0010
,
0100
0001
1000
0010
0001
0010
0001
1000
,
0010
0001
1000
0001
0010
0100
0010
1000
,
0001
0100
0010
0100
1000
0010
0001
0100
,
0001
0000
0011
0000
0110
0000
1100
0000
1000
0000
0110
0000
,
1000
0100
0010
0100
0001
0010
0001
0010
1000
0100
0001
1000
0100
0010
0100
0010
,
0001
0000
1000
0010
0001
0010
1000
0000
0100
0000
0010
0000
1000
0000
0001
0000
,
0100
0000
0010
0001
0010
0100
1000
0000
0001
0000
0100
0000
1000
0000
0010
0000
,
0001
0000
1000
0001
0100
0010
1000
0000
0001
0000
0100
0000
1000
0000
0010
0000
,
0100
0000
0001
1000
0100
0010
0001
0000
1000
0000
0100
0000
0001
0000
0010
0000
,
0001
0000
1000
0010
0001
0100
1000
0000
0010
0000
0001
0000
1000
0000
0010
0000
,
0100
0000
0010
0001
0010
0001
0100
0000
1000
0000
0001
0000
0100
0000
0010
0000
,
0001
0000
0100
1000
0100
1000
0010
0000
0100
0000
0010
0100
0001
0100
0001
0000
,
1000
0100
0001
0100
1000
0000
0001
0010
1000
0010
0001
0000
1001
0000
0000
0000
,
0001
0000
1000
0010
1000
0100
1000
0000
0001
0000
0100
0000
0010
0000
1000
0000
,
0010
0000
0001
0100
0001
0010
0001
0000
0100
0000
1000
0000
0010
0000
0001
0000
,
0010
0000
0100
1000
0010
0001
1000
0000
0100
0000
0001
0000
0010
0000
0100
0000
,
0001
0000
1000
0010
0100
0010
0001
0000
0010
0000
1000
0000
0001
0000
0100
0000
,
0010
0000
0100
1000
0010
0100
0001
0000
0010
0000
1000
0000
0010
0000
0100
0000
,
0001
0000
0010
1000
0010
0100
0001
0000
0010
0000
1000
0000
0001
0000
0100
0000
,
0010
0000
1000
0001
1000
0010
1000
0000
0100
0000
0001
1000
0001
0100
0001
0000
,
1000
0100
1000
0010
0001
0000
0001
0010
0001
0100
1000
0000
1001
0000
0000
0000
,
0001
0100
0010
0001
1000
0010
0100
1000
,
0001
1000
0100
0010
1000
0001
0010
0100
,
1000
0001
0100
0010
0001
0100
0010
1000
,
0100
0010
1000
0001
0100
0010
1000
0001
,
0010
0100
1000
0100
0010
0001
0100
1000
,
0100
0001
0010
0100
0010
1000
0001
0010
,
1000
0000
0100
0000
1000
0000
0001
0000
0100
0000
0001
0000
0010
0000
0001
0010
,
0000
0000
0010
0100
0000
0000
0100
1000
0000
0000
1000
0100
0000
0000
0100
0010
,
0001
1000
0100
0001
1000
0001
0010
1000
,
0001
0100
0010
1000
0001
0100
0010
0001
,
1000
0100
0010
0001
1000
0001
0100
0010
,
1000
0001
0010
0100
1000
0001
0100
0010
,
0001
1000
0010
1000
0001
0100
0010
0100
,
0001
0010
0001
0010
0100
1000
0001
0100
,
0010
0000
1000
0000
0010
0000
0001
0000
0100
0000
1000
0000
0010
0000
0001
0010
,
0000
0000
0010
0100
0000
0000
0100
1000
0100
0000
0010
0000
0001
0000
0010
0000
,
1000
0001
1000
0100
0001
1000
0001
0010
,
0100
1000
0001
0100
0010
1000
0010
0001
,
1000
0100
1000
0010
1000
0001
0010
0100
,
1000
0100
0010
1000
0001
0100
0010
0001
,
0100
0010
1000
0100
0001
0010
0100
1000
,
0001
0100
0010
1000
0001
0010
0001
0010
,
1000
0100
1000
0100
0001
0010
0100
1000
,
0001
0000
0010
0000
0100
0000
1000
0000
0001
0000
0000
0010
1000
0000
0100
1000
,
0001
0000
0100
0010
1000
0000
0100
0000
1000
0000
0001
0010
0100
0000
0010
0000
,
1000
0000
0010
0100
0001
0000
1000
0000
0100
0000
0010
0001
1000
0000
0001
0000
,
0010
0000
0100
0001
1000
0000
0010
0000
1000
0000
0001
0010
0100
0000
0010
0000
,
1000
0000
0001
0100
0010
0000
0100
0000
1000
0000
0001
1000
0100
0000
0010
0000
,
1000
0000
0010
1000
0100
0000
0010
0000
0001
0000
0100
0010
0001
0000
1000
0000
,
0100
0000
0001
0010
1000
0000
0100
0000
0001
0000
0010
1000
0010
0000
0100
0000
,
0001
0000
0100
1000
0100
0000
0010
0000
1000
0000
0001
0100
0001
0000
0010
0000
,
1100
0101
1010
0110
,
1000
0000
0010
0000
0100
0000
0001
0010
1000
0000
0010
0000
0100
0000
1000
0100
,
0001
0000
0100
0000
0010
0000
1000
0100
0001
0000
0100
0000
0010
0000
0001
0100
,
1000
0000
0001
0000
0100
0000
0010
0100
0001
0000
0100
0000
0010
0000
1000
0001
,
0010
0000
0001
0000
0010
0000
0100
1000
0010
0000
0001
0000
0010
0000
0100
0010
,
1000
0000
0010
0000
0100
0000
0001
1000
0010
0000
0100
0000
1000
0000
0001
0100
,
0010
0000
1000
0000
0010
0000
0100
1000
0001
0000
0010
0000
1000
0000
0010
0001
,
0100
0000
0010
0000
0001
0000
0100
1000
0010
0000
0001
0000
1000
0000
0010
1000
,
0100
0000
0001
0010
0100
0000
1000
0000
0010
0100
0001
0000
0010
1000
0010
1000
,
0001
0000
0010
0000
1000
0000
0100
1000
0001
0000
0010
0000
0100
0000
1000
0100
,
1000
0000
0100
0000
0010
0000
0100
0010
0001
0000
0010
0000
1000
0000
0100
0010
,
0001
0000
0010
0000
0100
0000
1000
0010
0001
0000
1000
0000
0010
0000
0100
1000
,
0001
0000
0100
0000
1000
0000
0010
0100
0010
0000
0001
0000
0010
0000
0100
0010
,
1000
0000
0010
0000
0001
0000
0100
0010
1000
0000
0100
0000
0010
0000
0001
0100
,
0010
0000
1000
0000
0010
0000
1000
0100
0001
0000
0010
0000
1000
0000
0100
0010
,
0001
0000
0010
0000
0001
0000
0010
0100
1000
0000
0100
0000
1000
0000
0100
1000
,
0001
0000
0110
0000
0000
0000
1001
0000
1000
0100
0010
0001
0010
0000
0100
1000
,
0001
0000
0000
0000
0000
0000
0000
1010
,
0000
0101
0000
0000
0000
0000
0110
0000
,
1001
0000
0000
0000
0000
0000
0000
0101
,
0000
1010
0000
0000
0000
0000
1001
0000
,
0110
0000
0001
0010
1000
0000
0100
0000
0010
0000
0001
0010
0100
0000
1001
0000
,
0000
0000
1100
0000
1000
0100
0010
0000
0001
0000
0100
0000
1100
0000
0000
0000
,
1001
0000
0100
0010
0001
0000
0010
0000
0001
0000
1000
0100
0001
0000
1100
0000
,
0000
0000
0011
0000
0000
0000
0000
0000
0000
0000
1000
0001
1000
0001
1000
0001
,
0100
1000
0010
0100
0001
0010
0100
1000
,
0001
0100
0010
1000
0001
0100
0010
0001
,
0100
0010
1000
0100
0010
0001
0010
0100
,
1000
0001
1000
0010
0001
0100
0010
1000
,
0100
0001
0100
0010
1000
0010
0001
0010
,
0100
0000
1000
0000
0100
0000
1000
0000
0010
0000
0100
0000
0001
0010
0100
0010
,
1000
0100
0010
0001
,
1000
0100
0000
0000
0100
0010
0000
0000
0010
0001
0100
0001
1000
0000
0001
0000
,
1000
0100
0010
0100
0001
0010
0100
0010
,
1000
0100
1000
0010
0100
0010
0100
0001
,
0010
0100
1000
0010
0001
0010
0100
0001
,
1000
0100
0010
1000
0100
0010
0001
0100
,
1000
0010
0100
0001
0010
0100
1000
0100
,
0001
0100
0010
0001
0010
0100
0010
0100
,
1000
0100
0010
1000
0001
0100
0010
1000
,
0010
0001
1000
0010
0100
1000
0001
0100
,
1000
0100
0010
0001
0100
1000
0100
0001
,
0100
0010
0100
1000
0100
0001
0100
0010
,
0100
1000
0010
0100
0001
0010
1000
0001
,
0010
0100
0010
0100
0001
0010
1000
0100
,
0010
0100
0001
0100
0010
0100
1000
0100
,
0001
0010
1000
0100
0010
1000
0001
0100
,
1001
0000
0000
0101
0010
0100
0011
0000
,
1000
0000
0101
1000
0100
0010
0001
0100
0010
1000
0001
0100
0001
0000
0000
0000
,
1000
0010
0100
1000
0010
0000
0001
0100
,
0010
0001
0010
0100
0000
1000
0000
0000
,
0001
0100
0010
0100
0001
0000
1000
0010
,
0100
0000
0010
0000
1000
0000
0010
0000
0001
0010
0100
1000
0010
0100
0001
1000
,
0001
0100
0010
1000
0100
0000
0001
0100
,
0010
1000
0010
0001
0000
1000
0000
0000
,
0001
0100
0010
0100
0001
0000
1000
0010
,
0100
0000
0010
0000
1000
0000
0010
0000
0001
0100
0010
0100
1000
0010
0001
0100
,
1000
0100
0010
0100
0001
1000
0010
0100
,
0001
1000
0100
0010
0001
0010
0100
1000
,
0001
0100
0010
1000
0001
0100
0010
0100
,
1000
0000
0010
0000
0100
0000
0001
0000
0100
1000
0100
0010
0001
0100
0001
0010
,
0001
0010
0100
1000
0001
0010
0100
1000
,
0001
0100
0010
1000
0001
0100
0010
1000
,
0001
0010
1000
0100
0001
0010
1000
0100
,
0001
0000
0000
1000
0000
0000
0010
0000
0000
0100
0000
0000
0001
0000
0010
0000
1000
0000
0001
0000
0100
0000
1000
0000
,
0011
1000
0010
0100
,
0001
0000
0000
0000
0001
0010
0100
1000
0001
0010
1000
0100
0010
0001
0100
0010
,
1100
0000
1100
0000
0000
0000
0100
0000
0001
0000
0010
0000
1000
0000
0001
0010
,
0001
0000
1000
0010
1000
0000
0100
0010
0100
0000
0001
0100
0001
0000
0010
0001
,
0010
1000
0010
0001
0100
0010
1000
0100
,
0001
0010
0100
1000
0010
0100
0001
0010
,
0001
0100
0010
1000
0100
0010
0001
0100
,
0010
1000
0001
0100
0001
0010
0001
0100
,
0010
1000
0001
0010
1000
0100
0001
0010
,
1000
0100
0010
0100
0001
0010
0100
0010
,
1000
0000
0100
0000
0001
0000
0100
0000
0001
0000
0010
0100
1000
0000
0001
0010
,
0100
0000
0001
0010
1000
0000
0001
0100
1000
0010
1000
0010
0100
0001
0100
0001
,
1000
0000
0010
1000
0100
0000
0001
0000
0010
0000
0100
0010
0001
0000
1000
0000
,
0010
0000
0100
0001
1000
0000
0010
0000
0001
0000
0010
1000
0100
0000
1000
0000
,
0010
0000
0001
0010
0100
0000
1000
0000
0100
0000
1000
0100
0001
0000
0010
0000
,
0001
0000
0100
0001
1000
0000
0010
0000
0100
0000
0001
0010
1000
0000
0010
0000
,
0001
0000
1000
0100
0010
0000
0100
0000
0001
0000
0010
1000
0100
0000
0001
0000
,
1000
0000
0010
1000
0100
0000
1000
0000
0001
0000
0100
0001
0010
0000
1000
0000
,
0001
0000
0010
0100
1000
0000
0100
0000
0001
0000
1000
0100
0010
0000
0001
0010
,
0100
0000
1000
0100
0001
0000
0010
1000
0001
0010
0001
0010
0100
1000
0100
1000
,
0001
0100
0010
1000
0010
0001
0100
0010
,
1000
0000
0100
0000
0001
0000
0100
0000
0010
0000
0001
0010
0100
0010
1000
0100
,
0010
0001
0100
0000
1000
0000
0010
0000
1000
0000
0001
0000
0100
0000
0010
0000
,
0001
0000
0010
0000
1000
0000
0001
0000
0010
0000
1000
0000
0001
0010
0001
1000
,
0100
1000
0010
0100
,
0001
0000
0000
0000
0010
0000
0000
0000
1000
0100
0010
0100
0001
0010
0001
0010
,
1000
0100
0010
0000
0100
0010
0001
0000
1000
0100
0001
0000
1000
0010
0001
0000
,
0010
0100
0010
0000
0001
0010
0001
0000
1000
0100
0010
0100
0001
0010
0100
0010
,
0001
1000
0010
0100
0001
0010
0100
1000
,
0001
0010
1000
0010
0100
0001
0100
1000
,
0100
0001
0010
1000
0100
1000
0001
0100
,
0001
0010
0001
1000
0100
0001
0010
0100
,
1000
0001
0100
0010
1000
0001
0010
0100
,
1000
0010
0100
0001
0010
1000
0001
0100
,
0010
0100
1000
0001
0010
1000
0100
0010
,
0100
0000
1000
0000
1000
0000
1000
0000
1000
0000
0000
0000
1000
0100
0010
0001
,
1100
0011
1010
0101
,
0110
1100
0101
0011
,
1001
0100
0010
1000
0001
0100
0010
1000
,
0100
0000
0010
0000
0001
0000
0100
0000
0010
0000
0100
0000
1000
0100
0010
0000
,
1001
1100
1001
0011
,
0110
1010
0011
0101
,
1001
0100
0010
1000
0001
0100
0010
1000
,
0100
0010
0001
0010
0001
1000
0010
0100
,
0001
0000
1000
0010
0001
0010
1000
0000
0100
0000
0010
0000
1000
0000
0001
0000
,
0100
0000
0010
0001
0010
0100
1000
0000
0001
0000
0100
0000
1000
0000
0010
0000
,
0001
0000
1000
0001
0100
0010
1000
0000
0001
0000
0100
0000
1000
0000
0010
0000
,
0100
0000
0001
1000
0100
0010
0001
0000
1000
0000
0100
0000
0001
0000
0010
0000
,
0001
0000
1000
0010
0001
0100
1000
0000
0010
0000
0001
0000
1000
0000
0010
0000
,
0100
0000
0010
0001
0010
0001
0100
0000
1000
0000
0001
0000
0100
0000
0010
0000
,
0001
0000
0100
1000
0100
1000
0010
0000
0100
0000
0010
0100
0001
0100
0001
0000
,
1000
0100
0001
0100
1000
0000
0001
0010
1000
0010
0001
0000
1001
0000
0000
0000
,
0001
0000
1000
0010
1000
0100
1000
0000
0001
0000
0100
0000
0010
0000
1000
0000
,
0010
0000
0001
0100
0001
0010
0001
0000
0100
0000
1000
0000
0010
0000
0001
0000
,
0010
0000
0100
1000
0010
0001
1000
0000
0100
0000
0001
0000
0010
0000
0100
0000
,
0001
0000
1000
0010
0100
0010
0001
0000
0010
0000
1000
0000
0001
0000
0100
0000
,
0010
0000
0100
1000
0010
0100
0001
0000
0010
0000
1000
0000
0010
0000
0100
0000
,
0001
0000
0010
1000
0010
0100
0001
0000
0010
0000
1000
0000
0001
0000
0100
0000
,
0010
0000
1000
0001
1000
0010
1000
0000
0100
0000
0001
1000
0001
0100
0001
0000
,
1000
1010
0110
0011
,
0001
1000
0010
1000
0001
0100
0010
1000
,
0100
0010
1000
0001
0100
0010
0001
0010
,
1000
0100
1000
0010
1000
0001
0010
0100
,
0001
0010
0100
1000
0001
0100
0010
0001
,
0100
0010
1000
0100
0010
1000
0001
0100
,
0010
1000
0001
0100
0010
1000
0100
0010
,
0001
0000
0100
0000
0010
0000
0001
0010
0100
1000
0100
0000
0010
0000
0001
0000
,
0100
0010
1000
0010
0001
0000
0010
0100
0001
0100
1000
0000
1001
0000
0000
0000
,
0010
0100
0010
1000
0010
0100
0010
0001
,
0010
1000
0010
0100
0010
1000
0010
0001
,
0010
0100
0010
1000
0010
0100
0010
0001
,
1000
0010
0100
0001
0010
0100
1000
0100
,
0001
1000
0010
1000
0010
0001
0010
0100
,
0001
1000
0010
0001
0100
0010
1000
0100
,
1000
0100
0010
0100
0001
0010
0001
0010
0100
1000
0100
0001
0010
0001
0010
1000
,
0100
0010
0002
0000
0000
0000
0000
0000
0000
0000
0000
0000
0000
0000
0003
0000
,
1000
0100
0010
0000
0001
0010
0100
0000
1000
0100
0001
0000
0010
1000
0001
0000
,
0100
0010
1000
0000
0010
0001
0100
0000
0010
1000
0100
0000
0010
0001
0100
0000
,
1000
0100
1000
0100
0000
0000
0001
0010
0001
0010
0100
1000
0000
0000
1000
0100
,
0010
0100
0010
0001
0010
0100
1000
0001
0100
0010
1000
0010
2002
0000
0000
0000
,
0000
0000
0000
0000
,
0000
0003
0000
3000
;
