#TITLE:[F-1] Reality;
#SUBTITLE:;
#ARTIST:The Berzerker;
#TITLETRANSLIT:;
#SUBTITLETRANSLIT:;
#ARTISTTRANSLIT:;
#CREDIT:Aoreo;
#BANNER:../Beast 4 - bn.png;
#BACKGROUND:../Beast 4 - bg.png;
#LYRICSPATH:;
#CDTITLE:;
#MUSIC:Reality.ogg;
#OFFSET:-0.033;
#SAMPLESTART:63.060;
#SAMPLELENGTH:12.000;
#SELECTABLE:YES;
#BPMS:0.000=259.000;
#STOPS:;
#BGCHANGES:;
// cache tags:
#FIRSTBEAT:42.250;
#LASTBEAT:337.500;
#SONGFILENAME:Songs/Beast Aoreo BEAST! 4/Reality - [Aoreo]/Reality.sm;
#HASMUSIC:1;
#HASBANNER:1;
#MUSICLENGTH:78.996;
// end cache tags

//---------------dance-single - J. Nero----------------
#NOTES:
     dance-single:
     J. Nero:
     Challenge:
     19:
     1.000,1.000,0.392,0.304,1.000,730.000,31.000,24.000,30.000,0.000:
0000
0000
0000
0000
,
0000
0000
0000
0000
,
0000
0000
0000
0000
,
0000
0000
0000
0000
,
0000
0000
0000
0000
,
0000
0000
0000
0000
,
0000
0000
0000
0000
,
0000
0000
0000
0000
,
0000
0000
0000
0000
,
0000
0000
0000
0000
,
0000
0000
0000
0000
0000
0000
0000
0000
0000
0M00
0000
00M0
0000
0M00
0000
00M0
,
0000
0000
0000
0M00
0000
0000
00M0
0000
0000
0M00
0000
0000
00M0
0000
0000
0M00
0000
0000
00M0
0000
0000
0M00
0000
0000
00M0
0000
0000
0M00
0000
0000
00M0
0000
0M00
0000
00M0
0000
0M00
0000
00M0
0000
0M00
0000
00M0
0000
0M00
0000
00M0
0000
,
0M00
00M0
0M00
00M0
0M00
00M0
0M00
00M0
1002
0000
0000
0000
0000
0000
0000
0000
0023
0000
0000
0000
0000
0000
0000
0000
0230
0000
0000
0000
0000
0000
0000
0000
,
0320
0032
2003
3020
,
0130
0001
1000
0010
2000
0000
0000
0000
3200
0000
0000
0000
0320
0000
0000
0000
,
0230
0000
0000
0000
1300
0000
0100
0000
0010
0000
0100
0000
1000
0000
0001
0100
,
0010
0000
1000
0100
0010
0100
1000
0001
,
0100
0010
0100
0001
1000
0100
0010
0001
,
1000
0010
0100
0000
0001
0000
0100
0000
0010
0000
0100
0000
0001
0000
0010
0000
,
0100
1000
0001
1000
0100
0010
0100
1000
,
0001
0000
1000
0100
0010
0100
1000
0001
,
0100
0010
1000
0100
0010
0001
1000
0100
,
1000
0001
0100
0001
0010
0100
1000
0001
,
0100
0010
1000
0001
0010
0100
0010
0001
,
1000
0100
1000
0001
0100
0001
1000
0010
,
0100
0001
0100
0010
1000
0100
0010
0001
,
1000
0000
0010
1000
0100
0000
0010
0000
0100
0000
1000
0000
0001
0000
0100
0000
,
0010
1000
0010
0100
0001
0010
0100
0010
,
0001
1000
0100
0010
0001
1000
0100
1000
,
0010
0100
0001
0010
0100
1000
0010
0100
,
0010
1000
0100
1000
0001
0010
0100
1000
,
0001
0000
1000
0100
1000
0000
0001
0100
0001
0010
0001
1000
0100
1000
0010
1000
,
0001
0100
0010
0100
0002
0000
0000
0000
0023
0000
0000
0000
0230
0000
0000
0000
,
2300
3002
0203
0320
,
0130
0001
1000
0100
2000
0000
0000
0000
3200
0000
0000
0000
0320
0000
0000
0000
,
0032
0000
0000
0000
1003
0000
0001
0000
1000
0000
0010
0000
1000
0000
0001
0100
,
0001
0000
0000
0000
1000
0100
1000
0001
0100
0001
0010
0001
1000
0100
0010
0001
,
1000
0100
1000
0010
1000
0001
0100
0001
1000
0010
0100
0010
1000
0100
0010
0001
,
1000
0100
1000
0001
0100
0001
0010
0001
1000
0100
0010
0001
1000
0100
1000
0010
,
1000
0001
0100
0010
0100
0001
0010
0100
1000
0001
1000
0100
1000
0010
0100
0001
,
0100
0001
0010
0100
1000
0000
0000
0000
1001
0000
0000
0000
1100
0000
0000
0000
,
0110
0011
1001
1010
,
0110
0101
1010
0110
,
1001
0011
0110
1100
,
0000
1001
0011
0110
,
1100
1001
0101
1010
,
0110
0101
1010
1100
,
0110
0011
1001
2000
,
3000
0000
0000
0000
0001
0100
0001
1000
0100
1000
0010
1000
0001
0100
0001
1000
,
0100
0010
0001
1000
0001
0100
0001
0010
0100
1000
0001
1000
0100
1000
0010
0100
,
0010
1000
0001
0100
0001
0010
0001
1000
0100
0010
0001
1000
0010
1000
0100
1000
,
0001
0010
0100
1000
0001
0100
0001
1000
0010
1000
0001
0100
0001
0010
0100
1000
,
0001
0100
0001
1000
0100
1000
0010
1000
0001
0100
0010
1000
0010
0100
0001
0010
,
0001
0010
0100
1000
0001
1000
0010
1000
0100
0010
0001
1000
0100
1000
0001
0100
,
0001
1000
0010
0100
0001
0010
0001
0010
0100
1000
0001
0100
0001
1000
0100
1000
,
0010
1000
0001
0100
0001
1000
0100
0010
0001
1000
0001
0100
0001
0010
0100
1000
,
0001
0100
0010
0100
0001
1000
0100
1000
0001
0000
1000
0000
0010
0000
0100
0000
,
0001
0010
0001
0010
0100
1000
0010
0100
,
0010
1000
0001
0100
0010
1000
0100
0010
,
0001
1000
0010
0100
0010
1000
0001
1000
,
0100
0010
0001
1000
0001
0010
0100
0010
,
0001
1000
0010
0100
0010
1000
0100
0010
,
0100
1000
0001
0010
0100
0010
0001
1000
,
0010
0100
0001
1000
0100
0010
0001
1000
,
0001
1000
0020
0000
0000
0000
0030
0000
,
1000
0100
0010
0001
1000
0000
0000
0000
0000
0000
0000
0000
0000
0000
1001
0000
,
0000
1000
0001
0000
0000
0000
0000
0000
,
0000
1000
0001
0010
0100
0000
1000
0010
1000
0000
0001
0000
0100
0010
0100
0001
,
0010
0100
1000
0001
0100
0001
1000
0100
1000
0010
1000
0001
0100
0001
1000
0100
,
1000
0001
0100
0001
0010
0100
1000
0001
0100
0001
1000
0010
0100
0010
1000
0001
,
1000
0100
1000
0010
0100
0001
1000
0001
0100
0001
0010
0100
1000
0001
0100
0001
,
1000
0010
1000
0100
1000
0001
0100
0001
1000
0100
0010
0001
1000
0010
0100
0001
,
0010
0001
1000
0100
0010
0001
1000
0100
1000
0100
0010
0001
0100
0001
0100
0010
,
1000
0001
1000
0100
1000
0010
0100
0001
0100
0001
1000
0010
1000
0100
1000
0001
,
0100
0001
1000
0001
0010
0100
1000
0001
0100
0010
0100
0001
0010
0100
1000
0001
,
0100
0010
0100
0001
1000
0001
0100
0001
0010
0100
1000
0001
1000
0100
1000
0010
,
0100
0010
0100
0001
1000
0001
0010
0100
1000
0001
0100
0001
0010
0001
1000
0100
,
1000
0100
0010
0001
1000
0001
0100
0010
0100
0001
0010
0100
1000
0001
0100
0010
,
0100
0001
1000
0100
1000
0010
0100
0010
1000
0001
0100
0001
1000
0100
1000
0001
,
1000
0010
0100
0010
1000
0100
1000
0100
0010
0001
1000
0001
0100
0001
0010
0100
,
1000
0001
1000
0100
1000
0001
0100
0010
0100
0001
1000
0001
0010
0100
1000
0010
,
0100
0010
0100
0001
1000
0001
0100
0001
0010
0100
1000
0001
1000
0100
1000
0010
,
0100
0010
1000
0001
1000
0000
0001
0000
0010
0000
0100
0000
0010
0000
0001
0000
,
1000
0010
0100
0000
0001
0000
4004
0000
,
0000
0000
0000
3003
0000
0000
0000
0000
;

//---------------dance-single - J. Nero----------------
#NOTES:
     dance-single:
     J. Nero:
     Hard:
     18:
     1.000,1.000,0.392,0.304,1.000,728.000,31.000,24.000,30.000,0.000:
0000
0000
0000
0000
,
0000
0000
0000
0000
,
0000
0000
0000
0000
,
0000
0000
0000
0000
,
0000
0000
0000
0000
,
0000
0000
0000
0000
,
0000
0000
0000
0000
,
0000
0000
0000
0000
,
0000
0000
0000
0000
,
0000
0000
0000
0000
,
0000
0000
0000
0000
0000
0000
0000
0000
0000
0M00
0000
00M0
0000
0M00
0000
00M0
,
0000
0000
0000
0M00
0000
0000
00M0
0000
0000
0M00
0000
0000
00M0
0000
0000
0M00
0000
0000
00M0
0000
0000
0M00
0000
0000
00M0
0000
0000
0M00
0000
0000
00M0
0000
0M00
0000
00M0
0000
0M00
0000
00M0
0000
0M00
0000
00M0
0000
0M00
0000
00M0
0000
,
0M00
00M0
0M00
00M0
0M00
00M0
0M00
00M0
1002
0000
0000
0000
0000
0000
0000
0000
0023
0000
0000
0000
0000
0000
0000
0000
0230
0000
0000
0000
0000
0000
0000
0000
,
0320
0032
2003
3020
,
0130
0001
1000
0010
2000
0000
0000
0000
3200
0000
0000
0000
0320
0000
0000
0000
,
0230
0000
0000
0000
1300
0000
0100
0000
0010
0000
0100
0000
1000
0000
0001
0100
,
0010
0000
1000
0100
0010
0100
1000
0001
,
0100
0010
0100
0001
1000
0100
0010
0001
,
1000
0010
0100
0000
0001
0000
0100
0000
0010
0000
0100
0000
0001
0000
0010
0000
,
0100
1000
0001
1000
0100
0010
0100
1000
,
0001
0000
1000
0100
0010
0100
1000
0001
,
0100
0010
1000
0100
0010
0001
1000
0100
,
1000
0001
0100
0001
0010
0100
1000
0001
,
0100
0010
1000
0001
0010
0100
0010
0001
,
1000
0100
1000
0001
0100
0001
1000
0010
,
0100
0001
0100
0010
1000
0100
0010
0001
,
1000
0000
0010
1000
0100
0000
0010
0000
0100
0000
1000
0000
0001
0000
0100
0000
,
0010
1000
0010
0100
0001
0010
0100
0010
,
0001
1000
0100
0010
0001
1000
0100
1000
,
0010
0100
0001
0010
0100
1000
0010
0100
,
0010
1000
0100
1000
0001
0010
0100
1000
,
0001
0000
0100
0010
0100
0000
0001
1000
0010
0100
0010
1000
0001
1000
0100
0010
,
0001
1000
0100
1000
0002
0000
0000
0000
0023
0000
0000
0000
0230
0000
0000
0000
,
2300
3002
0203
0320
,
0130
0001
1000
0100
2000
0000
0000
0000
3200
0000
0000
0000
0320
0000
0000
0000
,
0032
0000
0000
0000
1003
0000
0001
0000
1000
0000
0010
0000
1000
0000
0001
0100
,
0001
0000
0000
0000
1000
0100
1000
0001
0100
0001
1000
0010
0100
0010
1000
0001
,
0100
0001
1000
0001
1000
0010
0100
0010
1000
0001
0100
0001
1000
0100
1000
0001
,
0010
0100
1000
0001
0100
0001
1000
0010
0100
0010
1000
0001
1000
0100
1000
0001
,
0010
0100
1000
0001
0100
0001
1000
0001
0100
0010
0100
0001
1000
0100
1000
0001
,
0100
0001
1000
0001
1000
0000
0000
0000
1001
0000
0000
0000
1100
0000
0000
0000
,
0110
0011
1001
1010
,
0110
0101
1010
0110
,
1001
0011
0110
1100
,
0000
1001
0011
0110
,
1100
1001
0101
1010
,
0110
0101
1010
1100
,
0110
0011
1001
2000
,
3000
0000
0000
0000
0001
0100
0001
1000
0010
0100
0010
1000
0001
0100
0001
0100
,
0010
1000
0001
1000
0100
0010
0001
1000
0100
1000
0001
0010
0001
1000
0100
1000
,
0001
0100
0001
1000
0010
0100
0010
1000
0001
0100
0001
1000
0100
1000
0001
0100
,
0010
0100
0001
1000
0100
1000
0001
0010
0001
1000
0010
1000
0001
0100
0001
0100
,
0010
1000
0001
1000
0100
0010
0001
1000
0100
1000
0001
0100
0001
1000
0001
0100
,
0010
1000
0010
0100
0001
1000
0100
1000
0001
0100
0001
1000
0010
0100
0010
1000
,
0001
0010
0001
1000
0100
1000
0001
0100
0001
1000
0100
0010
0001
1000
0100
1000
,
0001
0100
0001
1000
0010
1000
0001
0100
0001
1000
0010
0100
0010
1000
0001
0100
,
0010
0100
0001
1000
0001
0000
0100
0000
0001
0000
1000
0000
0010
0000
0100
0000
,
0001
0010
0001
0010
0100
1000
0010
0100
,
0010
1000
0001
0100
0010
1000
0100
0010
,
0001
1000
0010
0100
0010
1000
0001
1000
,
0100
0010
0001
1000
0001
0010
0100
0010
,
0001
1000
0010
0100
0010
1000
0100
0010
,
0100
1000
0001
0010
0100
0010
0001
1000
,
0010
0100
0001
1000
0100
0010
0001
1000
,
0001
1000
0020
0000
0000
0000
0030
0000
,
1000
0100
0010
0001
1000
0000
0000
0000
0000
0000
0000
0000
0000
0000
1001
0000
,
0000
1000
0001
0000
0000
0000
0000
0000
,
0000
1000
0001
0100
0001
0000
1000
0100
1000
0000
0001
0000
0100
0010
0100
0001
,
0010
0100
1000
0001
0100
0010
0100
0001
1000
0001
0100
0010
1000
0001
0010
0001
,
1000
0100
0010
0001
1000
0100
1000
0001
0100
0010
0100
0001
1000
0001
0100
0010
,
1000
0010
1000
0001
0100
0001
1000
0100
1000
0001
0010
0001
1000
0100
0010
0001
,
1000
0100
1000
0001
0100
0010
0100
0001
1000
0001
0100
0010
1000
0001
1000
0010
,
0100
0001
1000
0100
1000
0001
0010
0001
1000
0100
0010
0001
1000
0001
0100
0010
,
0100
0001
1000
0010
0100
0010
1000
0001
0100
0001
1000
0010
1000
0010
0100
0001
,
1000
0001
0100
0010
1000
0001
0100
0001
0100
0010
1000
0001
1000
0100
0010
0001
,
1000
0100
1000
0001
0010
0100
1000
0001
0100
0001
1000
0001
1000
0100
0010
0001
,
1000
0100
1000
0001
0100
0001
1000
0010
1000
0001
0100
0010
0100
0001
1000
0001
,
1000
0100
0010
0001
1000
0100
1000
0001
0100
0001
1000
0001
0100
0010
1000
0010
,
0100
0001
1000
0001
1000
0010
0100
0001
1000
0001
0100
0010
0100
0001
1000
0001
,
1000
0100
0010
0001
1000
0100
1000
0001
1000
0010
0100
0001
1000
0001
0100
0001
,
1000
0100
0010
0001
1000
0100
1000
0001
0100
0001
1000
0010
1000
0001
0100
0010
,
0100
0001
1000
0010
1000
0001
0100
0001
1000
0100
0010
0001
1000
0001
0100
0010
,
1000
0001
1000
0100
0010
0000
0001
0000
0010
0000
0100
0000
0010
0000
0001
0000
,
1000
0010
0100
0000
0001
0000
4004
0000
,
0000
0000
0000
3003
0000
0000
0000
0000
;
