#TITLE:Pika Girl;
#SUBTITLE:;
#ARTIST:S3RL feat. Nightcore;
#TITLETRANSLIT:;
#SUBTITLETRANSLIT:;
#ARTISTTRANSLIT:;
#CREDIT:owenviau1;
#BANNER:BN.PNG;
#BACKGROUND:BG.PNG;
#LYRICSPATH:;
#CDTITLE:ov1_title.png;
#MUSIC:Nightcore Pika Girl.mp3;
#OFFSET:1.770;
#SAMPLESTART:24.850;
#SAMPLELENGTH:29.999;
#SELECTABLE:YES;
#BPMS:0.000=213.520,26.000=142.347,27.000=94.898,29.000=213.520;
#STOPS:;
#BGCHANGES:;
// cache tags:
#FIRSTBEAT:16.000;
#LASTBEAT:654.000;
#SONGFILENAME:Songs/Owenviau1 Simfiles 4/Pika Girl - Nightcore [owenviau1]/Nightcore Pika Girl.sm;
#HASMUSIC:1;
#HASBANNER:1;
#MUSICLENGTH:185.782;
// end cache tags

//---------------dance-single - ----------------
#NOTES:
     dance-single:
     :
     Challenge:
     14:
     1.000,1.000,1.000,0.275,0.030,1229.000,535.000,51.000,0.000,10.000:
0000
0000
0000
0000
,
0000
0000
0000
0000
,
0000
0000
0000
0000
,
0000
0000
0000
0000
,
1001
0010
1100
0001
0110
1000
1001
0010
,
1100
0010
0101
1000
0101
0100
1001
0010
,
1100
0001
1001
0010
0110
1000
0101
0020
,
0000
0000
0000
1030
0101
0000
0010
0000
1001
0000
0100
0000
1010
0000
0001
0000
,
0110
0100
1001
0100
0011
1000
0110
0001
,
1100
0010
0101
1000
0110
0010
1001
1000
,
0101
0010
1001
0100
0110
0001
1010
0100
,
1001
0010
0110
1000
0101
0100
1010
0001
,
1100
0010
0101
1000
0110
0010
1001
1000
,
0101
0010
0011
0100
0110
0001
1001
0010
,
0101
1000
1010
0100
0110
0010
1001
1000
,
0011
0001
0110
1000
1100
0010
0101
1000
,
0110
0100
1001
0010
0011
0001
0110
1000
,
1100
0010
1001
0010
0101
1000
0110
0001
,
1100
0010
0101
1000
0110
0001
1001
0010
,
0101
1000
0011
1000
0110
0001
1100
1000
,
0110
0100
0011
1000
0101
0001
1010
1000
,
0110
0010
1001
0101
0110
1010
0110
0101
,
1001
0000
0110
0000
2002
3003
2002
3003
2002
0000
0000
0000
3223
0000
0000
0000
,
1330
0100
1001
1000
0110
0001
1100
0010
,
0101
1000
0110
0010
1001
1000
0101
0100
,
0011
0001
1100
0010
1001
1000
0110
0001
,
1100
0010
0101
1000
0110
0001
1100
0010
,
1001
1000
0110
0010
1001
1000
0101
0010
,
1001
0100
0011
0001
1100
0010
0011
1000
,
0101
0001
1010
0100
0101
0010
1001
1000
,
0110
0001
1100
1000
0011
0010
0101
1000
,
1001
0001
0110
1000
1100
0010
0101
1000
,
1010
0100
0101
0010
1100
0001
0110
1000
,
1001
0010
1100
1000
0011
0100
1001
0010
,
0110
1000
0101
0001
1010
0100
1100
0010
,
0011
1000
1001
0010
0110
0001
1010
1000
,
0101
0010
1001
1000
0101
0010
0101
1000
,
0110
0010
1001
0100
0000
1010
0000
0110
,
0000
1001
0000
2000
0000
0000
0000
0000
,
3000
0000
0000
0000
0000
0000
0000
0000
0020
0030
0000
0000
0000
0000
0000
0000
0020
0030
0000
0000
0000
0000
0000
0000
0020
0030
0000
0000
2000
3000
0000
0000
,
0200
0000
1301
1000
0110
0001
0011
1000
,
1100
0010
1001
0100
1010
0001
0101
1000
,
0110
0001
1001
0100
0011
1000
0110
0001
,
1100
0010
1001
0100
1010
0001
0101
1000
,
0011
0100
1001
1000
0110
0001
1100
0010
,
0101
1000
0110
0010
1001
1000
0101
0010
,
1001
0100
0110
1001
1100
0110
0011
0101
,
1010
2000
0000
0000
,
3101
0000
1001
1000
0110
0001
1100
0010
,
0101
1000
0110
0010
1001
1000
0101
0100
,
0011
0001
1100
0010
1001
1000
0110
0001
,
1100
0010
0101
1000
0110
0001
1100
0010
,
1001
1000
0110
0010
1001
1000
0101
0010
,
1001
0100
0011
0001
1100
0010
0011
1000
,
0101
0001
1010
0100
0101
0010
1001
1000
,
0110
0001
1100
1000
0011
0010
0101
1000
,
1001
0001
0110
1000
1100
0010
0101
1000
,
1010
0100
0101
0010
1100
0001
0110
1000
,
1001
0010
1100
1000
0011
0100
1001
0010
,
0110
1000
0101
0001
1010
0100
1100
0010
,
0011
1000
1001
0010
0110
0001
1010
1000
,
0101
0010
1001
1000
0101
0010
0101
1000
,
0110
0010
1001
0100
0011
1000
0110
0100
,
1001
0000
0010
0000
2200
3300
1000
0000
0220
0330
0001
0000
0022
0000
1033
0000
,
0101
0010
1100
0010
1001
1000
0110
0001
,
1100
0010
0101
1000
0110
0010
1001
1000
,
0101
0100
0011
0001
1100
0010
1001
1000
,
0110
0001
1100
0010
0101
1000
0110
0001
,
1100
0010
1001
1000
0110
0010
1001
1000
,
0101
0010
1001
0100
0011
0001
1100
0010
,
0011
1000
0101
0001
1010
0100
0101
0010
,
1001
1000
0110
0001
1100
1000
0011
0010
,
1100
0010
0101
0010
1000
0100
0010
0001
,
0100
0001
0010
0100
1000
0001
0100
0010
,
1000
0100
1010
0101
1001
0110
1010
1001
,
0110
0000
1001
0000
0011
0000
0110
0000
1001
0000
1010
0000
0001
0010
0100
1000
,
0001
0010
1001
0010
0110
0001
1010
1000
,
0101
0010
1001
1000
0101
0010
0101
1000
,
0110
0010
1001
0100
0000
1010
0000
0110
,
0000
1001
0000
0000
2000
3000
0020
0000
,
0000
0030
1000
0100
1000
0010
0100
0001
,
0010
0100
1000
0010
0100
0001
0010
0100
,
1000
0010
1000
0100
0010
0001
0100
0001
,
0010
0100
1000
0010
0100
0001
1000
0001
,
0010
0100
1001
0010
0100
0001
0010
1100
,
0100
0010
1001
1000
0010
0101
1000
0100
,
0010
0001
0110
1000
0001
0100
0010
1010
,
0100
0010
1001
1000
0010
0101
1000
0100
,
0010
0001
1010
0001
0100
1000
0010
1001
,
0100
0010
0101
1000
0001
0110
1000
0100
,
0010
0001
1010
0100
1001
0010
1100
0010
,
1001
0010
0101
1010
0110
0011
1100
0010
,
0001
0100
1001
1000
0101
0010
0110
1000
,
1010
0001
1001
0100
0101
0010
0110
1000
,
1001
0010
1100
0001
0011
1000
0110
0001
,
1100
0010
0101
1000
0110
0001
1001
0100
,
1100
0010
0101
1000
0110
0100
1001
0010
,
0101
1000
1010
0010
1100
0001
0110
0100
,
1001
0001
0110
1000
0101
0010
1001
0001
,
0110
0000
0100
0000
2002
3003
2002
3003
2002
0000
0000
0000
3223
0000
0000
0000
,
1330
0100
1001
0100
0010
1000
0100
0010
,
0001
0100
0001
0010
0100
1000
0100
0010
,
0001
0100
1000
0010
0001
0010
1000
0100
,
0001
0100
1000
0010
0100
0001
1000
0010
,
0001
0100
0001
1000
0001
0010
0100
1000
,
0010
0100
0001
0010
1000
0010
0100
0001
,
0010
0100
1000
0100
0010
0001
0100
0001
,
0010
0100
1000
0010
0100
0001
1000
0001
,
0010
0100
1001
0100
0010
0001
0010
0100
,
1000
0001
0100
0010
1000
0001
0010
0001
,
0100
0001
1000
0100
0010
0001
0010
0100
,
1000
0010
0100
0001
1000
0002
0203
0310
,
1000
0001
0110
1000
0101
0010
1100
0001
,
0110
0001
1001
0010
1100
0001
0110
1000
,
0101
0010
1001
0100
0010
1001
0000
0101
,
0000
0000
0000
0000
0220
0000
0000
0000
0332
0003
0000
0000
0000
0000
0000
0000
0002
0003
0000
0000
0000
0000
0000
0000
0002
0003
0000
0000
2000
3000
0000
0000
,
0020
0000
1031
0010
0100
0001
0010
1100
,
0100
0010
1001
1000
0010
0101
1000
0100
,
0010
0001
0110
1000
0001
0100
0010
1010
,
0100
0010
1001
1000
0010
0101
1000
0100
,
0010
0001
1010
0001
0100
1000
0010
1001
,
0100
0010
0101
1000
0001
0110
1000
0100
,
0001
0100
1001
1000
0001
0100
0010
1001
,
1000
0010
0101
1000
0001
1010
0110
1001
,
0101
0010
1001
0010
0101
0010
1100
0010
,
1001
0010
0101
1000
0110
0001
1100
0010
,
1001
0100
1001
1000
0101
0010
0110
1000
,
1010
0001
1001
0100
0101
0010
0110
1000
,
0101
0100
0011
0100
1001
0110
1100
0110
,
0011
0101
0110
1010
1001
0101
0110
1001
,
0110
0000
0101
0000
1000
0010
0100
0001
0100
0010
1000
0100
0010
0001
0100
0010
,
1000
0001
0100
0010
2000
0000
0000
0000
0000
0000
0000
0000
0000
0000
0000
0000
,
3020
0030
1001
1000
0110
0001
1100
0010
,
0101
1000
0110
0010
1001
1000
0101
0100
,
0011
0001
1100
0010
1001
1000
0110
0001
,
1100
0010
0101
1000
0110
0001
1100
0010
,
1001
1000
0110
0010
1001
1000
0101
0010
,
1001
0100
0011
0001
1100
0010
0011
1000
,
0101
0001
1010
0100
0101
0010
1001
1000
,
0110
0001
1100
1000
0011
0010
0101
1000
,
1001
0001
0110
1000
1100
0010
0101
1000
,
1010
0100
0101
0010
1100
0001
0110
1000
,
1001
0010
1100
1000
0011
0100
1001
0010
,
0110
1000
0101
0001
1010
0100
1100
0010
,
0011
1000
1001
0010
0110
0001
1010
1000
,
0101
0010
1001
1000
0101
0010
0101
1000
,
0110
0010
1001
0100
0110
0010
0101
1000
,
0110
0000
0001
0000
2020
3030
0100
0000
0202
0303
0010
0000
2002
0000
3103
0000
,
1000
0010
1001
1000
0110
0001
1100
0010
,
0101
1000
0110
0010
1001
1000
0101
0100
,
0011
0001
1100
0010
1001
1000
0110
0001
,
1100
0010
0101
1000
0110
0001
1100
0010
,
1001
1000
0110
0010
1001
1000
0101
0010
,
1001
0100
0011
0001
1100
0010
0011
1000
,
0101
0001
1010
0100
0101
0010
1001
1000
,
0110
0001
1100
1000
0011
0010
0101
1000
,
1001
0001
0110
1000
1100
0010
0101
1000
,
1010
0100
0101
0010
1100
0001
0110
1000
,
1001
0010
1100
1000
0011
0100
1001
0010
,
0110
1000
0101
0001
1010
0100
1100
0010
,
0011
1000
0101
0000
0110
0000
1010
0000
,
1001
0110
0000
1100
0000
0110
0011
0000
,
0000
0110
1001
0000
0110
0101
0000
0110
,
0000
2002
0000
0000
3003
0000
0000
0000
;

//---------------dance-single - ----------------
#NOTES:
     dance-single:
     :
     Hard:
     10:
     0.774,0.790,0.065,0.027,0.003,990.000,12.000,5.000,2.000,0.000:

0000
0000
0000
0000
,
0000
0000
0000
0000
,
0000
0000
0000
0000
,
0000
0000
0000
0000
,
1000
0100
0010
0001
1000
0001
0100
0001
,
1000
0010
0100
0001
1000
0010
1000
0001
,
0100
0010
1000
0010
0100
1000
0001
0200
,
0000
0000
0000
0310
1000
0000
0100
0000
0010
0000
0001
0000
1000
0000
0000
0000
,
1000
0000
0001
0010
0000
0100
1000
0000
,
0010
1000
0001
0100
0001
1000
0010
0100
,
0010
0100
0001
0010
0100
0010
0100
0010
,
0001
1000
0001
0000
0001
0100
0010
0000
,
0010
1000
0001
0000
0001
1000
0000
0000
,
1000
0001
0001
0001
,
0001
0010
0100
0000
1000
0000
0001
0000
,
0100
0000
0010
1000
0010
0100
0001
0010
,
0100
0010
0001
0000
0001
1000
0001
0000
,
0001
0000
0001
1000
0010
0100
0010
1000
,
0010
0100
0001
0010
0100
0010
0001
1000
,
0100
0010
0001
1000
0001
1000
0001
0000
,
0001
1000
0010
0100
0010
1000
0100
0000
,
1000
0000
1000
0001
0100
0010
1000
0100
,
0010
0001
1000
0001
1000
0000
1000
0000
,
1000
0010
0100
0010
1000
0010
0100
0001
,
0010
0100
0010
0001
1000
0001
1000
0000
,
1000
0000
0001
0100
0001
1000
0010
0100
,
0010
0100
0001
0010
0100
0010
0001
1000
,
0001
0001
1000
0010
,
1000
0001
0010
0000
0010
0000
0001
0000
,
1000
0000
0001
0100
0001
1000
0000
1000
,
0000
0000
0010
0010
1000
0001
0000
0001
,
1000
0000
0010
0100
0001
0010
0100
1000
,
0001
1000
0001
0100
0001
1000
0010
0100
,
0001
0000
0001
1000
0100
0010
0100
0010
,
0001
0010
0100
1000
0100
1000
0001
0100
,
0001
0000
0001
1000
0001
0100
0010
1000
,
0010
0100
0010
1000
0100
0010
0001
0010
,
0100
1000
0001
0000
0001
0010
0000
0100
,
0000
1000
0000
0000
0000
0000
0000
0000
,
0000
0000
0001
0000
0001
0000
0001
1000
,
0010
0000
1000
0001
0010
0100
0010
0001
,
0010
0000
0100
1000
0001
0010
0100
0000
,
1000
0000
0001
1000
0001
1000
0010
0100
,
0010
1000
0010
0100
0001
0010
0100
0010
,
0001
0000
0001
1000
0001
0100
0010
1000
,
0010
0100
0010
1000
0100
0010
0001
1000
,
0001
0000
0001
1000
0100
0010
0001
1000
,
0100
0010
0002
0000
0000
0000
0000
0003
,
2000
0000
3010
0100
1000
0001
0100
0000
,
0010
1000
0001
1000
0001
1000
0100
0000
,
0010
0000
0001
1000
0001
1000
0100
0010
,
0100
0010
0001
1000
0010
1000
0010
0100
,
0001
0000
0001
1000
0100
1000
0100
0010
,
0001
0010
0100
0010
0001
0010
0100
1000
,
0100
0000
0100
1000
0001
1000
0001
0100
,
0010
1000
0010
0000
0010
0000
0010
1000
,
0001
0100
0001
0010
0001
0010
0001
0010
,
0100
1000
0100
1000
0001
1000
0001
0000
,
0001
0000
0001
1000
0010
0100
0010
1000
,
0100
0010
0001
0010
0100
0010
0001
0000
,
1000
0000
0010
0100
0010
1000
0010
0100
,
0001
1000
0100
1000
0100
0010
0001
0010
,
0100
1000
0001
1000
0001
1000
0001
0100
,
0010
1000
0000
1000
0000
1000
0000
1000
,
0001
0100
0010
0000
1000
0000
0001
0000
,
1000
0001
0010
0000
0100
0000
1000
0000
,
0001
0000
1000
0001
1000
0001
0100
0010
,
1000
0010
0100
0001
1000
0100
0010
0001
,
1000
0000
1000
0001
0100
0000
0100
0000
,
0100
0001
0010
0100
1000
0100
0010
0000
,
0001
0000
1000
0010
0100
0010
1000
0100
,
0010
0001
1000
1000
0001
0100
0010
1000
,
0100
1000
0010
0100
,
0001
0010
0100
1000
,
0001
0000
0100
0010
1000
0010
1000
0001
,
0010
0100
1000
0100
0010
0001
0010
0100
,
0010
0100
1000
0001
1000
0001
1000
0001
,
0100
0010
1000
0010
0100
0001
1000
0100
,
0010
0001
0010
0000
0000
1001
0000
1001
,
0000
1001
0000
0000
0010
0000
0100
0000
,
0000
1000
0100
0010
,
0001
1000
0010
0100
,
0001
0010
0100
1000
,
0001
0100
0010
1000
,
0001
0010
0100
1000
,
0001
0100
0001
0010
,
0100
1000
0001
1000
,
0001
0010
0100
1000
,
0001
0100
0010
1000
,
0001
0010
0100
1000
,
0001
0000
0100
0001
0010
0100
1000
0001
,
0100
0010
1000
0010
0100
0001
0010
0000
,
0010
0000
0001
1000
0100
1000
0100
1000
,
0001
0100
0001
0010
0100
0010
0001
0000
,
1000
0000
0010
1000
0010
0100
0010
1000
,
0100
0010
0001
0010
0100
0010
0001
1000
,
0100
0000
1000
0100
0001
0100
1000
0010
,
0001
0100
0001
0010
0000
0100
0001
1000
,
0100
0000
1000
0001
0100
0010
1000
0001
,
0100
0001
0010
0100
0010
0000
0001
0000
,
0001
1000
1010
0000
0010
0000
0100
0000
,
0001
0010
0100
0000
0001
0000
1000
0000
,
0000
0000
0001
1000
0001
0100
0000
0100
,
0000
0100
0001
0010
0100
1000
0000
0000
,
0000
1001
0001
0100
,
0010
1000
0010
0000
0100
0000
0001
0000
,
0000
1000
0100
0010
0001
1000
0000
0001
,
0010
0000
0100
1000
0001
1000
0000
0001
,
1000
0000
0010
1000
0010
0100
0000
0000
,
0001
0000
1000
0000
0100
1000
0100
0000
,
0001
0000
1000
0000
0001
0100
0010
0000
,
1000
0000
0100
0000
1000
0100
0010
0000
,
0001
1000
0001
0000
0100
0000
0100
0000
,
0001
0010
0000
0100
0000
0100
1000
0000
,
0000
1000
0001
0000
0001
1000
0000
0010
,
0000
0100
0001
0000
0001
0000
0001
1000
,
0010
0000
1MM1
1000
0100
0010
0001
1000
,
0000
0001
1000
0000
1000
0001
0100
0000
,
0100
0000
0100
0001
0010
0100
0010
0001
,
1000
0001
1000
0000
1000
0001
0100
0000
,
0100
0000
0001
1000
0001
1000
0000
1000
,
0001
0100
0010
1000
0001
1000
0000
1000
,
0001
0000
0001
1000
0100
0010
0001
0000
,
0001
1000
0010
0000
1000
0000
0001
0100
,
0000
0000
0001
1000
0001
1000
0100
1100
,
0000
1000
0001
0100
0001
0010
0100
0000
,
0001
0000
0001
1000
0001
1000
0010
0100
,
0010
1000
0000
1000
0000
1000
0001
0100
,
0001
0000
0001
1000
0100
0010
0001
0010
,
0100
0010
0001
1000
0100
0010
0001
1000
,
0001
0100
0001
1000
0010
1000
0010
0100
,
0010
1000
0002
0000
0000
0000
0000
0003
,
2000
3010
0100
0001
,
0010
0100
1000
0100
1000
0001
0100
0000
,
0100
0000
0100
0001
1000
0001
1000
0100
,
0010
0001
0000
0001
0000
0001
1000
0010
,
0100
0000
0100
0001
0010
0100
0010
0100
,
1000
0001
1000
0001
0100
0001
1000
0000
,
1000
0000
1000
0010
0100
0001
1000
0100
,
0010
0001
0000
0001
0000
0001
1000
0010
,
0100
0001
1001
0000
0001
0000
0100
0010
,
1000
0010
0100
0001
0010
0100
0010
0000
,
0001
0000
1000
0001
1000
0001
0100
0010
,
1000
0010
0000
0100
0000
0001
1000
0001
,
1000
0100
1000
0000
0001
0000
0100
0000
,
0010
1000
0010
0100
0010
1000
0010
0000
,
0100
0000
0001
1000
0100
0001
0010
0100
,
0001
1000
0001
0100
0001
0000
0001
0000
,
0001
1000
1001
0000
0001
0000
0100
0000
,
0010
1000
0010
0000
0100
0000
0001
0000
,
1000
0000
1000
0100
0010
0001
0010
0100
,
0010
0001
1000
0001
0100
0001
1000
0010
,
0100
0001
1000
0001
0100
0001
0010
0000
,
0010
0001
0100
0001
1000
0010
0100
0000
,
0100
0000
1000
0010
0100
0001
0010
0100
,
0010
0001
1000
0100
0010
1001
0100
0010
,
0001
0000
0001
1000
0001
0100
0001
1000
,
0010
0100
0010
1000
0010
0100
0001
1000
,
0100
1000
0001
1000
0001
0100
0001
1000
,
1100
0100
0010
0001
0010
0100
0010
0001
,
0010
0100
1000
0000
0001
0000
0100
0000
,
0001
1000
0000
1000
0000
1000
0001
0000
,
0000
0001
1000
0000
1000
0001
0000
0001
,
0000
1001
0000
0000
0000
0000
0000
0000
;
