#TITLE:PARANOiA Δ;
#SUBTITLE:;
#ARTIST:NH Sound Studio;
#TITLETRANSLIT:;
#SUBTITLETRANSLIT:;
#ARTISTTRANSLIT:;
#CREDIT:;
#BANNER:PARANOiA G.png;
#BACKGROUND:PARANOiA G-bg.png;
#LYRICSPATH:;
#CDTITLE:;
#MUSIC:PARANOiA G.mp3;
#OFFSET:-2.620;
#SAMPLESTART:31.200;
#SAMPLELENGTH:12.000;
#SELECTABLE:YES;
#BPMS:0.000=90.000,60.000=180.000;
#STOPS:180.000=0.360
;
#BGCHANGES:;
// cache tags:
#FIRSTBEAT:16.000;
#LASTBEAT:322.000;
#SONGFILENAME:Songs/toune 2/PARANOiA_G/PARANOiA G.sm;
#HASMUSIC:1;
#HASBANNER:1;
#MUSICLENGTH:130.356;
// end cache tags

//---------------dance-single - BASIC----------------
#NOTES:
     dance-single:
     BASIC:
     Easy:
     8:
     0.399,0.455,0.138,0.015,0.000,344.000,18.000,2.000,0.000,0.000:
0000
0000
0000
0000
,
0000
0000
0000
0000
,
0000
0000
0000
0000
,
0000
0000
0000
0000
,
0001
0000
0000
0000
,
1000
0000
0000
0000
,
0010
0000
0000
0000
,
0100
0000
0000
0000
,
1000
0001
0100
0010
,
1000
0100
0001
0010
,
0100
1000
0010
0100
,
0001
1000
0100
1000
,
0001
0001
0001
0001
,
1000
1000
1000
1000
,
1000
0001
0100
0010
,
1000
0100
0001
0010
,
1000
0100
1000
0001
,
1001
1000
0100
0010
,
0001
0100
0010
1000
,
0001
0100
0010
0000
1000
0000
0100
0010
,
0100
0000
1000
0000
0001
0100
0010
0000
,
0100
0001
0100
1000
,
0010
0100
1000
0001
,
0100
0010
0001
0000
0010
0000
1000
0100
,
1000
0000
0100
0000
0010
0001
0100
0000
,
1000
0001
0010
0100
,
1000
0010
0100
0001
,
1000
0010
0100
0000
0001
0000
0010
0100
,
0010
0000
0001
0000
1000
0010
0100
0000
,
0010
1000
0010
0001
,
0100
0010
0001
1000
,
0010
0100
1000
0000
0100
0000
0001
0010
,
0001
0000
0010
0000
0100
1000
0010
0000
,
0001
0010
1000
0000
1000
0010
0001
0000
,
0001
0010
1000
0010
0001
0000
1001
0000
,
1000
0010
0001
0000
0001
0010
1000
0000
,
1000
0010
0001
0010
1000
0000
1001
0000
,
1000
0100
0001
0000
0001
0100
1000
0000
,
1000
0100
0001
0100
1000
0000
1001
0000
,
0001
0100
1000
0000
1000
0100
0001
0000
,
0001
0100
1000
0100
0001
0000
1001
0000
,
1000
0000
0000
0000
0001
0100
1000
0000
,
0000
1001
0110
1001
,
1000
0000
0100
0000
0000
0001
0000
0000
,
0100
1000
0001
0000
1000
0000
1001
0000
,
1001
1000
0100
0010
,
0100
1000
0010
0000
0001
0000
0100
0000
,
1000
0001
0100
0010
,
0100
0001
0010
0000
1000
0000
0100
0000
,
0001
1000
0010
0100
,
0010
1000
0100
0000
0001
0000
0010
0000
,
1000
0001
0010
0100
,
0010
0001
0100
0000
1000
0000
0010
0000
,
0001
0000
1000
0100
1000
0000
1000
0100
,
0001
0000
0001
0010
1000
0000
0100
0000
,
0001
0000
0001
0100
0001
0000
0001
0100
,
1000
0000
1000
0010
0001
0000
0100
0000
,
1000
0000
1000
0010
1000
0000
1000
0010
,
0001
0000
0001
0100
1000
0000
0010
0000
,
0001
0000
0001
0010
0001
0000
0001
0010
,
1000
0000
1000
0100
0001
0000
0010
0000
,
1001
0001
0100
1000
,
0100
0000
0001
0010
1000
0000
0100
0000
,
0001
0100
1000
0000
0100
0000
0001
0000
,
1000
0100
0001
0000
0110
0000
1100
0000
,
1001
1000
0010
0001
,
0010
0000
1000
0100
0001
0000
0010
0000
,
1000
0010
0001
0000
0010
0000
1000
0000
,
0001
0010
1000
0000
0110
0000
0101
0000
,
1001
0000
1000
0100
0001
0000
0001
0010
,
1000
0000
1000
0100
0010
0001
0010
0001
,
0010
0000
0001
0100
1000
0000
1000
0010
,
0001
0000
0001
0100
0010
1000
0010
1000
,
0010
0000
1000
0100
0000
0100
0010
0000
,
0010
0001
0000
0001
0010
0000
0010
0100
,
1000
0000
0100
0000
0001
0010
1000
0000
,
0100
0000
0001
0010
1000
0000
2002
0000
,
0000
0000
0000
0000
,
0000
0000
0000
0000
,
3003
0000
0000
0000
;

//---------------dance-single - TRICK----------------
#NOTES:
     dance-single:
     TRICK:
     Medium:
     9:
     0.480,0.515,0.169,0.038,0.046,411.000,22.000,5.000,0.000,0.000:
0000
0000
0000
0000
,
0000
0000
0000
0000
,
0000
0000
0000
0000
,
0000
0000
0000
0000
,
0001
0000
0000
0000
0000
1000
0000
0100
0000
0000
0000
0000
0000
0000
0000
0000
,
1000
0000
0000
0000
0000
0001
0000
0100
0000
0000
0000
0000
0000
0000
0000
0000
,
0010
0000
0000
0000
0000
0001
0000
1000
0000
0000
0000
0000
0000
0000
0000
0000
,
0010
0000
0000
0000
0000
1000
0000
0001
0000
0000
0000
0000
0000
0000
0000
0000
,
1000
1000
0001
0000
0100
0100
0010
0000
,
0001
0001
1000
0000
0010
0010
0100
0000
,
1000
1000
0001
0000
0100
0100
0010
0000
,
0001
0001
1000
0000
0010
0010
0100
0000
,
1000
0001
1000
0000
1000
0001
1000
0000
,
0001
1000
0001
0000
0001
1000
0001
0000
,
1000
0100
0001
0010
,
1000
0100
0001
0010
,
1000
0100
1000
0001
0100
0010
1000
0001
,
1001
0000
1000
0000
0100
0100
0010
0000
,
0001
0100
0010
1010
,
1000
0100
0010
0100
0000
0100
0000
0010
,
0100
0000
1000
0000
0001
0100
0010
0000
,
0101
0000
0001
0000
0100
0100
0010
0000
,
1000
0100
0010
0011
,
0001
0100
0010
0100
0000
0100
0000
0010
,
0100
0000
0001
0000
1000
0100
0010
0000
,
1100
0000
0001
0010
0010
0000
0100
0100
,
1000
0000
0010
0000
0100
0010
1000
0000
,
1000
0010
0100
0010
0000
0100
0010
0100
,
0001
0000
0001
0000
1000
0010
0100
0000
,
0001
0000
1000
0010
0010
0000
0100
0100
,
0001
0000
0010
0000
0100
0010
0001
0000
,
0001
0010
0100
0010
0000
0100
0010
0100
,
1000
0000
1000
0000
0001
0010
0100
0000
,
0001
0010
0100
0100
1000
0000
1000
0100
,
0100
0010
0001
0000
1000
0000
1001
0000
,
1000
0010
0100
0100
0001
0000
0001
0100
,
0100
0010
1000
0000
0001
0000
1001
0000
,
1000
0100
0100
0010
0001
0010
0001
0010
,
0100
0100
1000
0100
0001
0000
1001
0000
,
0001
0100
0100
0010
1000
0010
1000
0010
,
0100
0100
0001
0100
1000
0000
1001
0000
,
2100
0000
0000
3000
0001
0100
1000
0000
,
0000
1001
0110
1001
,
2000
0000
3200
0000
0300
0001
0000
0000
,
0100
1000
0001
0010
0100
1000
1001
0000
,
1001
0000
0000
0000
1000
0000
0100
0000
0000
0000
0000
0100
0010
0000
0000
0000
,
0100
1000
0010
0000
0010
0001
0100
0000
,
1000
0000
0100
0000
0001
0000
0100
0000
0000
0000
0000
0010
0100
0000
0000
0000
,
0100
0001
0010
0000
0010
1000
0100
0000
,
0001
0000
0100
0000
1000
0000
0100
0000
0000
0000
0000
0100
0010
0000
0000
0000
,
0010
1000
0100
0000
0010
0001
0100
0000
,
1000
0000
0100
0000
0001
0000
0100
0000
0000
0000
0000
0010
0100
0000
0000
0000
,
0100
0001
0010
0000
0010
1000
0100
0000
,
0001
0100
1000
0100
0000
0100
0010
0000
,
0001
0000
0001
0010
1000
0000
0100
0000
,
0001
0000
0001
0100
0000
0100
0010
0000
,
1000
0000
1000
0010
0001
0000
0100
0000
,
1000
0000
1000
0010
0000
0010
0100
0000
,
0001
0000
1000
0100
0001
0000
1000
0100
,
0001
0000
0001
0010
0000
0010
0100
0000
,
1000
0000
0001
0100
1000
0000
0001
0100
,
1000
0000
0001
0100
0000
0100
1000
0100
,
0001
0000
0001
0000
1000
0100
0100
0000
,
0001
0100
1000
0100
0000
0100
0001
0000
,
1000
0100
0001
0000
0110
0000
1100
0000
,
1001
0000
1000
0010
0000
0010
0001
0010
,
1000
0000
1000
0000
0001
0010
0010
0000
,
1000
0010
0001
0010
0000
0010
1000
0000
,
0001
0010
1000
0000
0110
0000
0011
0000
,
1001
0000
1000
0100
0010
1000
0010
0100
,
1000
0000
1000
0100
0010
0001
1000
0001
,
0010
0000
0001
0100
0010
0001
0010
0100
,
0001
0000
0001
0100
0010
1000
0001
1000
,
0010
0000
1000
0100
1000
0100
0010
0001
,
0010
0001
0010
0100
0010
0100
0010
1000
,
0010
1000
0001
0010
0100
1000
0100
0001
,
1000
0100
0001
0100
1000
0001
2002
0000
,
0000
0000
0000
0000
,
0000
0000
0000
0000
,
3003
0000
0000
0000
;

//---------------dance-single - HEAVY----------------
#NOTES:
     dance-single:
     HEAVY:
     Hard:
     10:
     0.665,0.667,0.606,0.322,0.142,486.000,79.000,42.000,0.000,0.000:
0000
0000
0000
0000
,
0000
0000
0000
0000
,
0000
0000
0000
0000
,
0000
0000
0000
0000
,
0001
0000
0100
0000
0000
1000
0000
0100
0000
0000
0001
0000
0100
0000
0000
0000
,
1000
0000
0100
0000
0000
0001
0000
0100
0000
0000
1000
0000
0100
0000
0000
0000
,
0010
0000
0001
0000
0000
0001
0000
1000
0000
0000
0100
0000
0010
0000
0000
0000
,
0010
0000
1000
0000
0000
1000
0000
0001
0000
0000
0100
0000
0010
0000
0000
0000
,
1000
1000
1001
0000
0100
0100
0110
0000
,
0001
0001
1001
0000
0010
0010
0110
0000
,
1000
1100
1001
0000
0100
0101
0110
0000
,
0001
0011
1001
0000
0010
1010
0110
0000
,
1000
0101
1010
0000
1000
0101
1010
0000
,
0001
1100
0011
0000
0001
1100
0011
0000
,
1100
0101
0011
1010
,
1100
0101
0011
1010
,
1000
0000
0100
0000
1000
0000
0001
0000
0100
0000
0010
0000
1000
0001
1000
0000
,
1001
0000
0000
0000
1000
0000
0000
0000
0100
1000
0100
0000
0010
0000
0000
0000
,
0001
0000
0000
0000
0100
0000
0000
0000
0010
0100
0010
0000
1000
0000
0000
0000
,
1000
0100
0010
0100
0000
0010
0100
0010
,
1000
0001
0000
1000
0001
0100
0010
0000
,
0101
0000
0000
0000
0001
0000
0000
0000
0100
0010
0100
0000
0010
0000
0000
0000
,
1000
0000
0000
0000
0100
0000
0000
0000
0010
0100
0010
0000
0100
0000
0000
0000
,
0001
0100
0010
0100
0000
0010
0100
0010
,
1000
0001
0000
0001
1000
0100
0010
0000
,
1100
0000
0000
0000
0001
0000
0010
0100
0010
0000
0000
0000
0100
0010
0100
0000
,
1000
0000
0000
0000
0010
0000
0000
0000
0100
0010
0001
0000
1000
0000
0000
0000
,
1000
0010
0100
0010
0000
0100
0010
0100
,
0001
0100
0000
0010
1000
0010
0100
0000
,
0001
0000
0000
0000
1000
0000
0010
0100
0010
0000
0000
0000
0100
0010
0100
0000
,
0001
0000
0000
0000
0010
0000
0000
0000
0100
0010
0001
0000
1000
0000
0000
0000
,
0001
0010
0100
0010
0000
0100
0010
0100
,
1000
0001
0000
1000
0001
0010
0100
0000
,
0001
0010
0100
0110
1001
1001
0000
0110
,
0100
0010
0001
1000
1001
1001
0000
0000
,
1000
0010
0100
0110
1001
1001
0000
0110
,
0100
0010
0001
0010
1001
1001
0000
0000
,
1000
0100
0100
1000
1001
1100
0000
0011
,
0100
0001
1000
0100
0101
1001
0000
0000
,
0001
0100
0100
0001
1001
0101
0000
1010
,
0100
1000
0001
0100
1001
1001
0000
0000
,
2100
0000
0000
0000
3002
0103
2000
0000
,
0000
0000
0000
3000
0000
0000
1000
0000
0100
0000
0000
0000
0100
0000
0001
0000
0000
0000
0001
0000
1000
0000
0000
0000
,
2000
0000
3200
0000
0000
0302
0000
0000
,
0103
1000
0001
0010
0100
1000
2002
3003
,
2002
3003
0000
0000
0000
0000
0000
0000
1000
0000
0000
0000
0100
0000
0000
0000
0000
0000
0000
0000
0100
0000
0010
0000
0000
0000
0000
0000
0100
0000
0000
0000
,
0100
1000
0010
0010
1000
0001
0200
0300
,
2001
0000
3000
0000
0001
0000
0100
0000
0000
0000
0010
0100
0000
0000
0100
0000
,
0100
0001
0010
0010
1000
0001
0200
0300
,
1002
0000
0003
0000
1000
0000
0100
0000
0000
0000
0100
0010
0000
0000
0100
0000
,
0100
1000
0001
0001
0010
0001
0100
1000
,
2001
0000
3100
0000
0001
0000
0100
0000
0000
0000
0010
0100
0000
0000
0100
0000
,
0100
0001
1000
1000
0010
1000
0100
0001
,
1002
0000
0103
0000
1000
0000
0100
0000
0100
0000
0100
0010
0000
0000
0100
0000
,
0101
0000
0001
0010
1000
0000
1010
1000
,
2001
0000
3100
0000
0001
0000
0100
0000
0100
0000
0100
0010
0000
0000
0100
0000
,
1100
0000
1000
0010
0001
0000
0011
0001
,
1002
0000
0103
0000
1000
0000
0100
0000
0100
0000
0010
0100
0000
0000
0100
0000
,
0101
0000
1000
0100
0001
0100
0101
0100
,
2001
0000
3100
0000
0001
0000
0010
0000
0010
0000
0010
0100
0000
0000
0100
0000
,
1100
0000
0001
0100
1000
0100
1100
0100
,
1002
0103
0001
0100
0000
0100
1000
0100
,
0001
0010
0200
0000
1300
0100
0200
0010
,
0302
0000
1003
0100
0000
0100
0001
0100
,
1000
0010
0200
0000
0301
0100
0200
0010
,
2300
0000
3001
0200
0010
1300
0100
0001
,
0020
0100
1030
0100
0001
0010
0020
0000
,
1030
0010
0002
0010
0013
0200
1000
1300
,
0100
0010
1000
0100
0001
0020
1000
1030
,
1001
0000
1000
0200
0010
1300
0020
0100
,
0130
0001
2000
0100
3010
0001
1000
0001
,
0020
0000
0031
0100
0020
1000
0130
0010
,
1000
0100
0001
0020
1000
0031
0001
1000
,
0020
0000
1030
0100
1100
1000
0100
0110
,
0010
0000
0001
0000
0011
0000
0010
0000
0100
0000
1100
0000
0010
1000
0000
0000
,
1010
2000
0001
3010
1000
0100
0001
0010
,
1000
0100
0010
0001
0100
0010
1000
0100
0010
2002
0000
0000
,
0000
0000
0000
0000
,
0000
0000
0000
0000
,
3003
0000
0000
0000
;

//---------------dance-single - ONI----------------
#NOTES:
     dance-single:
     ONI:
     Challenge:
     11:
     0.803,1.000,0.560,0.460,0.514,600.000,73.000,60.000,0.000,0.000:
0000
0000
0000
0000
,
0000
0000
0000
0000
,
0000
0000
0000
0000
,
0000
0000
0000
0000
,
0000
0000
0000
0000
0000
1000
0000
0100
0000
0001
0000
0100
0000
0010
0000
0100
,
0000
1000
0000
0001
0000
0010
0000
0100
0000
1000
0000
0010
0000
0100
0000
0010
,
0000
0100
0000
0010
0000
0001
0000
1000
0000
0010
0000
0100
0000
0010
0000
1000
,
0000
0010
0000
0100
0000
1000
0000
0001
0000
0100
0000
0010
0000
1000
0000
0100
,
0000
1000
0000
0010
0000
0110
0000
1001
0000
0100
0000
0010
0000
0100
0000
0010
,
0000
1000
0000
0001
0000
0101
0000
1010
0000
0100
0000
0010
0000
0001
0000
0100
,
0000
0010
0000
1000
0000
0110
0000
1001
0000
0100
0000
0010
0000
0100
0000
0010
,
0000
1000
0000
0100
0000
1001
0000
0110
0000
0010
0000
1000
0000
0001
0000
0100
,
1000
0100
0000
0000
0001
0010
0000
0000
1000
0100
0000
0000
1001
0000
0000
0000
1000
0100
0000
0000
0001
0010
0000
0000
1000
0100
0000
0000
1001
0000
0000
0000
,
0001
0010
0000
0000
1000
0100
0000
0000
0001
0010
0000
0000
1001
0000
0000
0000
0001
0010
0000
0000
1000
0100
0000
0000
0001
0010
0000
0000
1001
0000
0000
0000
,
1000
0100
0000
0000
0000
0000
0000
0000
0100
0001
0000
0000
0000
0000
0000
0000
0001
0010
0000
0000
0000
0000
0000
0000
0010
1000
0000
0000
0000
0000
0000
0000
,
1000
0100
0000
0000
0100
0001
0000
0000
0001
0010
0000
0000
0010
1000
0000
0000
,
0100
0000
0001
0000
1000
0000
0001
0000
0100
0000
0010
0000
1000
0001
1000
0000
,
1001
0000
0000
0000
0110
0000
0000
0000
0100
1000
0100
0000
0110
0000
0000
0000
,
1001
0000
0000
0000
0110
0000
0000
0000
0010
0100
0010
0000
1010
0000
0000
0000
,
1000
0100
0010
0100
0000
0010
0100
1000
,
0001
0100
0000
1000
0001
0100
0010
0000
,
0110
0000
0000
0000
1001
0000
0000
0000
0100
0010
0100
0000
1010
0000
0000
0000
,
1001
0000
0000
0000
0110
0000
0000
0000
0010
0100
0010
0000
0101
0000
0000
0000
,
0001
0100
0010
0100
0000
0010
0100
0010
,
1000
0001
0000
0001
1000
0100
0010
0000
,
1100
0000
0000
0000
0001
0000
0010
0100
0010
0000
0000
0000
0100
0010
0100
0000
,
1000
0000
0000
0000
0010
0100
1000
0000
1000
0100
0010
0000
0001
0000
0000
0000
,
1000
0010
0100
0010
0000
0100
0010
0100
,
0001
0100
0000
0010
1000
0010
0100
0001
,
0000
0000
0000
0000
1000
0000
0010
0100
0010
0000
0000
0000
0100
0010
0100
0000
,
0001
0000
0000
0000
0010
0000
0000
0000
0100
0010
0001
0000
1000
0000
0000
0000
,
0001
0010
0100
0010
0000
0100
0010
0100
,
1000
0001
0000
1000
0001
0010
0100
0000
,
0001
0010
0110
0100
1001
1000
1000
0010
,
0100
0010
0011
0010
1000
2001
0100
3100
,
1000
0010
0110
0100
1001
0001
0001
0100
,
0100
0010
0011
0010
1000
1002
0100
0103
,
1000
0100
0110
1000
0011
0100
1000
0001
,
0100
0001
0110
0100
0001
2001
0001
3001
,
0001
0100
0110
0001
1100
0010
1000
0010
,
0100
0000
1000
0000
0001
0000
0100
0000
1000
0100
0010
0100
1000
0100
1000
0100
,
2000
0000
0000
0000
3002
0103
2000
0000
,
0000
3000
1010
0000
0101
0000
1001
0000
,
2010
0000
3200
0000
0000
0302
0000
0000
,
0103
1000
0001
0010
0110
0000
1001
0000
,
2002
3003
0000
0000
0000
0000
0000
0000
1000
0000
0000
0000
0100
0000
0000
0000
0001
0000
0000
0000
1000
0000
0100
0000
0010
0000
0000
0000
0110
0000
0000
0000
,
0100
0000
1000
0000
0010
0000
0010
0000
1000
0000
0001
0010
0100
0000
0110
0000
,
2001
0000
3000
0000
0001
0000
0100
0000
1000
0000
0001
0010
0100
0000
0110
0000
,
0100
0000
0001
0000
0010
0000
0010
0000
1000
0000
0001
0010
0100
0000
0110
0000
,
1002
0000
0003
0000
1000
0000
0100
0000
0001
0000
1000
0100
0010
0000
0110
0000
,
0100
0000
1000
0000
0001
0000
0001
0000
0010
0000
0001
0010
0100
0000
0110
0000
,
2001
0000
3100
0000
0001
0000
0100
0000
1000
0000
0001
0010
0100
0000
0110
0000
,
0100
0000
0001
0000
1000
0000
1000
0000
0010
0000
1000
0100
0010
0000
0110
0000
,
1002
0000
0103
0000
1000
0000
0100
0000
0100
0000
1000
0100
0010
0000
0100
0000
,
0001
0000
0100
0000
0001
0000
0010
0000
1000
0000
0100
0010
0001
0000
0011
0000
,
2001
0000
3100
0000
0001
0000
0100
0000
0100
0000
0001
0100
0010
0000
0100
0000
,
1000
0000
0100
0000
1000
0000
0010
0000
0001
0000
0010
0100
1000
0000
1100
0000
,
1002
0000
0103
0000
1000
0000
0100
0000
0100
0000
0001
0010
0100
0000
0100
0000
,
0001
0000
0100
0000
1000
0000
0100
0000
0001
0000
0100
0010
0001
0000
0101
0000
,
2001
0000
3100
0000
0001
0000
0010
0000
0010
0000
1000
0010
0100
0000
0100
0000
,
1000
0000
0100
0000
0001
0000
0100
0000
1000
0000
0100
0010
0001
0000
0011
0000
,
1002
0103
0001
0100
0020
0100
1030
0200
,
0001
0310
0100
0010
2000
0100
3100
0010
,
0002
0010
1003
0100
0020
0100
0031
0200
,
1000
0310
0100
0010
0002
0010
1003
0010
,
2000
0100
3001
0100
0020
1000
0130
0002
,
0010
0103
1000
0100
0002
0010
0103
1000
,
0200
0010
0301
0010
0020
0100
1030
2000
,
0100
0000
3010
0000
1000
0000
0100
0000
0001
0000
1000
0001
1000
0000
1000
0001
,
1000
1001
2000
0100
3200
1000
0320
0100
,
0230
0001
2300
0100
3020
0001
2030
0001
,
3020
0100
0032
0100
0023
1000
0230
0010
,
2300
0100
3002
0010
2003
0001
3002
1000
,
0023
0000
0100
0000
1030
0100
1000
0000
1001
0000
1000
0100
1000
0000
1010
0000
,
0010
0100
0010
0000
0110
0000
0100
0010
0100
0000
0101
0000
0001
1000
0001
0000
,
1000
0000
0001
0010
0001
0010
0001
0010
0001
0010
0100
1000
0100
1000
0100
1000
,
0100
1000
0001
1000
0001
1000
0001
1000
0010
1000
0010
2000
0002
0000
0000
0000
,
3000
2003
0000
3020
,
0000
0230
0000
0302
,
0000
2003
3000
0220
,
0330
2002
3003
0000
;
