#TITLE:Infernoplex;
#SUBTITLE:;
#ARTIST:Dimrain47;
#TITLETRANSLIT:;
#SUBTITLETRANSLIT:;
#ARTISTTRANSLIT:;
#CREDIT:;
#BANNER:banner.png;
#BACKGROUND:bg.png;
#LYRICSPATH:;
#CDTITLE:minion.png;
#MUSIC:Infernoplex.mp3;
#OFFSET:-6.860;
#SAMPLESTART:100.000;
#SAMPLELENGTH:12.000;
#SELECTABLE:YES;
#BPMS:0.000=175.020;
#STOPS:;
#BGCHANGES:;
// cache tags:
#FIRSTBEAT:0.000;
#LASTBEAT:635.750;
#SONGFILENAME:Songs/cedric step/Infernoplex (Minion133)/Infernoplex.sm;
#HASMUSIC:1;
#HASBANNER:1;
#MUSICLENGTH:227.709;
// end cache tags

//---------------dance-single - ----------------
#NOTES:
     dance-single:
     :
     Hard:
     12:
     1.000,1.000,1.000,1.000,0.949,1495.000,289.000,398.000,0.000,27.000:
1000
0100
1000
0010
,
1000
0000
0100
0000
0001
0010
0100
0010
,
0001
0010
0001
0100
,
0001
0100
0010
0001
1000
0010
0100
0010
1000
0000
0100
0000
0010
0000
0100
0000
,
1100
0001
0110
0001
0010
0100
1000
0010
0001
1000
0010
0100
0011
0100
0010
1000
,
0110
0001
1010
0100
0010
1000
0100
0001
0010
0100
1000
0100
1010
0001
0100
0010
,
0101
0010
0101
1000
0100
0010
0001
0100
1000
0010
0100
0001
0110
1000
0010
0001
,
0110
1000
0101
0010
0100
0001
0010
1000
0100
0010
0001
0100
1010
0001
0010
0100
,
0011
1000
0110
0001
0100
0010
0001
0100
1000
0001
0010
0100
0011
0100
0010
1000
,
0101
0010
1100
0010
0100
0001
0010
1000
0100
0010
0001
0100
1010
0001
0010
0100
,
1010
0000
0010
0100
0010
0000
1000
0100
1000
0001
0010
0001
0010
0100
0010
0000
,
0011
0110
0100
0011
1010
0010
1100
0110
,
0001
0010
0001
0100
,
0001
0100
0100
0001
0010
0001
0001
0100
,
1000
0100
0100
0010
1000
0010
0010
0000
,
1000
0000
0010
0000
0010
0000
1000
0000
0010
0000
0100
0000
0010
0100
0010
1000
,
0100
0010
0100
0000
0000
0010
0100
0000
,
0010
0000
0000
0000
0000
0000
1000
0000
0000
0000
0000
0000
0100
0000
0000
0000
0000
0000
0001
0000
0000
0010
0000
0000
0100
0000
0000
0001
0000
0000
0010
0000
0100
0000
0000
0000
0100
0000
0000
0000
0000
0000
0100
0000
0000
0000
0000
0000
,
1000
0010
0100
0000
0000
0010
0100
0000
,
0001
0010
0100
0001
0010
0100
1000
0001
0000
0100
0010
0001
0010
0100
0010
1000
,
0011
1010
0101
0110
1000
1100
0101
0011
,
1010
1001
1100
0010
0010
0011
1100
0101
,
1010
0101
0110
1000
1000
0101
1010
0010
,
0011
0000
0000
0110
0000
0000
1010
0000
0000
0010
0000
0000
0100
0000
0000
0010
0000
0000
0012
0000
0000
0000
0003
0000
,
0200
0000
0000
0000
0000
0000
0000
0000
0000
0000
0000
0300
0000
0000
0002
0023
,
0230
0000
0000
0000
0300
0000
0002
0023
0230
0300
0020
0230
2000
3300
0200
0310
,
2000
3200
0320
0032
0023
0230
0320
0032
0203
0320
0230
2300
3200
2300
3002
0203
,
0320
0230
0320
0230
2300
3020
0230
0302
0203
0320
2030
3200
0320
0032
0023
0230
,
0000
0000
0000
0000
0000
0000
0000
0300
,
0110
1000
0101
0010
0100
0001
0010
1000
0100
0010
0001
0010
0101
1000
0100
0010
,
1100
0001
0110
1000
0010
0100
1000
0010
0001
0100
0010
0100
1010
0001
0100
0001
,
1000
0100
0010
0001
0010
0100
0010
0100
1000
0100
0010
0001
0010
0100
1000
0100
,
0010
0001
1010
0100
0010
1000
0100
0001
0010
0100
1000
0100
1010
0001
0010
0100
,
0011
1000
0110
0001
0100
0010
0001
0100
1000
0010
0100
0010
0101
1000
0010
1000
,
0101
0010
1100
0010
0100
0001
0010
1000
0100
0010
0001
0010
0101
1000
0100
0010
,
1001
0010
0110
0010
0011
0001
1010
0000
,
2000
3010
2000
3000
2000
3100
2000
3000
,
2000
3010
2000
3001
2000
3200
2300
3200
,
1300
0100
0010
0001
1000
0100
0010
0001
1000
0100
0010
0001
1000
0100
0010
0000
,
0012
0000
0010
0000
0010
0000
0010
0003
,
2100
0000
0000
0000
0100
0000
0000
0000
3120
0000
0000
0000
0001
0000
0000
0030
,
0201
0000
0000
0000
0001
0000
0000
0000
0001
0000
0000
0000
0001
0000
0000
0300
,
2010
0010
0010
0010
,
3010
0000
0002
0003
1100
0000
0020
0030
0101
0000
2000
3000
0110
0000
2000
3000
,
0101
0000
0020
0030
1100
0000
0020
0030
1001
0000
0200
0300
1010
0000
0002
0003
,
0110
0000
0020
0030
1100
0000
0020
0030
1001
0000
0200
0300
0011
0000
2000
3000
,
0110
0000
0000
0000
0002
0000
0003
0000
1010
0000
0000
0000
0200
0000
0300
0000
0011
0000
0000
0000
0000
0001
0010
0100
1000
0100
0010
0001
0010
0100
1000
0100
,
0010
0000
0010
0100
1001
0000
0100
0000
0110
0001
0010
1000
0101
0000
0010
0000
,
1100
0000
0001
1000
0110
0000
1000
0000
0101
1000
0010
0001
1100
0000
0010
0000
,
1010
0000
0001
1000
0110
0000
1000
0100
0011
1000
0100
1000
0011
0000
1000
0000
,
0110
0000
0001
0100
1010
0000
0100
1000
0011
1000
0100
0001
1010
0000
0100
0000
,
1001
0000
0100
1000
0011
0000
1000
0010
0101
1000
0010
0001
1100
0000
0001
0000
,
0110
0000
0000
0000
1000
0000
0010
0000
0101
0000
0000
0000
1000
0000
0100
0000
0011
0000
1000
0000
0100
0000
0010
0000
1001
0000
0000
0000
0020
0030
0000
0000
,
1200
0300
0000
0000
0002
0003
0000
0000
0120
0030
0000
0000
2000
3000
0000
0000
0021
0030
0000
0000
0200
0300
0000
0000
1020
0030
0000
0000
0002
0003
0000
0000
,
1200
0300
0000
0000
0020
0030
0000
0000
2001
3000
0000
0000
0200
0300
0000
0000
0012
0003
0000
0000
1000
0000
0000
0000
0120
0000
0000
0030
0001
0000
0000
0000
,
0200
0000
0010
0000
0301
0000
2100
0000
0010
0000
3200
0300
0020
0030
0200
0300
,
0012
0000
1000
0000
0100
0003
0020
0000
0100
0000
2000
3000
0200
0330
2000
3000
,
0002
0000
0010
0000
0103
0000
0010
0001
0100
0010
1000
0100
0010
0100
1000
0001
,
0010
0001
0010
0001
0100
0010
2000
3000
2000
0000
3100
0010
0100
0001
1000
0000
,
0020
0000
0100
0000
0000
0030
2000
0000
0100
0000
3200
0000
0000
0000
0320
0000
,
0032
0000
0010
0000
0000
0000
0203
0000
0010
0000
0320
0000
0100
0030
0200
0300
,
0010
0001
0100
1000
0001
0010
1000
0001
1000
0010
0100
0001
1000
0001
0100
0000
,
2000
0100
0001
3000
0010
0000
0200
0000
1000
0000
0320
0000
0230
0000
2300
3000
,
2010
0000
0000
0000
0000
3000
0200
0000
0000
0000
0302
0000
0000
0000
0200
0003
,
1020
0300
0000
0000
0000
0000
2030
0000
0000
0000
0020
3000
0000
0000
0200
0030
,
0012
0300
0000
0000
0020
0003
0000
0000
2030
0000
0000
0000
0200
3000
0000
0000
,
1302
0000
0000
0000
0023
0000
0000
0000
0230
0000
0000
0300
0200
0000
0000
0300
,
2002
0000
0000
0000
0000
3003
2020
0000
0000
0000
3230
0000
0000
0300
0002
0000
,
1020
0003
0000
0000
0000
0030
2200
0000
0000
3300
0202
0000
0000
0300
2000
0003
,
0210
3000
0000
0300
0200
0000
0000
0300
2000
0000
0000
3000
0020
0000
0000
0030
,
2120
0000
0000
0000
0100
0000
0000
0000
0100
0000
0000
3030
0100
0000
0000
0000
,
0100
0100
0010
1000
1000
0010
0001
1000
,
0100
0100
1000
0001
0010
0001
0010
0100
,
0010
0010
1000
0001
0100
0100
1000
0100
,
0010
0010
0001
1000
0100
1000
0010
0001
,
0010
0001
0100
0001
,
0010
0000
1000
0000
0100
0010
0100
1000
,
0100
1000
0010
1000
,
0100
1000
0001
0100
0010
0100
0001
0000
0010
0000
0100
0000
0010
0000
0010
0000
,
1100
0001
0110
0001
1000
0100
1000
0010
0001
0100
0010
0100
1010
0001
0010
1000
,
0110
0001
1010
0100
0010
1000
0100
0001
0010
0100
1000
0100
1010
0001
0100
0001
,
0110
1000
0101
1000
0100
0010
0001
0100
1000
0010
0100
0001
0110
1000
0010
0001
,
0110
1000
0101
0010
0100
0001
0010
1000
0100
0010
0001
0010
0101
1000
0100
0010
,
1100
0001
0110
1000
0010
0100
1000
0010
0001
0100
0010
0100
1010
0001
0100
0001
,
1010
0100
0011
0100
0010
1000
0100
0001
0010
0100
1000
0100
1000
0100
1000
0001
,
0010
0001
1000
0010
0100
0010
0100
1000
0100
0010
0100
0001
1000
0020
0230
0302
,
2003
3200
0320
2030
3002
0023
0230
0320
2030
3200
2300
3020
0230
0302
1103
0000
,
0200
0300
2000
3000
0200
0300
2000
3000
0020
0030
0200
0300
2000
3000
0200
0300
,
2000
3000
0200
0300
2000
3000
0200
0300
0020
0030
0200
0300
2000
3000
0202
0303
,
2020
3030
0202
0303
2020
3030
0202
0303
0022
0033
0220
0330
0022
0033
2200
3300
,
0220
0330
2020
3030
0202
0303
0220
0330
0022
0033
0220
0330
2200
3300
0200
0300
,
2000
3000
0200
0300
2000
3000
0020
0030
0200
0300
2000
3000
0200
0300
0002
0003
,
0020
0030
0002
0003
0020
0030
0200
0300
0020
0030
0002
0003
2020
3030
0202
0303
,
2020
3030
0202
0303
2020
3030
2200
3300
0220
0330
2200
3300
0022
0033
0220
0330
,
0202
0303
2020
3030
0220
0330
2200
3300
0220
0330
0022
0033
0022
0033
0200
0300
,
1010
0000
0100
0010
0100
0000
0001
0010
0100
0000
0010
0001
0010
0100
0000
0000
,
1100
0000
0100
0010
0001
0000
1000
0010
0001
0000
0010
0100
1000
0010
0001
0000
,
0110
0000
1000
0100
0010
0000
0100
0010
0001
0000
1000
0100
0001
0010
0100
1000
,
0101
0000
0010
0100
1000
0000
0010
0100
0010
0000
1000
0100
0010
0100
0001
0000
,
1100
0000
0010
0100
0010
0000
1000
0100
1000
0000
1000
0100
0010
0001
0100
0000
,
1010
0000
0001
0010
0001
0000
1000
0100
0010
0000
0100
0010
1000
0001
0100
0000
,
1010
0000
0001
0010
0100
0000
1000
0010
0100
0000
1000
0100
0010
0100
0001
1000
,
0200
0000
0000
0000
0000
0000
0000
0300
,
1000
0100
1000
0001
0010
0100
0010
1000
0100
0010
0100
0001
1000
0100
0010
1000
,
0100
0001
0010
0001
0100
0010
1000
0100
1000
0100
0001
0010
0100
0010
0001
0100
,
1000
0100
0010
1000
0001
0100
0010
0001
0100
0010
1000
0100
1000
0100
0010
1000
,
0001
0010
0001
1000
0100
0010
0100
0001
0010
0100
0010
1000
0100
0010
0001
1000
,
0001
0010
0001
1000
0100
0010
0100
0001
0010
0100
0010
1000
0001
0010
0100
0001
,
0010
1000
0100
1000
0010
0100
0001
0010
0001
0010
1000
0100
0010
0100
1000
0010
,
0001
0010
0100
0001
1000
0010
0100
1000
0010
0100
0001
0010
0001
0010
0100
0001
,
1010
0100
1000
0001
1010
0100
0010
1000
0101
0010
0100
0010
0100
0010
0100
0010
,
0011
1000
0100
1000
0101
0010
0100
0010
1001
0100
0010
1000
0101
1000
0100
0001
,
1010
0100
0001
0010
1001
0100
0010
1000
0110
1000
0100
0010
1001
0100
0010
0001
,
0110
1000
0100
0010
1100
0001
0010
0100
0011
0100
0010
1000
0110
1000
0100
0010
,
1100
0001
0010
0001
1010
0100
0010
0100
1001
0010
0001
0100
0010
1000
0010
0100
,
1000
0100
1000
0100
1000
0100
1000
0010
1000
0100
0010
0001
0010
0001
0010
0001
,
0100
0010
0001
0100
0010
0001
0010
0001
0010
0100
0010
0100
1000
0100
0010
0100
,
0001
0100
0010
0001
1000
0010
0100
0010
1000
0001
0010
0100
0010
0100
1000
0010
,
0002
0000
0023
0000
0230
0000
2300
0000
3200
0000
0302
0000
0023
0030
0020
0030
,
1020
0000
0000
0000
1000
0000
0000
0000
1000
0000
0000
0000
1030
0000
0100
0010
,
0200
0000
0000
0000
0000
0000
0000
0000
0300
0000
0020
0030
0200
0300
2000
3000
,
0200
0300
0020
0030
0002
0003
0020
0000
0230
0300
0020
0030
0200
0300
0020
0030
,
0020
0030
0002
0003
0020
0030
0200
0300
2000
3000
2000
3000
0200
0300
0200
0300
,
0020
0000
0030
0200
0000
0000
0302
0000
,
2003
3020
0230
0300
0020
0030
0200
0300
,
0020
0000
0000
0000
0000
0000
0000
0000
0000
0000
0000
0000
0000
0000
0000
0000
2000
0000
0000
0000
0030
0000
0000
0000
0200
0300
0002
0003
3200
0300
0000
0000
,
0011
1100
0110
1010
0101
0110
0101
1100
,
2200
0000
0300
0000
0011
0000
0010
0000
0101
3000
0010
0000
1001
0000
0020
0230
,
2301
3000
0010
0000
1100
0000
0100
0000
1010
0000
0200
0300
1002
0003
0200
0300
,
1002
0000
0100
0000
1010
0003
2000
3000
0112
0003
2000
3000
0120
0030
2000
3000
,
0021
0030
2000
3000
0201
0300
0200
0300
1021
0030
0200
0300
0021
0030
0200
0300
,
2001
3100
1100
0002
1013
0100
2001
3100
,
2010
3000
0200
0300
0012
0003
0010
0000
0201
0300
0010
0000
1002
0003
0010
0000
,
0201
0000
0010
0300
0101
0000
0001
0000
2100
0000
0001
0000
3110
0000
0001
0000
,
0002
0000
0000
0003
0200
0000
0000
0300
0020
0030
0200
0300
0002
0003
0200
0300
,
2020
0000
0000
0000
,
0000
0000
0000
0000
,
0000
0000
0000
0000
,
0000
3030
0000
0000
,
0000
0000
0000
0000
,
0000
0000
0000
0000
,
0000
1000
1000
0100
0001
0010
0100
0100
,
0010
0001
0001
0100
0020
2030
3020
2030
,
3000
0010
1100
0100
0101
0010
1010
0100
,
0110
0001
0011
0100
0101
0010
1100
0100
,
1010
0100
1001
0010
0011
0100
1010
1000
,
0101
0010
0011
1000
1010
0001
1100
0010
,
1010
0000
0001
0010
0000
0010
0100
1000
,
0010
0000
0000
0000
0000
0000
1000
0000
0000
0000
0000
0000
0100
0000
0000
0000
0000
0000
0001
0000
0000
0010
0000
0000
0100
0000
0000
0001
0000
0000
0010
0000
0100
0000
0000
0000
0100
0000
0000
0000
0000
0000
0100
0000
0000
0000
0000
0000
,
1010
0000
0100
0100
0000
0010
1010
0000
,
0101
0000
0000
0000
0010
0000
0100
0000
0000
0000
0100
1000
0110
0001
0010
0000
,
2200
3300
2200
3300
2200
3300
2200
3300
,
0010
0000
0000
0000
0000
0000
1000
0000
0000
0000
0000
0000
0100
0000
0000
0000
0000
0000
0001
0000
0000
0010
0000
0000
0100
0000
0000
0001
0000
0000
0010
0000
0100
0000
0000
0000
0100
0000
0000
0000
0000
0000
0100
0000
0000
0000
0000
0000
,
2200
3300
2200
3300
2200
3300
2200
3300
,
0110
0000
0010
0100
0000
0001
1100
0000
,
2200
0010
3301
0010
2200
0010
3301
0010
2200
0010
3301
0010
2200
0010
3301
0010
,
2200
0000
3300
0000
0202
0000
0303
0000
0220
0330
0022
0033
0220
0330
2020
3030
,
2002
3003
2002
3003
2002
3003
2002
3003
,
2002
0000
3003
0000
2002
0000
3003
0000
2000
0000
3100
0010
0001
1000
0100
0011
;
