#TITLE:Over The Rave;
#SUBTITLE:;
#ARTIST:Takoyaki;
#TITLETRANSLIT:;
#SUBTITLETRANSLIT:;
#ARTISTTRANSLIT:;
#CREDIT:;
#BANNER:untitled.JPG;
#BACKGROUND:362.jpg;
#LYRICSPATH:;
#CDTITLE:;
#MUSIC:over_the_rave_0.mp3;
#OFFSET:-0.765;
#SAMPLESTART:37.777;
#SAMPLELENGTH:12.000;
#SELECTABLE:YES;
#BPMS:0.000=159.640,32.000=159.800,191.750=159.860,216.000=160.500,287.500=161.500,326.250=320.160,328.500=160.900;
#STOPS:254.000=0.100
,329.000=0.100
,330.000=0.100
;
#BGCHANGES:;
// cache tags:
#FIRSTBEAT:16.000;
#LASTBEAT:331.000;
#SONGFILENAME:Songs/IzzySM Keyboard Mega Pack/otr/otr.sm;
#HASMUSIC:1;
#HASBANNER:1;
#MUSICLENGTH:133.284;
// end cache tags

//---------------dance-single - Hard----------------
#NOTES:
     dance-single:
     Hard:
     Hard:
     10:
     0.880,0.962,0.773,0.345,1.000,672.000,103.000,46.000,0.000,0.000:
0000
0000
0000
0000
,
0000
0000
0000
0000
,
0000
0000
0000
0000
,
0000
0000
0000
0000
,
1001
1000
0100
0010
,
0001
0000
0010
1000
0000
0100
0010
0100
,
0010
1100
0011
0110
,
0001
1000
0001
1000
0001
1000
0001
1000
0001
1000
0001
1000
0002
0000
0000
0000
,
1000
0000
1003
0000
0001
0000
1000
0100
0000
0001
0000
1000
0010
0000
0001
0000
,
1000
0000
0010
0000
1000
0000
0001
0010
0000
1000
0000
0100
0010
0000
0001
0000
,
1000
0000
0001
0000
0010
0000
1000
0100
0000
0001
0000
0010
0100
0000
1000
0000
,
0001
0000
0100
0000
1000
0000
0001
0010
0000
0100
0000
1000
0001
0000
0100
0000
,
0001
0000
0010
0000
0100
0000
1000
0100
0000
0001
0000
0010
0100
0000
1000
0000
,
0001
0000
1000
0000
0001
0000
1000
0100
0000
0010
0000
0001
0010
0000
1000
0000
,
2002
0000
0000
3003
2002
0000
3003
0000
,
0100
0010
0100
0010
0100
0010
0100
0010
1000
0001
1000
0001
1000
0001
1000
0000
,
1001
0000
1000
0000
1000
0000
0100
0000
0010
0000
0001
0010
0000
0100
1000
0100
,
1001
0000
1000
0100
1000
0100
1000
0100
1000
0001
1000
0000
1001
0000
1001
0000
,
1000
0000
0100
0000
0010
0000
0001
0000
1001
0000
1000
0100
1000
0100
1000
0100
,
1000
0001
1000
0001
1000
0001
1000
0001
0010
0001
0010
0001
0010
0001
0100
0010
,
2002
3003
1100
0000
1100
0000
1100
0000
,
1100
0000
1100
0000
1000
0001
1000
0001
,
1000
0000
0001
0000
1000
0000
0001
0000
1001
0000
1000
0100
0010
0001
0010
0100
,
1000
0100
0010
0001
0010
0100
1000
0100
0010
0001
0010
0100
2000
0000
3000
0000
,
1001
0000
1001
0000
1000
0000
0100
0000
0001
0000
0100
0010
0000
1000
0100
0010
,
1001
0000
1000
0100
0010
0001
0010
0100
1000
0100
0010
0000
0011
0000
0011
0000
,
1000
0000
0010
0000
1000
0000
0001
0000
1000
0000
0001
1000
0001
1000
0001
1000
,
0100
1000
0100
1000
0001
1000
0100
1000
0001
1000
0100
1000
0001
1000
0001
0100
,
0000
0110
1000
0000
0100
0000
0010
0000
0110
0000
1000
0100
0000
0001
0010
0100
,
0010
0001
0010
0100
1000
0100
0010
0001
0010
0100
0010
0000
0110
0000
0110
0000
,
1000
0000
0001
0000
1000
0000
0001
0000
1001
0000
1000
0100
0010
0001
0010
0100
,
1000
0100
0010
0001
0010
0100
1000
0100
0010
0001
0010
0100
1100
0000
0000
0000
,
2200
0000
0000
0000
0000
0000
3300
0000
0022
0000
0000
0000
0000
0033
0000
0000
,
2000
0000
0000
0000
0001
0000
0000
3000
0002
0000
0000
0000
1000
0000
0000
0003
,
0000
0000
0000
0000
1001
0000
0000
0000
1001
0000
0000
0000
1001
0000
0000
1000
,
0100
0000
0001
0010
0000
0100
0010
0000
1000
0100
0000
0001
0010
0000
1001
0000
,
2002
0000
0000
3003
0220
0000
0000
0330
,
2001
0000
0000
0000
0001
0000
0000
3000
2002
3000
0000
0000
1000
0000
0000
0003
,
0000
1001
1001
0110
,
0000
0000
0000
0000
0000
0000
0000
0000
0001
0010
0100
1000
0110
0000
0000
0000
,
2002
0000
0000
0000
,
0000
0000
0000
0000
,
0000
0000
0000
0000
0000
0000
0000
0000
0000
0000
3003
0000
0000
0000
0000
1000
,
0100
0000
0001
0010
0000
1000
0100
0000
1000
0100
0010
0001
0000
0001
0000
0220
,
0000
0000
0000
0000
,
0000
0000
0330
1001
1001
0000
1000
0100
,
0011
0000
0011
0000
,
1001
0000
1001
0000
0100
0000
0100
0000
1001
0000
1001
0000
0220
0000
0000
0330
,
0000
0000
0000
0000
,
0000
0000
0000
0000
0000
0000
1001
0000
0000
0110
0000
1001
0000
0110
0000
1001
,
0000
0000
0000
0000
0000
0000
0000
0000
0000
0000
0000
0000
0000
0000
0000
1000
,
0100
0000
0010
0001
0000
1000
0100
0000
0010
0100
0000
0000
0110
0000
0011
0000
,
0220
0000
0000
0000
0000
0330
0000
0000
,
0000
0000
0000
0000
0000
1001
0000
0000
0000
0110
0000
1001
0000
0110
0000
0000
,
2002
0000
0000
3003
2002
0000
3003
0000
,
1000
0001
1000
0001
1000
0001
1000
0000
0001
1000
0001
1000
0001
0000
0000
0000
,
1001
0000
1000
0000
0100
0000
0010
0000
0001
0000
0010
0100
0000
1000
0100
0010
,
0001
0000
1000
0100
0010
0001
0010
0100
1000
0100
0010
0000
0110
0000
0110
0000
,
1000
0000
0100
0000
0010
0000
0001
0000
0110
0000
1000
0100
1000
0100
1000
0100
,
0010
0100
1000
0100
0010
0001
0010
0100
1000
0100
1000
0100
1000
0100
0010
0001
,
0110
0000
1000
0000
0100
0000
1000
0000
1001
0000
0100
0010
0000
1000
0100
0010
,
0001
0000
0010
0100
1000
0100
0010
0001
0010
0100
1000
0100
0010
0001
0100
0000
,
0110
0000
0011
0000
0110
0000
1100
0000
0110
0000
1000
0100
0010
0001
0100
0010
,
0100
0010
0100
0010
1000
0100
1000
0100
0010
0000
0000
0220
0000
0330
0000
1001
,
0000
0110
0000
1100
0000
0011
0000
1100
0000
0010
0001
0000
1000
0001
1000
0110
,
0000
1000
0100
0010
0001
0100
0000
0110
0000
0110
0000
1100
0000
1100
0000
1000
,
0000
0010
0000
0001
0000
0200
0000
0310
0000
1000
0100
0010
0001
0010
0100
0010
,
0001
0010
0100
0010
0001
0010
0100
0010
0001
0010
0100
0010
0001
0010
0100
0220
,
0000
0330
0000
1000
0000
0001
0000
1000
0000
0001
0010
0000
1000
0001
1000
1001
,
0000
1000
0100
0010
0001
0010
0100
1000
0100
0010
0001
1100
0000
1100
0000
2000
,
3000
0002
0003
2000
3000
0002
0000
1003
0000
1000
0001
1000
0001
1000
0001
1000
,
0100
1000
0100
0010
0100
0010
0100
0010
0001
0010
0001
0022
0000
0033
0000
1000
,
0000
0001
0000
1000
0000
0001
0000
0100
0010
0000
1000
0000
0010
0100
0000
1000
,
0000
0001
0000
1000
0000
0100
0000
0001
0010
0000
0100
0000
0010
0100
0000
1000
,
0000
0001
0000
0100
0000
0010
0000
1000
0000
0100
0010
0001
0010
0100
0010
0001
,
0010
0100
1000
0100
1000
0100
1000
0100
0010
0001
1000
0001
1000
0001
1000
0001
,
1000
0000
0001
0000
0001
0000
0010
0000
0100
1000
0000
0001
0000
0010
0100
0000
,
1000
0000
1000
0000
0100
0000
1000
0000
0001
0010
0000
0100
0000
1001
0100
0000
,
1000
0000
0100
0000
0010
0000
0001
0000
1001
0000
1000
0001
1000
0001
1000
0001
,
1000
0100
0010
0100
0010
0100
0010
0100
0010
0001
0010
0001
0010
0001
0010
0001
,
1000
0001
1000
0001
0100
0010
0100
0010
1000
0100
1000
0100
0010
0001
0010
0100
,
1000
0110
0110
0000
1100
0000
0011
0000
0110
0220
0000
0000
0000
0000
0000
0000
,
0000
0000
0000
0330
;
