#TITLE:Russians;
#SUBTITLE:;
#ARTIST:M-Project;
#TITLETRANSLIT:;
#SUBTITLETRANSLIT:;
#ARTISTTRANSLIT:;
#CREDIT:owenviau1;
#BANNER:../BN.png;
#BACKGROUND:;
#LYRICSPATH:;
#CDTITLE:../CDTitleOV1.png;
#MUSIC:Russians.ogg;
#OFFSET:-0.055;
#SAMPLESTART:228.750;
#SAMPLELENGTH:29.999;
#SELECTABLE:YES;
#BPMS:0.000=170.000,771.000=169.000,772.000=166.000,776.000=160.000,777.000=158.000,778.000=156.000,779.000=154.000,780.000=152.000,781.000=150.000,782.000=148.000,783.000=147.000,784.000=145.000,785.000=142.000,786.000=140.000,787.000=138.000,788.000=136.000,789.000=134.000,790.000=130.000,791.000=128.000,793.000=126.000,794.000=124.000,795.000=122.000,796.000=120.000,797.000=116.000,798.000=114.000,799.000=112.000,800.000=110.000,803.000=105.000,804.000=102.000,805.000=100.000,806.000=98.000,807.000=96.000,808.000=85.000;
#STOPS:;
#BGCHANGES:;
// cache tags:
#FIRSTBEAT:8.000;
#LASTBEAT:808.500;
#SONGFILENAME:Songs/owenviau1 Simfiles 07_final/Russians - [owenviau1] v1.0.3/Russians.sm;
#HASMUSIC:1;
#HASBANNER:1;
#MUSICLENGTH:295.481;
// end cache tags

//---------------dance-single - owenviau1----------------
#NOTES:
     dance-single:
     owenviau1:
     Challenge:
     15:
     1.000,1.000,0.058,0.200,1.000,2818.000,17.000,59.000,2.000,0.000:
0000
0000
0000
0000
,
0000
0000
0000
0000
,
1000
0000
0001
0100
0010
0000
0100
0000
0000
0000
0001
0000
1000
0000
0100
0000
,
0010
0000
0001
1000
0001
0000
0400
0000
0000
0300
0010
0000
1000
0000
0001
0000
,
1000
0000
0010
0100
0001
0000
4000
0000
0000
3000
0010
0000
0100
0000
0010
0000
,
1000
0000
0001
0100
0001
0000
4000
0000
0000
3000
0100
0000
0010
0000
0001
0000
,
1000
0000
0010
0100
0001
0000
0400
0000
0000
0300
0010
0000
1000
0000
0001
0000
,
0010
0000
0100
1000
0001
0000
0400
0000
0000
0300
0010
0000
1000
0000
0001
0100
,
0001
0000
1000
0010
0100
0000
0004
0000
0000
0003
1000
0000
0100
0000
1000
0000
,
0010
0000
0100
0001
1000
0000
0004
0000
0000
0003
1000
0100
0010
0000
0001
1000
,
0001
0100
0010
0100
0001
1000
0010
1000
0100
0010
0001
1000
0100
1000
0001
0100
,
0010
0100
0001
1000
0010
1000
0100
0010
0001
0010
0100
1000
0001
0010
0001
0100
,
0010
0100
0001
1000
0010
1000
0001
0100
0010
0100
0001
1000
0100
1000
0010
0100
,
0001
0100
0010
1000
0001
1000
0100
0010
0001
1000
0100
1000
0010
0100
0010
1000
,
0001
0100
0001
0010
0100
1000
0001
0010
0001
1000
0100
1000
0010
0100
0001
0100
,
0010
1000
0001
1000
0100
0010
0001
0100
0010
1000
0010
0100
0001
1000
0001
0010
,
0100
0000
0000
1000
0000
0000
0010
0000
0000
0100
0000
0000
0001
0000
0000
1000
0000
0000
0001
0000
0000
0010
0000
0000
0100
0000
0000
1000
0000
0000
0001
0000
0000
0100
0000
0000
0001
0000
0000
1000
0000
0000
0010
0000
0100
0000
0010
0000
,
1000
0000
0000
0000
0000
0000
0001
0000
0000
0010
0000
0000
0001
0000
0000
0000
0000
0000
0400
0000
0000
0000
0000
0000
0000
0000
0000
0300
0000
0000
0010
0000
0000
0000
0000
0000
1000
0000
0001
0000
1000
0000
0001
0000
1000
0000
0001
0000
,
1000
0100
0010
0001
0100
0010
0100
0001
1000
0001
0100
0010
1000
0010
0100
0001
,
0100
0010
1000
0001
0010
0100
1000
0100
0010
0001
1000
0100
1000
0001
0010
0001
,
0100
0010
1000
0001
1000
0100
0010
0001
0100
0010
1000
0001
0100
0001
1000
0010
,
0100
0010
1000
0001
0010
0001
0100
0010
0100
0001
1000
0100
0010
0001
1000
0100
,
1000
0001
0010
0001
0100
0010
0100
0001
1000
0010
1000
0001
0100
0010
0100
0001
,
1000
0010
1000
0100
0010
0001
0100
0010
0100
0001
1000
0001
0010
0100
1000
0001
,
0010
0001
0100
0010
0100
0001
1000
0100
1000
0010
0100
0001
1000
0001
0100
0010
,
0100
0001
1000
0100
1000
0010
0100
0001
0100
0010
1000
0001
1000
0100
0010
0001
,
1000
0100
1000
0001
0010
0001
0100
0010
0100
0001
1000
0010
1000
0100
0010
0001
,
0100
0010
1000
0001
0100
0010
0100
0001
1000
0100
1000
0010
0100
0001
1000
0010
,
0100
0001
0100
0010
1000
0001
1000
0100
0010
0001
0100
0010
1000
0010
0100
0001
,
0100
0010
1000
0001
1000
0100
0010
0001
1000
0100
1000
0010
0100
0010
1000
0001
,
0100
0001
0010
0100
1000
0001
0010
0001
0100
0010
1000
0001
1000
0100
0010
0001
,
0100
0010
0100
0001
1000
0010
1000
0100
0010
0001
0100
0010
1000
0010
0100
0001
,
1000
0001
0100
0010
0100
0001
1000
0100
0010
0001
1000
0100
1000
0001
0010
0001
,
0100
0000
0000
0010
0000
0000
1000
0000
0000
0001
0000
0000
0100
0000
0000
0001
0000
0000
1000
0000
0000
0100
0000
0000
0010
0000
0001
0000
1000
0000
0001
0000
0100
0000
0010
0000
0100
0000
0001
0000
1000
0000
0010
0000
1000
0000
0001
0000
,
0100
0010
0100
0001
1000
0010
1000
0100
0010
0001
0010
0100
1000
0001
0010
0001
,
0100
0010
0100
0001
1000
0001
0100
0010
1000
0010
0100
0001
1000
0001
0010
0100
,
1000
0001
0010
0001
0100
0010
0100
0001
1000
0100
1000
0010
0100
0010
1000
0001
,
1000
0100
0010
0001
0100
0010
1000
0010
0100
0001
1000
0001
0010
0100
1000
0001
,
0010
0001
0100
0010
0100
0001
1000
0010
1000
0100
0010
0001
1000
0100
1000
0010
,
0100
0010
1000
0001
1000
0010
0100
0010
1000
0001
0010
0001
0100
0010
0100
0001
,
1000
0010
1000
0100
0010
0001
1000
0010
0100
0001
0100
0010
1000
0001
0100
0001
,
1000
0100
0010
0001
0100
0010
0100
0001
1000
0001
0010
0100
1000
0001
0010
0001
,
0100
0010
0100
0001
1000
0001
0100
0010
0100
0001
1000
0010
1000
0001
0100
0001
,
1000
0100
0010
0001
0010
0100
1000
0010
1000
0001
0100
0010
1000
0001
0010
0001
,
0100
0010
0100
0001
1000
0010
1000
0100
0010
0001
1000
0001
0100
0010
0100
0001
,
1000
0010
0100
0010
1000
0001
0100
0001
1000
0010
0100
0001
0100
0010
1000
0001
,
0010
0001
0100
0010
0100
0001
1000
0100
0010
0001
1000
0100
1000
0010
0100
0010
,
1000
0001
0100
0001
0010
0100
1000
0010
0100
0010
1000
0001
0100
0001
0010
0100
,
1000
0001
0010
0001
0100
0010
0100
0001
1000
0010
1000
0001
0100
0001
0010
0100
,
2000
0000
3002
0000
0103
0000
0020
0000
0130
0000
0002
1003
0020
0000
0230
0000
,
0301
1000
0001
0100
0010
1000
0010
0100
0001
1000
0001
0010
0100
1000
0001
0010
,
0001
0100
0010
0100
0001
1000
0010
1000
0100
0010
0001
1000
0001
0100
0010
0100
,
0001
1000
0010
1000
0100
0010
0001
1000
0100
1000
0010
0100
0001
0100
0010
1000
,
0001
1000
0100
0010
0001
0100
0010
0100
0001
1000
0010
1000
0100
0010
0001
0100
,
0010
0100
0001
1000
0001
0010
0100
1000
0001
0010
0001
0100
0010
1000
0010
0100
,
0001
1000
0001
0010
0100
1000
0001
0010
0001
0100
0010
0100
0001
1000
0010
1000
,
0100
0010
0001
1000
0100
1000
0010
0100
0010
1000
0001
1000
0010
0100
0010
1000
,
0001
0100
0010
0100
0001
1000
0100
1000
0010
0100
0001
0100
0010
1000
0001
1000
,
0100
0010
0001
1000
0100
1000
0010
0100
0010
1000
0001
0100
0001
0010
0100
1000
,
0001
0010
0001
0100
0010
0100
0001
1000
0010
1000
0001
0100
0001
0010
0100
1000
,
0001
0010
0001
0100
0010
0100
0001
1000
0010
1000
0100
0010
0001
1000
0100
1000
,
0010
0100
0001
0100
0010
1000
0001
1000
0100
0010
0001
1000
0100
1000
0010
0100
,
0001
0100
0010
1000
0001
1000
0100
0010
0001
0100
0010
1000
0010
0100
0001
1000
,
0001
0010
0100
1000
0001
0010
0001
0100
0010
1000
0001
1000
0100
0010
0001
0100
,
0010
0000
0000
1000
0000
0000
0010
0000
0000
0100
0000
0000
0001
0000
0000
1000
0000
0000
0001
0000
0000
0010
0000
0000
0100
0000
1000
0000
0001
0000
1000
0000
0010
0000
0100
0000
0010
0000
1000
0000
0001
0000
0010
0000
0100
0000
1000
0000
,
0001
0100
0010
0000
0000
0000
1000
0000
0000
0000
1000
0000
0100
0010
0001
1000
,
0010
0100
0010
1000
0001
0100
0001
0010
0100
1000
0001
0010
0001
0100
0010
1000
,
0001
0100
0001
1000
0010
1000
0100
0010
0001
1000
0100
1000
0010
0100
0010
1000
,
0001
0100
0001
1000
0100
0010
0001
1000
0100
1000
0010
0100
0010
1000
0001
0010
,
0001
0100
0010
1000
0001
1000
0100
0010
0001
0010
0100
1000
0010
0100
0010
1000
,
0001
0100
0001
1000
0100
0010
0001
1000
0100
1000
0010
0100
0010
1000
0001
0100
,
0001
1000
0100
0010
0001
1000
0100
1000
0001
0010
0100
1000
0010
0100
0010
1000
,
0001
0100
0001
1000
0010
0100
0010
1000
0001
0100
0001
1000
0100
0010
0001
1000
,
0100
1000
0010
0100
0010
1000
0001
0100
0001
1000
0100
0010
0001
0100
0010
1000
,
0010
0100
0001
1000
0001
0010
0100
1000
0001
0010
0001
0100
0010
0100
0001
1000
,
0010
1000
0100
0010
0001
1000
0100
1000
0010
0100
0010
1000
0001
0100
0001
1000
,
0010
1000
0100
0010
0001
1000
0100
1000
0001
0010
0001
0100
0010
0100
0001
1000
,
0010
1000
0100
0010
0001
1000
0100
1000
0010
0100
0001
0100
0010
1000
0001
1000
,
0100
0010
0001
1000
0100
1000
0010
0100
0010
1000
0001
0100
0001
1000
0010
1000
,
0100
0010
0001
1000
0100
1000
0010
0100
0010
1000
0001
0100
0001
0010
0100
1000
,
0001
0010
0001
0100
0010
0100
0001
1000
0010
1000
0001
0010
0100
1000
0010
0100
,
0010
0000
1000
0000
0000
0000
1000
0001
1000
0100
0010
0001
0100
0001
1000
0010
,
1000
0001
0100
0010
1000
0010
0100
0001
1000
0001
0010
0100
1000
0001
0010
0001
,
0100
0010
0100
0001
1000
0010
1000
0100
0010
0001
1000
0001
0100
0010
0100
0001
,
1000
0010
1000
0100
0010
0001
1000
0100
1000
0010
0100
0001
0100
0010
1000
0001
,
1000
0100
0010
0001
0100
0010
0100
0001
1000
0010
1000
0100
0010
0001
0100
0010
,
0100
0001
1000
0001
0010
0100
1000
0001
0010
0001
0100
0010
1000
0010
0100
0001
,
1000
0001
0010
0100
1000
0001
0010
0001
0100
0010
0100
0001
1000
0010
1000
0100
,
0010
0001
1000
0100
1000
0010
0100
0010
1000
0001
1000
0010
0100
0010
1000
0001
,
0100
0010
0100
0001
1000
0100
1000
0010
0100
0001
0100
0010
1000
0001
1000
0100
,
0010
0001
1000
0100
1000
0010
0100
0010
1000
0001
0100
0001
0010
0100
1000
0001
,
0010
0001
0100
0010
0100
0001
1000
0010
1000
0001
0100
0001
0010
0100
1000
0001
,
0010
0001
0100
0010
0100
0001
1000
0010
1000
0100
0010
0001
1000
0100
1000
0010
,
0100
0001
0100
0010
1000
0001
1000
0100
0010
0001
1000
0100
1000
0010
0100
0001
,
0100
0010
1000
0001
1000
0100
0010
0001
0100
0010
1000
0010
0100
0001
1000
0001
,
0010
0100
1000
0001
0010
0001
0100
0010
1000
0001
1000
0100
0010
0001
0100
0010
,
1000
0010
0100
0001
1000
0100
0010
0001
0100
0010
0100
0001
1000
0010
1000
0001
,
0100
0020
1030
0020
0130
0001
2000
3001
,
0010
0100
1000
0001
0100
0010
0100
0001
1000
0010
1000
0100
0010
0001
0100
0001
,
1000
0010
0100
0001
1000
0001
0010
0100
1000
0001
0010
0001
0100
0010
0100
0001
,
1000
0010
1000
0100
0010
0001
1000
0001
0100
0010
0100
0001
1000
0010
1000
0100
,
0010
0001
1000
0100
1000
0010
0100
0001
0100
0010
1000
0001
1000
0100
0010
0001
,
0100
0010
0100
0001
1000
0010
1000
0100
0010
0001
0100
0010
0100
0001
1000
0001
,
0010
0100
1000
0001
0010
0001
0100
0010
1000
0010
0100
0001
1000
0001
0010
0100
,
1000
0001
0010
0001
0100
0010
0100
0001
1000
0010
1000
0100
0010
0001
1000
0100
,
1000
0010
0100
0010
1000
0001
1000
0010
0100
0010
1000
0001
0100
0010
0100
0001
,
1000
0100
1000
0010
0100
0001
0100
0010
1000
0001
1000
0100
0010
0001
1000
0100
,
1000
0010
0100
0010
1000
0001
0100
0001
0010
0100
1000
0001
0010
0001
0100
0010
,
0100
0001
1000
0010
1000
0001
0100
0001
0010
0100
1000
0001
0010
0001
0100
0010
,
0100
0001
1000
0010
1000
0100
0010
0001
1000
0100
1000
0010
0100
0001
0100
0010
,
1000
0001
1000
0100
0010
0001
1000
0100
1000
0010
0100
0001
0100
0010
1000
0001
,
1000
0100
0010
0001
0100
0010
1000
0010
0100
0001
1000
0001
0010
0100
1000
0001
,
0010
0000
0000
0001
0000
0000
0100
0000
0000
0010
0000
0000
1000
0000
0000
0001
0000
0000
1000
0000
0000
0100
0000
0000
0010
0000
0000
0001
0000
0000
0100
0000
0000
0010
0000
0000
1000
0000
0000
0010
0000
0000
0100
0000
0001
0000
0100
0000
,
0001
0000
0000
0000
0000
0000
1000
0000
0000
0000
0000
0000
0001
0000
0000
0000
0000
0000
0100
0000
0010
0000
0100
0000
0010
0000
0000
1000
0000
0000
0001
0000
0000
0100
0000
0000
0001
0000
0000
0010
0000
0000
0100
0000
0000
1000
0000
0000
,
0010
1000
0001
0100
0010
1000
0010
0100
0001
1000
0001
0010
0100
1000
0001
0010
,
0001
0100
0010
0100
0001
1000
0010
1000
0100
0010
0001
1000
0001
0100
0010
0100
,
0001
1000
0010
1000
0100
0010
0001
1000
0100
1000
0010
0100
0001
0100
0010
1000
,
0001
1000
0100
0010
0001
0100
0010
0100
0001
1000
0010
1000
0100
0010
0001
0100
,
0010
0100
0001
1000
0001
0010
0100
1000
0001
0010
0001
0100
0010
1000
0010
0100
,
0001
1000
0001
0010
0100
1000
0001
0010
0001
0100
0010
0100
0001
1000
0010
1000
,
0100
0010
0001
1000
0100
1000
0010
0100
0010
1000
0001
1000
0010
0100
0010
1000
,
0001
0100
0010
0100
0001
1000
0100
1000
0010
0100
0001
0100
0010
1000
0001
1000
,
0100
0010
0001
1000
0100
1000
0010
0100
0010
1000
0001
0100
0001
0010
0100
1000
,
0001
0010
0001
0100
0010
0100
0001
1000
0010
1000
0001
0100
0001
0010
0100
1000
,
0001
0010
0001
0100
0010
0100
0001
1000
0010
1000
0100
0010
0001
1000
0100
1000
,
0010
0100
0001
0100
0010
1000
0001
1000
0100
0010
0001
1000
0100
1000
0010
0100
,
0001
0100
0010
1000
0001
1000
0100
0010
0001
0100
0010
1000
0010
0100
0001
1000
,
0001
0010
0100
1000
0001
0010
0001
0100
0010
1000
0001
1000
0100
0010
0001
0100
,
0010
1000
0010
0100
0001
1000
0001
0100
0010
0100
0001
1000
0010
1000
0100
0010
,
0001
0000
0100
0000
0010
0000
1000
0000
0010
0100
0001
0100
0010
1000
0001
1000
,
0200
0320
0032
2003
,
3020
0000
1030
0002
0000
0003
0000
1000
,
0200
0000
0320
0000
0031
1000
0001
0100
,
0002
0000
0013
0200
0000
0300
0000
1000
,
0100
0010
0001
1000
0002
0000
0103
0020
,
0000
0000
1030
0002
0003
0000
0010
0100
,
1000
0001
1000
0010
0100
0002
0003
2000
,
0000
0000
3100
0020
0030
0000
0001
1000
,
1MM2
0000
0023
0000
0230
0000
1300
0001
,
2000
0000
3010
0200
0300
0000
0000
0001
,
2000
0000
3200
0000
0320
0000
0031
1000
,
0200
0000
2300
0000
3020
0030
0000
0000
,
0200
0000
0302
0000
1003
0100
0010
0001
,
2000
0000
3010
0200
0300
0000
0001
1000
,
0001
0010
0200
0000
0000
1300
0001
1000
,
0100
0000
0010
0000
0001
0100
0001
1000
0010
0100
0010
1000
0001
0010
0100
1000
,
0040
0000
0230
0304
1003
0002
0403
0320
,
4030
0000
3002
0043
0130
2000
3004
0203
,
0304
0000
0023
0430
1300
0002
4003
3020
,
0430
0000
0302
4003
3010
0200
0340
2030
,
3001
0100
0010
0100
0001
1000
0010
1000
,
0100
0010
0001
1000
0100
1000
0001
0010
,
0001
0100
0010
0100
0001
1000
0100
1000
,
0001
0000
0100
0000
0010
0000
0100
0000
0001
0000
1000
0010
0100
0000
0001
0000
,
1001
1000
0100
0010
0001
0100
0010
0100
,
0001
1000
0010
1000
0001
0010
0100
1000
,
0001
0010
0001
0100
0010
0100
0001
1000
,
0010
1000
0001
0100
0001
1000
0100
0010
,
0001
1000
0100
1000
0010
0100
0010
1000
0001
0100
0001
1000
0100
0010
0001
1000
,
0100
1000
0010
0100
0010
1000
0001
0100
0001
1000
0010
0100
0010
1000
0001
0100
,
0001
0010
0100
1000
0001
0010
0001
0100
0010
0100
0001
1000
0100
0010
0001
1000
,
0100
0000
0000
1000
0000
0000
0010
0000
0000
0100
0000
0000
0010
0000
0000
1000
0000
0000
0001
0000
0000
1000
0000
0000
0100
0000
0010
0000
0001
0000
0100
0000
0001
0000
1000
0000
0040
0000
0000
0000
0000
0000
0000
0000
0000
0000
0000
0000
,
1030
0001
1000
0010
0100
0001
0010
0100
1000
0001
0100
0010
1000
0001
0010
0001
,
0100
0010
0100
0001
1000
0010
1000
0100
0010
0001
1000
0001
0100
0010
0100
0001
,
1000
0010
1000
0100
0010
0001
1000
0100
1000
0010
0100
0001
0100
0010
1000
0001
,
1000
0100
0010
0001
0100
0010
0100
0001
1000
0010
1000
0100
0010
0001
0100
0010
,
0100
0001
1000
0001
0010
0100
1000
0001
0010
0001
0100
0010
1000
0010
0100
0001
,
1000
0001
0010
0100
1000
0001
0010
0001
0100
0010
0100
0001
1000
0010
1000
0100
,
0010
0001
1000
0100
1000
0010
0100
0010
1000
0001
1000
0010
0100
0010
1000
0001
,
0100
0010
0100
0001
1000
0100
1000
0010
0100
0001
0100
0010
1000
0001
1000
0100
,
0010
0001
1000
0100
1000
0010
0100
0010
1000
0001
0100
0001
0010
0100
1000
0001
,
0010
0001
0100
0010
0100
0001
1000
0010
1000
0001
0100
0001
0010
0100
1000
0001
,
0010
0001
0100
0010
0100
0001
1000
0010
1000
0100
0010
0001
1000
0100
1000
0010
,
0100
0001
0100
0010
1000
0001
1000
0100
0010
0001
1000
0100
1000
0010
0100
0001
,
0100
0010
1000
0001
1000
0100
0010
0001
0100
0010
1000
0010
0100
0001
1000
0001
,
0010
0100
1000
0001
0010
0001
0100
0010
1000
0001
1000
0100
0010
0001
0100
0010
,
1000
0010
0100
0001
1000
0100
0010
0001
0100
0010
0100
0001
1000
0010
1000
0001
,
0100
0000
0020
0000
1030
0000
0020
0000
0130
0001
1000
0001
0100
0010
1000
0010
,
0100
0001
1000
0001
0100
0010
0100
0001
1000
0010
1000
0100
0010
0001
0100
0001
,
1000
0010
0100
0001
1000
0001
0010
0100
1000
0001
0010
0001
0100
0010
0100
0001
,
1000
0010
1000
0100
0010
0001
1000
0001
0100
0010
0100
0001
1000
0010
1000
0100
,
0010
0001
1000
0100
1000
0010
0100
0001
0100
0010
1000
0001
1000
0100
0010
0001
,
0100
0010
0100
0001
1000
0010
1000
0100
0010
0001
0100
0010
0100
0001
1000
0001
,
0010
0100
1000
0001
0010
0001
0100
0010
1000
0010
0100
0001
1000
0001
0010
0100
,
1000
0001
0010
0001
0100
0010
0100
0001
1000
0010
1000
0100
0010
0001
1000
0100
,
1000
0010
0100
0010
1000
0001
1000
0010
0100
0010
1000
0001
0100
0010
0100
0001
,
1000
0100
1000
0010
0100
0001
0100
0010
1000
0001
1000
0100
0010
0001
1000
0100
,
1000
0010
0100
0010
1000
0001
0100
0001
0010
0100
1000
0001
0010
0001
0100
0010
,
0100
0001
1000
0010
1000
0001
0100
0001
0010
0100
1000
0001
0010
0001
0100
0010
,
0100
0001
1000
0010
1000
0100
0010
0001
1000
0100
1000
0010
0100
0001
0100
0010
,
1000
0001
1000
0100
0010
0001
1000
0100
1000
0010
0100
0001
0100
0010
1000
0001
,
1000
0100
0010
0001
0100
0010
1000
0010
0100
0001
1000
0001
0010
0100
1000
0001
,
0010
0001
0100
0010
1000
0001
1000
0100
0010
0001
0100
0010
1000
0001
0100
0001
,
0010
0000
0000
0100
0000
0000
1000
0000
0000
0001
0000
0000
0100
0000
0000
0010
0000
0000
0100
0000
0000
0001
0000
0000
1000
0000
0010
0000
1000
0000
0001
0000
0100
0000
0001
0000
1000
0000
0100
0000
0010
0000
0001
0000
1000
0000
0001
0000
,
0100
0010
0100
0001
1000
0010
1000
0100
0010
0001
1000
0010
1000
0100
0010
0001
,
0100
0001
1000
0010
1000
0001
0100
0001
1000
0100
0010
0001
1000
0010
0100
0010
,
1000
0001
0100
0001
0010
0100
1000
0001
0010
0001
0100
0010
0100
0001
1000
0010
,
1000
0100
0010
0001
0100
0010
0100
0001
1000
0010
0100
0010
1000
0001
0100
0001
,
0010
0100
1000
0001
0010
0001
1000
0100
1000
0010
0100
0010
1000
0001
0100
0001
,
1000
0010
0100
0001
0100
0010
1000
0001
1000
0100
0010
0001
1000
0100
1000
0001
,
0010
0001
0100
0010
0100
0001
1000
0010
1000
0001
0010
0100
1000
0001
0100
0001
,
1000
0010
0100
0001
0100
0000
0020
0000
1030
0000
0040
0000
0230
0000
0301
0000
,
2002
3003
0000
0000
0000
0000
0000
0000
,
0000
0000
0000
0000
,
0000
0000
0000
0000
;
