#TITLE:No Such Thing;
#SUBTITLE:as the Promised Land;
#ARTIST:SGX, sephfire;
#TITLETRANSLIT:;
#SUBTITLETRANSLIT:;
#ARTISTTRANSLIT:;
#CREDIT:Darkmage;
#BANNER:nosuchthing-bn.png;
#BACKGROUND:nosuchthing-bg.png;
#LYRICSPATH:;
#CDTITLE:!darkmagetitle2.png;
#MUSIC:No Such Thing.ogg;
#OFFSET:1.512;
#SAMPLESTART:58.470;
#SAMPLELENGTH:24.350;
#SELECTABLE:YES;
#BPMS:0.000=160.000,4.000=80.000,36.000=160.000,68.000=80.000,92.000=40.000,93.250=20.000,93.875=10.000,94.000=160.000,190.000=80.000;
#STOPS:;
#BGCHANGES:0.000=nosuchthing-bg.png=1.000=0=0=1,
99999=-nosongbg-=1.000=0=0=0 // don't automatically add -songbackground-
;
// cache tags:
#FIRSTBEAT:4.000;
#LASTBEAT:208.000;
#SONGFILENAME:Songs/Archmage and Dark0wl Hammer of Thor UltraHyperMegaPack/No Such Thing As The Promised Land/No Such Thing.sm;
#HASMUSIC:1;
#HASBANNER:1;
#MUSICLENGTH:105.000;
// end cache tags

//---------------dance-single - Darkmage----------------
#NOTES:
     dance-single:
     Darkmage:
     Hard:
     10:
     0.720,0.742,0.429,0.000,0.576,484.000,45.000,0.000,0.000,0.000:
0000
0000
0000
0000
,
1001
0100
0010
1000
0010
0100
0010
0100
,
0001
0100
0010
1000
0010
0100
0010
0100
,
1000
0100
0001
0010
0100
0010
0100
0010
,
0001
0000
0000
0000
1000
0000
0000
0000
0010
0000
0000
0000
0100
0000
0000
0000
0001
0000
0000
0000
0010
0000
0000
0000
0001
0000
0100
0000
0010
1000
0001
0100
,
0010
1000
0100
1000
0010
0100
0001
0010
0100
0000
1000
0000
0100
0000
1000
0000
,
0100
0010
0001
1000
0010
0100
0001
1000
0100
1000
0010
0001
0010
1000
0100
0001
,
0100
0000
0010
0000
0100
0000
0010
0000
0100
0010
1000
0001
0010
0100
0001
0100
,
1000
0000
0010
0000
0100
0000
0001
0000
0100
0000
1000
0000
0100
0000
0010
0000
1000
0000
0000
0000
0001
0000
0000
0000
0100
0010
0100
0010
1000
0001
1000
0001
,
1000
0000
0100
0000
1000
0000
0010
0100
0010
0100
0010
0000
0100
0000
0001
0000
,
0010
0000
0100
0000
1000
0000
0001
0100
0001
0100
0001
0000
0010
0000
0100
0000
,
1000
0000
0100
0000
0010
0000
0100
1000
0100
1000
0100
0000
0010
0000
0100
0000
,
1000
0000
0000
0000
0000
0000
0010
0000
0000
0000
0000
0000
0100
0000
0000
0000
0000
0000
0001
0000
0000
0100
0000
0000
0010
0000
1000
0000
0010
0000
1000
0000
0000
0000
0000
0000
0010
0000
1000
0000
0010
0000
1000
0000
0000
0000
0000
0000
,
0001
0000
0100
0000
0001
0000
1000
0010
1000
0010
1000
0000
0100
0000
0010
0000
,
0001
0000
1000
0000
0001
0000
0010
0100
0010
0100
0010
0000
0100
0000
1000
0000
,
0001
0000
0100
0000
0010
0000
1000
0100
1000
0100
1000
0000
0010
0000
0100
0000
,
0010
0000
0000
0000
0000
0000
1000
0000
0000
0000
0000
0000
0010
0000
0000
0100
0000
0000
0010
0000
0000
0100
0000
0000
0010
0000
0100
0000
0010
0000
0100
0000
0000
0000
0000
0000
0010
0000
0100
0000
0010
0000
0100
0000
0000
0000
0000
0000
,
0001
0000
0000
0000
0100
0000
0000
0000
0010
1000
0010
0000
0100
0000
0001
0000
0000
0000
0100
0000
0000
0000
0010
0000
1000
0000
0100
0000
0010
0000
0001
0000
,
1000
0000
0010
0000
0100
0000
0000
0000
0001
0000
0010
0000
0100
0000
1000
0000
0000
0000
0001
0000
0000
0000
0100
0010
0100
0000
0010
0000
1000
0000
0001
0000
,
1001
0000
0000
0000
1001
0000
0000
0000
0010
0100
0010
0000
1000
0000
0001
0000
0000
0000
1000
0000
0000
0000
0001
0000
0100
0000
0010
0000
1000
0000
0100
0000
,
1000
0000
0000
0010
0000
0000
0100
0000
0000
0000
0000
0000
0001
0000
0000
0100
0000
0000
0010
0000
0000
1000
0000
0000
0000
0000
0000
0001
0000
0000
0000
0000
0000
0000
0000
0000
1000
0000
0000
0001
0000
0000
1000
0000
0001
0000
1000
0000
,
0100
0000
0000
0000
1000
0000
0000
0000
0001
0100
0001
0000
0010
0000
0100
0000
0000
0000
1000
0000
0000
0000
0000
0000
0100
0000
1000
0000
0100
0000
0010
0000
,
0001
0000
1000
0000
0100
0000
0000
0000
0001
0000
0010
0000
0100
0000
1000
0000
0000
0000
0010
0000
0000
0000
0100
0010
0100
0000
0001
0000
0010
0000
0100
0000
,
1000
0100
0010
0001
1000
0100
0010
0001
1000
0100
0010
0000
0000
0000
0000
0000
1001
0000
0000
0000
0000
0000
0000
0000
0011
0000
0000
0000
0000
0000
0000
0000
,
1000
0101
0010
1000
0101
0010
1000
0100
,
0010
0001
1000
0010
1001
0000
0010
0001
,
1100
0001
0010
1100
0010
0001
1000
0010
,
1001
0100
0010
0100
0110
0000
0110
1000
,
0001
1100
0100
1000
1100
1000
0100
1100
,
1000
0010
0100
0010
1001
0100
0010
1000
,
0001
0010
0100
1000
0001
0001
1000
1000
,
0010
0000
0000
0010
0000
0000
0100
0010
0100
0010
0000
0000
1001
0000
0000
0000
0000
0000
1010
0000
0000
0000
0000
0000
,
0001
1100
0010
0001
1100
0010
0100
1000
,
0001
0100
0010
1000
1001
0000
0101
0001
,
1100
0001
0100
1100
0010
0001
1000
0010
,
0100
0010
0100
0010
0000
0000
1000
0001
1000
0001
0000
0000
1001
0000
0000
0000
0000
0000
0010
0000
0000
1000
0000
0000
,
0001
0110
1000
0001
1100
0001
1000
0011
,
1000
0001
0010
0100
1001
0010
0100
1000
,
0001
0010
0001
1000
0010
0010
0100
0100
,
0001
0010
0001
0010
0000
0000
0100
1000
0100
1000
0000
0000
1100
0000
0000
0100
0000
0000
1000
0000
0000
0100
0000
0000
,
0011
0010
0001
0010
0101
0100
0001
0100
,
1010
1000
0010
1000
1001
0001
1000
0001
,
0101
0100
0001
0100
0110
0010
0100
0010
,
1000
0010
1000
0010
0000
0000
0100
0001
0100
0001
0000
0000
1001
0000
0000
0001
0000
0000
0100
0000
0000
0001
0000
0000
,
0011
0010
0100
1000
1100
1000
0010
0100
,
0101
0001
0010
0100
1100
1000
0100
0010
,
0101
0001
0100
0010
1010
1000
0001
0010
,
0100
0000
0000
1000
0000
0000
0001
0010
0100
1000
0000
0000
1001
0000
0000
0000
0000
0000
0010
0000
0000
0000
0000
0000
,
0100
0001
0000
0100
,
0010
0000
0000
1000
,
0000
0000
0000
0000
0000
0001
0000
0000
,
0000
0000
0000
0000
0100
0000
0000
0000
0000
0000
0010
0000
0010
0000
0100
0010
;

//---------------dance-single - Darkmage----------------
#NOTES:
     dance-single:
     Darkmage:
     Challenge:
     11:
     0.833,0.867,1.000,0.086,0.614,489.000,114.000,9.000,87.000,0.000:
0000
0000
0000
0000
,
1001
0100
0010
1000
0010
0100
0010
0100
,
0001
0100
0010
1000
0010
0100
0010
0100
,
1000
0100
0001
0010
0100
0010
0100
0010
,
0001
0000
0000
0000
1000
0000
0000
0000
0010
0000
0000
0000
0100
0000
0000
0000
0001
0000
0000
0000
0010
0000
0000
0000
0001
0000
0100
0000
0010
1000
0001
0100
,
0010
0100
0101
0001
0010
0100
1001
0100
0010
0000
1000
0000
0100
0000
1000
0000
,
0100
0010
0101
1000
0010
0100
1001
0010
1000
0001
0110
0100
0010
1000
1100
0001
,
0100
0000
0010
0000
0100
0000
0010
0000
0100
0010
1100
0001
0010
0100
0011
0100
,
1000
0000
0010
0000
1100
0000
0001
0000
0100
0000
1000
0000
0101
0000
0010
0000
1100
0000
0000
0000
0011
0000
0000
0000
0100
0010
0100
0010
1000
0001
1000
0001
,
1000
0000
0100
0000
1000
0000
0001
0010
0100
0010
0001
0000
1000
0000
0010
0000
,
0100
0000
0001
0000
1000
0000
0100
0010
0100
1000
0100
0000
0010
0000
0100
0000
,
1100
0000
0010
0000
0001
0000
1000
0010
0100
0010
1000
0000
0010
0000
0100
0000
,
0001
0000
0000
0000
0000
0000
0010
0000
0000
0000
0000
0000
0100
0000
0000
0000
0000
0000
1000
0000
0000
0100
0000
0000
0010
0000
0001
0000
0010
0000
0100
0000
0000
0000
0000
0000
1000
0000
0100
0000
1000
0000
0010
0000
0000
0000
0000
0000
,
1001
0000
0010
0000
0101
0000
0010
0100
0001
0010
0100
0000
1000
0000
0100
0000
,
0001
0000
0100
0000
1000
0000
0010
0001
0010
0100
0001
0000
0010
0000
0100
0000
,
1010
0000
0100
0000
0001
0000
0010
1000
0010
0001
1000
0000
0100
0000
0001
0000
,
0100
0000
0000
0000
0000
0000
0010
0000
0000
0000
0000
0000
0001
0000
0000
1000
0000
0000
0100
0000
0000
0010
0000
0000
0001
0000
0010
0000
0100
0000
1000
0000
0000
0000
0000
0000
1000
0000
0010
0000
0100
0000
0001
0000
0000
0000
0000
0000
,
1001
0000
0000
0000
0100
0000
0000
0000
001M
1000
0010
0000
M100
0000
0001
0000
00M0
0000
0100
0000
M000
0000
0010
0000
100M
0000
0100
0000
M010
0000
0001
0000
,
1M00
0000
0010
0000
010M
0000
0000
0000
M001
0000
0010
0000
010M
0000
1000
0000
00M0
0000
0001
0000
M000
0000
0100
0010
010M
0000
0010
0000
1M00
0000
0001
0000
,
10M1
0000
0000
0000
1M01
0000
0000
0000
001M
0100
0010
0000
1M00
0000
0001
0000
00M0
0000
1000
0000
0M00
0000
0001
0000
M100
0000
0010
0000
100M
0000
0100
0000
,
100M
0000
0000
0010
0000
0000
M100
0000
0000
0000
0000
0000
00M1
0000
0000
0100
0000
0000
001M
0000
0000
1000
0000
0000
0M00
0000
0000
0001
0000
0000
M0M0
0000
0000
0000
0000
0000
1M00
0000
0000
0001
0000
0000
10M0
0000
0001
0000
1000
0000
,
01M0
0000
0000
0000
1MMM
0000
0000
0000
M0M1
0100
0001
0000
M010
0000
0100
0000
00MM
0000
1000
0000
0MMM
0000
M000
0000
01MM
0000
1000
0000
010M
0000
M010
0000
,
0M01
0000
10M0
0000
010M
0000
M0M0
0000
0M01
0000
M010
0000
010M
0000
10M0
0000
0000
0000
0M10
0000
M00M
0000
0100
0010
0100
0000
M001
0000
0010
M000
010M
0000
,
10M0
010M
M010
0M01
10M0
010M
M010
0M01
10M0
010M
M010
0M0M
M0M0
0M0M
M0M0
0M00
10M1
0000
0000
0000
0000
0000
0000
0000
0011
0000
0000
0000
0110
0000
0000
0000
,
1000
0101
0110
1100
0101
0010
1000
0100
,
0010
0001
1000
0010
1001
0000
0010
1001
,
1100
0001
0110
1100
0010
0001
1000
0010
,
1001
0100
0010
0100
0110
0000
0110
1100
,
0001
1100
0100
1000
1100
0011
0010
0011
,
0001
0010
0100
0010
1001
0100
0010
1100
,
0101
0010
0101
1100
0101
1010
1100
0011
,
1010
0000
0000
0101
0000
0000
0100
0010
1000
0001
0000
0000
1001
0000
0000
0110
0000
0000
1010
0000
0000
0101
0000
0000
,
1001
1100
0110
0101
1100
0010
0100
1000
,
0001
0100
0010
1000
1001
0010
0101
0011
,
1100
0001
0110
1100
0010
0001
1000
0010
,
0100
0010
0100
0010
0000
0000
1000
0001
1000
0001
0000
0000
1001
0000
0000
0100
0000
0000
0110
0000
0000
1100
0000
0000
,
0011
0110
1100
0011
1100
0001
1000
0011
,
1000
0001
0010
0100
1001
0010
0100
1100
,
0011
0010
0011
1100
0110
0011
1100
0110
,
0001
0010
0100
1000
0000
0000
0001
0010
0100
1000
0000
0000
1100
0000
0000
0100
0000
0000
1001
0000
0000
0100
0000
0000
,
0011
0010
1001
0010
0101
0100
1001
0100
,
1010
0001
1001
0100
1010
0001
1001
0010
,
0101
0100
1001
0100
0110
0010
1001
0010
,
1000
0010
0100
0001
0000
0000
0100
0001
1000
0010
0000
0000
1001
0000
0000
0001
0000
0000
0110
0000
0000
0001
0000
0000
,
0011
0010
0110
1000
1100
1000
0110
0100
,
0101
0001
0110
0100
1100
1000
0110
0010
,
0101
0001
0110
0010
1010
1000
0101
0010
,
0110
0000
0000
1000
0000
0000
0001
0010
0100
1000
0000
0000
2001
0000
0000
0000
0000
0000
3020
0000
0000
0000
0000
0000
,
0230
0302
0000
0203
,
0320
0000
0000
2030
,
0000
0000
0000
0000
0000
3002
0000
0000
,
0000
0000
0000
0000
0203
0000
0000
0000
0000
0000
0010
0000
0310
000M
M100
0010
,
0M00
0000
0000
0000
;

//---------------dance-single - Darkmage----------------
#NOTES:
     dance-single:
     Darkmage:
     Medium:
     8:
     0.612,0.717,0.419,0.019,0.410,404.000,44.000,2.000,0.000,0.000:
0000
0000
0000
0000
,
1000
0010
0100
0001
0010
0100
1000
0001
,
0100
0010
1000
0010
0100
0001
0010
0001
,
0100
0010
1000
0100
1000
0001
0100
0010
,
0100
0000
0000
0000
0001
0000
0000
0000
0010
0000
0000
0000
0100
0000
0000
0000
1000
0000
0000
0000
0001
0000
0000
0000
1000
0000
0100
0000
1000
0100
1000
0100
,
1000
0100
1000
0100
0010
0001
0010
0001
1000
0000
0010
0000
0100
0000
0001
0000
,
1000
0010
1000
0001
0100
0010
0100
0001
0010
0100
0010
0001
1000
0010
0100
0001
,
0010
0000
0100
0000
1000
0000
0001
0000
0100
0010
0100
0001
0010
0100
1000
0001
,
0100
0000
0010
0000
0100
0000
0001
0000
0010
0000
0100
0000
0010
0000
0001
0000
1000
0000
0000
0000
0001
0000
0000
0000
1000
0001
1000
0001
1000
0001
1000
0001
,
1000
0100
1000
0001
0100
0010
0100
0001
,
1000
0100
0010
0100
1000
0100
0010
0001
,
0010
0100
1000
0001
0100
0010
0100
0001
,
0010
0000
0100
0000
1000
0000
0001
0000
1000
0001
1000
0000
0001
1000
0001
0000
,
1001
0000
0100
0010
1000
0001
0010
0001
,
0100
0010
1000
0001
0010
0100
0010
0001
,
1000
0010
0100
0001
0010
0001
0100
0010
,
1000
0000
0001
0000
1000
0001
1000
0001
1000
0001
1000
0000
0001
1000
0001
0000
,
1000
0000
0001
0000
1000
0100
1000
0010
0000
0100
0000
0001
0010
0100
0010
0001
,
1000
0000
0010
0000
0100
0000
0000
0000
0001
0000
0100
0000
0010
0000
1000
0000
0000
0000
0001
0000
0000
0000
1000
0100
1000
0000
0100
0000
0000
0000
1000
0000
,
1001
0000
0101
0000
0001
0010
0100
1000
0000
0001
0000
1000
0010
0100
0001
0100
,
0010
0000
0000
1000
0000
0000
0010
0000
0000
0000
0000
0000
0100
0000
0000
0001
0000
0000
0010
0000
0000
0100
0000
0000
0000
0000
0000
1000
0000
0000
0000
0000
0000
0000
0000
0000
1000
0000
0000
0001
0000
0000
1000
0000
0001
0000
1000
0000
,
0001
0000
0000
0000
1000
0000
0000
0000
0001
0010
0001
0000
0010
0000
0001
0000
0000
0000
0010
0000
0000
0000
0000
0000
0001
0000
0010
0000
0100
0000
1000
0000
,
0010
0000
0100
0000
0001
0000
0000
0000
0100
0000
0010
0000
1000
0000
0010
0000
0000
0000
0100
0000
0000
0000
0001
0100
0001
0000
0100
0000
0001
0000
0100
0000
,
0010
1000
0010
1000
0010
1000
0010
0000
0000
0000
0000
0000
0000
0000
0000
0000
1001
0000
0000
0000
0000
0000
0000
0000
0110
0000
0000
0000
0000
0000
0000
0000
,
1000
0100
0010
0001
1000
0010
0100
0001
,
1000
0100
0010
0001
0011
0000
1100
0000
,
0001
0100
0010
1000
0010
0100
0001
0010
,
0100
1000
0010
0100
0101
0000
1010
0000
,
0100
0010
1000
0010
0100
0001
0100
0010
,
1000
0010
0100
0001
0010
0000
0100
1000
,
0100
1000
0010
0100
0001
0001
1000
1000
,
0010
0010
0100
0100
0110
0000
1001
0000
,
0100
0010
1000
0001
0010
0001
0100
0010
,
1000
0100
0010
0001
1100
0000
0001
0100
,
0010
1000
0010
0100
0001
0010
0001
0100
,
0010
1000
0001
0010
0011
0000
1100
0000
,
0001
0100
0010
1000
0010
0100
0001
0010
,
0001
0100
0010
1000
0010
0000
0100
0001
,
0010
0100
1000
0001
0100
0100
0010
0010
,
1000
0100
0010
0001
1100
0000
0011
0000
,
0101
1010
1100
1010
,
0101
0011
1100
0011
,
0101
1010
1100
0011
,
0100
0010
0100
0000
0010
1000
0010
0000
1010
0000
0000
0000
1100
0000
0000
0000
,
0011
0101
1010
0101
,
0011
1100
1010
1100
,
0011
0101
0110
0101
,
1010
0000
0000
0000
0100
0001
0100
0000
2002
0000
0000
0000
0000
0000
0000
0000
,
0000
0000
0000
0000
,
0000
0000
0000
0000
,
0000
0000
0000
0000
,
0000
0000
0000
0000
0000
0000
0000
0000
3003
0000
0100
0000
0010
0000
1000
0001
;

//---------------dance-single - Darkmage----------------
#NOTES:
     dance-single:
     Darkmage:
     Easy:
     6:
     0.484,0.569,0.438,0.019,0.157,308.000,46.000,2.000,0.000,0.000:
0000
0000
0000
0000
,
1000
0001
1000
0001
0100
0010
0100
0010
,
1000
0100
1000
0100
0010
0001
0010
0001
,
1000
0010
1000
0010
0100
0001
0100
0001
,
0010
0001
0010
0001
1000
0100
0011
1100
,
0001
0101
1000
1100
0010
0001
1000
0010
,
0100
0101
0001
0011
0010
0110
0100
1100
,
1000
0010
0100
0001
1000
1100
0100
0110
,
0010
0011
0001
0101
1001
1010
1100
0011
,
1000
0000
0100
0000
1000
0100
1000
0000
,
0010
0100
0001
0010
,
0100
0000
0010
0000
0001
0100
0001
0000
,
0010
0000
0100
0000
1000
0010
0100
0001
,
1000
0000
0100
0000
0010
0001
0010
0000
,
0100
1000
0001
0100
,
0010
0000
1000
0000
0010
0100
0010
0000
,
1000
0000
0001
0010
0100
1000
0001
1000
,
0010
0000
0000
0000
0100
0010
0100
0010
0000
0100
0000
0010
0100
0000
0010
0000
,
0100
0000
0001
0000
1000
0100
1000
0100
0000
1000
0000
0001
0010
0000
0100
0000
,
1000
0000
0001
0000
0100
0010
0100
0001
0000
1000
0000
0100
1000
0000
0001
0000
,
0100
0000
0000
0000
0000
0000
0010
0000
0000
0000
0000
0000
1000
0000
0000
0100
0000
0000
0010
0000
0000
0001
0000
0000
0000
0000
0000
1000
0000
0000
0000
0000
0000
0000
0000
0000
0001
0000
0000
1000
0000
0000
0001
0000
1000
0000
0001
0000
,
1000
0000
0001
0000
0100
0010
1000
0001
0000
1000
0000
0001
0010
0000
0100
0000
,
1000
0000
0001
0000
0100
0010
1000
0001
0000
1000
0000
0001
0010
0000
0100
0000
,
1000
0100
1000
0100
0010
0001
0010
0001
0000
0000
0000
0000
0000
0000
0000
0000
1100
0000
0000
0000
0000
0000
0000
0000
1100
0000
0000
0000
0000
0000
0000
0000
,
1000
0100
1000
0000
0100
1000
0010
0000
,
0100
0001
0010
0001
0010
0000
0011
0000
,
0011
0001
0100
0000
0010
0100
0001
0000
,
0010
0100
1000
0010
0100
0000
0110
0000
,
0110
0100
0001
0000
0001
0010
0100
0000
,
0100
1000
0010
0100
0001
0000
1000
0100
,
1000
0000
0010
0100
0001
1000
0001
1000
,
0001
1000
0001
1000
1001
0000
1001
0000
,
0100
0010
1000
0000
0010
0100
0001
0000
,
0010
0100
1000
0001
0100
0000
0101
0000
,
0010
0100
1000
0000
0001
0100
0010
0000
,
1000
0100
0010
0001
1000
0000
1010
0000
,
0010
0100
0001
0000
0001
1000
0100
0000
,
0100
0010
0001
1000
0010
0000
0100
0001
,
0010
0000
0100
1000
0001
0000
0100
0010
,
1100
0011
1000
1100
,
1000
1100
0001
0101
,
0001
0101
0010
0011
,
0010
0011
1000
1010
,
0110
0101
0001
0011
,
0010
0110
0100
1100
,
1000
1010
0010
0110
,
0100
0101
0001
0011
,
0010
0110
2002
0000
,
0000
0000
0000
0000
,
0000
0000
0000
0000
,
0000
0000
0000
0000
,
0000
0000
0000
0000
0000
0000
0000
0000
3003
0000
0100
0000
0100
0000
0100
0010
;
