#TITLE:Infinite;
#SUBTITLE:Sonic Forces OST;
#ARTIST:Dangerkids;
#TITLETRANSLIT:;
#SUBTITLETRANSLIT:;
#ARTISTTRANSLIT:;
#CREDIT:Owem;
#BANNER:../banner.png;
#BACKGROUND:../bg.png;
#LYRICSPATH:;
#CDTITLE:../cdtitleowem.png;
#MUSIC:Dangerkids - Infinite - Sonic Forces OST.ogg;
#OFFSET:-0.668;
#SAMPLESTART:70.954;
#SAMPLELENGTH:29.999;
#SELECTABLE:YES;
#BPMS:0.000=140.000,32.000=280.000,288.000=140.000,292.000=280.000,546.000=140.000,711.000=280.000,999.000=140.000;
#STOPS:;
#BGCHANGES:;
// cache tags:
#FIRSTBEAT:0.000;
#LASTBEAT:997.000;
#SONGFILENAME:Songs/Owem's Simfiles 08 - 1.2/Infinite - [Braeden] - v2/Infinite.sm;
#HASMUSIC:1;
#HASBANNER:1;
#MUSICLENGTH:275.147;
// end cache tags

//---------------dance-single - ----------------
#NOTES:
     dance-single:
     :
     Challenge:
     24:
     1.000,1.000,0.316,0.323,1.000,2684.000,87.000,89.000,5.000,1.000:
1000
0001
0101
0010
,
1010
0010
0110
0001
,
0011
0000
0000
0000
1000
0000
0001
0100
0010
0000
0000
0000
1000
0000
0001
0000
,
2002
0000
0000
0000
3013
0000
0100
0000
0010
0000
1000
0000
0001
0000
0000
0000
1010
0000
0000
0000
0100
0000
0000
0000
0001
0000
0000
0000
1000
0100
0010
0001
,
1000
0000
0010
0000
0100
0001
0100
0000
1010
0000
0000
0000
0001
0000
0001
0000
,
1001
0000
0100
0010
0000
0100
0001
0000
1010
0000
0010
0000
0010
0000
0010
0000
,
1010
0100
0001
0010
,
0100
0000
0010
0000
0001
0000
1000
0000
0010
0000
0100
0001
0100
0000
0010
0000
1000
0000
0001
0000
1000
0000
0001
0000
,
0200
0000
0000
0000
0310
0000
1000
0000
0001
0000
0000
0000
1000
0100
0010
0001
,
0010
0000
0000
0000
0100
0000
0000
0000
1000
0001
0010
0100
1000
0010
0100
0001
,
1000
0000
0001
0100
0010
1000
0010
0100
,
1001
0000
0000
0000
1000
0000
0000
0000
0001
0010
0100
1000
0001
0100
0010
1000
,
0001
0000
1000
0100
0010
0001
1000
0010
,
0100
0000
0000
0000
0011
0000
0000
0000
0100
1000
0001
0100
0010
1000
0100
0010
,
0001
0100
0010
1000
0001
0010
0100
1000
,
0001
0000
0010
0000
0100
0000
1000
0000
0001
1000
0001
0010
0100
1000
0001
0100
,
0020
0000
0000
2030
0000
0000
3002
0000
,
0013
0000
0001
0000
1000
0000
0010
0000
0100
0001
1000
0100
0010
0001
1000
0010
,
0100
0000
0001
0000
0100
0000
0010
1000
,
1010
0000
0000
0000
1000
0000
0001
0000
0100
0010
1000
0001
0010
0100
1000
0001
,
0100
0001
1000
0100
0010
0001
0010
0100
1000
0001
0100
0010
0100
0001
0010
0001
,
1000
0100
0010
0001
1000
0010
0100
0001
0010
0100
1000
0001
0100
0010
0100
0001
,
0010
0001
1000
0100
0010
0001
1000
0010
0100
0001
0010
0100
1000
0001
0100
0010
,
1000
0001
1000
0100
0010
0001
0010
0100
1000
0001
0100
0010
0100
0001
1000
0010
,
1000
0001
0100
0001
,
0101
0000
0000
0000
0010
0000
0000
0000
1000
0001
0010
0100
1000
0001
0100
0010
,
0100
0000
0010
1000
0001
0100
0010
1000
,
0100
0000
0000
0000
0010
0000
0001
0000
1000
0001
1000
0100
1000
0001
0010
0100
,
1000
0000
0010
0100
0001
1000
0100
0010
,
0001
0000
0000
0000
1000
0000
0010
0000
0100
0001
0100
0010
1000
0001
0010
0100
,
1000
0000
0010
1000
0001
0100
0010
1000
,
0001
0000
0010
0000
0100
0000
1000
0000
0001
0100
0010
1000
0001
0010
0100
1000
,
0001
0000
0000
M01M
0000
0000
01M0
0000
,
2M02
0000
3003
0000
,
0202
0000
0303
2020
0000
3030
1000
0100
,
2200
0000
0000
3300
,
2002
0000
3003
0202
0000
0303
0100
0001
,
0202
0000
0000
0303
,
2020
0000
3030
0220
0000
0330
0100
0001
,
1001
0000
1000
0001
,
0100
0010
1000
0001
0010
0001
1000
0010
,
0100
0000
0001
0000
1000
0000
0100
0000
0010
0001
1000
0010
0100
0001
0010
0001
,
1000
0100
1000
0001
0010
0001
0100
0010
,
1000
0000
0001
0000
0010
0000
0100
0000
1000
0001
1000
0100
1000
0001
0010
0001
,
0100
0010
1000
0010
0100
0001
0010
0001
,
1000
0000
0100
0000
0010
0000
0001
0000
1000
0100
1000
0001
0010
0001
0100
0010
,
1000
0010
0100
0001
0010
0001
1000
0100
,
1000
0010
1000
0010
0100
0001
1000
0100
,
0020
0000
0030
0022
0000
0033
0001
1000
,
0020
0000
0000
0030
0100
0000
0001
0000
,
0200
0000
0300
0020
0000
0030
1000
0001
,
2002
0000
3003
0000
,
2200
0000
3300
0220
0000
0330
0001
1000
,
2002
0000
3003
0000
,
0202
0000
0303
2020
0000
3030
1000
0001
,
2002
0000
3003
0000
,
1000
0100
0010
0001
1000
0100
0010
0001
0010
0100
1000
0001
0100
0010
1000
0001
,
0100
0010
1000
0001
0010
0001
0100
0010
1000
0100
0010
0100
1000
0001
0010
0100
,
1000
0000
0010
0100
0001
1000
0100
0010
,
0M01
0000
0010
1100
0000
0010
1100
0000
,
1001
0000
0001
0000
0100
0010
1000
0000
,
1001
0000
0000
0000
0010
0000
0000
0000
0100
0001
1000
0100
0010
0001
1000
0010
,
1000
0100
0010
0000
0001
0100
0010
0000
,
1100
0000
0000
0000
0010
0000
0000
0000
0001
1000
0100
1000
0001
0100
0010
0000
,
1000
0100
0010
0001
0010
0100
1000
0001
0010
0100
0010
0001
1000
0010
0100
0001
,
0100
0010
1000
0001
0100
0010
1000
0100
0010
0100
1000
0001
0100
0010
1000
0001
,
0010
0000
0001
0100
0010
1000
0001
0100
,
0010
0000
1000
0101
0000
1000
0101
0000
,
1010
0000
1000
0000
0001
0100
0010
0000
,
2000
0000
0000
0000
3020
0000
0000
0000
0130
0001
0100
0010
1000
0001
0010
0100
,
1000
0010
0100
0000
0001
1000
0010
0000
,
1010
0000
1000
0000
0001
0100
0010
1000
,
0001
0010
0001
0100
0010
1000
0010
0100
0001
0100
0010
1000
,
0001
0010
0100
1000
0001
0010
0100
1000
0100
0010
0001
1000
0010
0100
0001
0010
,
0001
0100
0010
1000
0001
0010
0100
1000
0001
0100
0010
1000
0100
0010
0001
1000
,
0010
0100
0001
1000
0100
0010
0001
0010
0100
1000
0001
0100
0010
1000
0001
0010
,
0100
1000
0001
0010
0100
1000
0001
0100
0010
1000
0100
1000
0001
0100
0010
1000
,
0001
0010
0100
1000
0001
0100
0010
0100
0001
1000
0100
0010
0001
1000
0010
0100
,
0001
1000
0010
0100
0001
0010
0100
1000
0001
0100
0010
0100
0001
0010
0001
1000
,
0010
0100
0001
1000
0100
0010
0001
0010
0100
1000
0001
0100
0010
0100
0001
0010
,
0001
0100
0010
0000
1000
0000
0001
0000
,
1000
0100
0010
0001
1000
0100
1000
0001
0010
0100
1000
0001
0100
0010
0100
0001
,
1000
0010
0100
0001
0100
0010
1000
0001
1000
0100
0010
0100
1000
0001
0010
0100
,
1000
0100
1000
0001
0100
0010
1000
0001
1000
0100
0010
0001
0100
0010
1000
0001
,
0010
0100
1000
0001
0100
0010
0100
0001
0010
0001
1000
0100
0010
0001
1000
0010
,
0100
0001
1000
0100
0010
0001
0010
0100
1000
0001
0100
0010
0100
0001
0010
0001
,
1000
0000
1001
0000
,
0001
0100
0010
1000
0001
0100
0010
1000
,
0001
0010
0100
1000
0001
0100
0010
1000
,
0001
0010
0001
1000
0001
0100
0010
1000
0001
0010
0100
1000
0001
0010
0001
0100
,
0001
1000
0100
0010
0001
1000
0100
1000
0010
1000
0001
0010
0100
1000
0001
0100
,
0010
1000
0001
0010
0001
0100
0010
1000
0001
0010
0100
1000
0001
0010
0100
1000
,
0001
0100
0010
1000
0100
0010
0001
1000
0010
1000
0100
1000
0001
0010
0100
1000
,
0001
0100
0010
1000
0001
0010
0100
1000
0001
0100
0010
0100
0001
0010
0001
1000
,
0100
1000
0001
0010
0100
1000
0001
0100
0010
0100
0001
0010
0001
1000
0100
0010
,
0001
0010
0100
1000
0001
0100
0010
0100
0001
0010
0001
1000
0100
0010
0001
1000
,
0001
1000
0001
0000
0010
0000
0100
0000
,
0010
0001
1000
0100
0010
0001
0010
0100
1000
0001
0100
0010
0100
0001
0100
0010
,
1000
0001
1000
0100
0010
0001
1000
0010
0100
0001
0010
0100
1000
0001
0100
0010
,
1000
0100
0010
0001
1000
0100
1000
0001
0010
0001
1000
0010
0100
0001
0010
0100
,
0010
0001
0100
0010
1000
0001
0010
0100
1000
0000
0000
0000
0010
0000
0000
0000
,
1000
0100
0010
0001
1000
0100
0010
0001
0010
0100
1000
0001
0010
0000
0000
0000
,
0011
0000
0001
0100
,
0001
1000
0100
1000
0001
0100
0010
1000
,
0001
0010
0100
1000
0001
0100
0010
1000
,
0001
0010
0100
1000
0001
0010
0001
1000
0100
0010
0001
0100
0010
1000
0001
0010
,
0100
1000
0100
0010
0001
0100
0010
0100
0001
1000
0100
0010
0001
0010
0100
1000
,
0001
0010
0100
1000
0001
0100
0010
1000
0001
0010
0001
0100
0010
1000
0001
0100
,
0010
1000
0100
0010
0001
1000
0010
0100
0001
0010
0001
1000
0100
1000
0001
0010
,
0100
0010
0001
1000
0010
0100
0001
0010
0100
1000
0001
0100
0010
1000
0100
1000
,
0010
0100
0001
1000
0100
0010
0001
1000
0010
0100
0001
1000
0100
1000
0001
0100
,
0001
0000
0000
0001
0000
0000
0100
0000
,
0010
1000
0010
0000
0100
0001
1000
0000
,
0001
0010
0100
1000
0001
0100
0010
0100
0001
0010
0001
1000
0100
0010
0001
1000
,
0010
0100
0001
1000
0100
0010
0001
0010
0100
1000
0001
0100
0010
0100
0001
0010
,
0001
1000
0100
0010
0100
1000
0001
0100
0010
0100
0001
1000
0010
0100
0001
0010
,
0001
1000
0001
0010
0100
1000
0001
0100
0010
0000
0001
0010
0100
1000
0001
0010
,
0001
0100
0010
1000
0001
0010
0001
1000
0100
1000
0001
0010
0100
1000
0001
0100
,
0010
0100
0001
0010
0001
1000
0100
0010
0001
1000
0010
0100
0001
0010
0100
1000
,
0001
0100
0010
0100
0001
0010
0001
1000
0100
0010
0001
1000
0001
0010
0100
1000
,
0001
0100
0010
0100
0001
1000
0100
0010
,
0001
0010
0100
1000
0001
0010
0001
1000
0010
0100
0001
0010
0001
1000
0100
0010
,
0001
1000
0010
0100
0001
0010
0001
1000
0010
0100
0001
0100
0010
1000
0001
0010
,
0100
1000
0001
0100
0010
0100
0001
0010
0001
1000
0100
0010
0001
1000
0010
0100
,
0001
0010
0001
1000
0100
0010
0001
1000
0010
0000
0000
0000
0000
0000
0000
0000
,
1000
0001
1000
0100
1000
0001
0100
0010
0100
0001
1000
0010
0100
0001
0100
0010
,
1000
0010
0100
0001
1000
0100
0010
0001
0010
0100
1000
0001
0100
0010
0100
0001
,
1000
0000
0000
0010
0000
0000
0100
0000
,
0100
0001
0100
0000
0010
0000
1000
0000
,
0001
0010
0100
1000
0001
0010
0001
1000
0100
0010
0001
1000
0010
0100
0001
0010
,
0001
1000
0010
0100
0001
0010
0001
1000
0100
0010
0001
0010
0100
1000
0001
0100
,
0010
1000
0001
0010
0001
1000
0010
1000
0001
1000
0100
0010
0001
1000
0100
0010
,
0001
0010
0100
1000
0001
0100
0010
0100
0001
0010
0001
1000
0100
0010
0001
1000
,
0100
0010
0001
1000
0010
0100
0001
0010
0001
1000
0100
0010
0001
0010
0100
1000
,
0001
0100
0010
0100
0001
0010
0001
1000
0100
0010
0001
1000
0010
0100
0001
0010
,
0001
0100
0010
1000
0001
0010
0100
1000
,
0001
0100
0010
1000
0010
0000
0202
0000
,
0000
0000
0000
0000
,
0000
0000
0000
0303
,
0000
0000
0000
0000
0000
0000
0001
0100
,
0010
0000
1000
0000
0001
0000
1000
0000
1100
0000
0000
0000
0020
0000
0000
0032
,
0000
0023
0000
0031
1010
0000
0000
0000
,
2010
0000
3020
0000
0230
0000
0302
0000
0203
0000
0000
0300
1010
0000
0000
0100
,
0001
0000
1000
0000
0000
0000
0020
0000
0130
0000
0010
0000
0001
1000
0100
1000
,
0001
0000
0010
0000
0100
0000
1000
0000
0001
0000
0010
0000
0100
0000
1000
0000
0001
0010
0100
1000
0001
0000
0000
0000
1001
0000
0000
0000
0000
0000
0100
0000
,
0020
0000
0031
0000
0000
0000
1000
0000
2020
0000
3030
0000
0000
0000
0000
0100
,
0002
0000
1003
0000
0010
0000
1000
0000
2002
0000
0000
3003
0020
0000
0030
0100
,
0020
0000
2030
0000
3100
0000
0010
0001
0011
0000
0000
0000
0001
0000
0000
0100
,
0002
0000
0003
0000
1000
0001
0100
0010
1000
0000
0000
0000
2002
0000
3003
0001
,
0200
0000
0320
0000
0030
0000
1000
0000
2002
0000
3003
0000
0000
0000
0000
0001
,
2000
3020
0230
0301
2002
3003
0010
0010
,
0000
0000
0100
0100
0000
0000
1000
1000
,
0000
0000
0000
0000
0000
0000
0000
0000
0000
0000
0000
0000
0001
0000
1000
0100
,
0000
1000
0100
0000
0010
0001
0010
0000
0001
0000
0100
0000
0010
1000
0010
0000
,
0100
0001
0100
0000
0001
0010
0001
0000
1000
0000
0010
0000
0110
0000
0100
0001
,
0000
0001
0100
0000
1010
0000
1000
0000
0001
0000
0100
0000
0010
0100
0010
0000
,
0100
0001
0100
0000
0010
1000
0100
0010
0001
0000
0100
0000
1010
0000
0100
0001
,
0000
0000
0100
0000
0010
0000
0000
0000
1000
0000
0100
0000
0010
0000
0000
0000
0001
0010
0100
1000
0001
0100
0010
1000
0001
0000
0100
0000
0010
0000
0000
0000
,
1000
0000
0100
0000
1000
0000
0000
0000
0001
0000
0100
0000
0010
0000
0000
0000
1000
0100
0010
0001
1000
0010
0100
0001
1000
0000
0000
0000
0001
0000
1000
0000
,
0000
0000
0001
0000
1000
0000
0000
0000
0001
0000
0100
0000
0010
0000
0000
0000
1000
0100
0010
0001
1000
0010
0100
0001
1000
0000
0001
0000
1000
0000
0000
0000
,
0001
1000
0001
0000
1000
0001
1000
0001
1000
0001
1000
0001
1000
0000
0001
1000
,
0000
0001
1000
0000
0001
1000
0001
0000
1000
0000
0100
0000
0010
0001
1000
0000
,
0010
0100
0001
0000
0100
0010
1000
0000
0100
0000
0000
0000
0011
0000
0001
0100
,
0000
0000
0100
0000
0010
0000
0000
0000
1000
0000
0000
0000
1000
0000
0000
0000
0001
1000
0100
1000
0001
0010
0001
0100
0010
0000
1000
0000
0001
0000
0000
0000
,
0100
0010
1000
0000
0001
0010
0100
0010
0001
0000
0100
0000
0001
0000
0010
0100
,
0000
0000
1000
0000
0100
0000
0000
0000
0010
0000
0000
0000
0001
0000
0000
0000
0100
0010
1000
0001
0010
0100
1000
0001
0010
0000
0001
0000
0010
0000
0000
0000
,
0001
0000
1000
0000
0001
0000
0000
0000
1000
0000
0010
0000
1000
0000
0000
0000
1000
0100
1000
0100
0010
0001
0010
0100
1000
0000
0000
0000
0010
0000
0100
0000
,
0000
0000
0001
0000
0100
0000
0000
0000
0010
0000
1000
0000
0001
0000
0000
0000
1000
0001
0010
0100
1000
0001
0100
0010
0100
0000
0010
0000
1000
0000
0000
0000
,
0001
0010
0100
1000
0001
0010
0001
1000
0100
1000
0001
0100
0010
0000
0000
0010
,
0000
1000
0001
0000
1001
0000
0000
0000
0010
0000
0100
0000
0010
0000
1000
0100
,
0000
0000
0010
0000
0001
0000
0000
0000
1001
0000
0000
0000
1000
0000
0100
0000
0000
0000
0010
0000
0001
0100
0010
1000
0001
0000
0000
0000
0010
0000
0000
0000
,
0001
0000
0100
0000
1010
0000
1000
0000
0100
0000
0010
0000
0011
0000
0001
0100
,
0010
1000
0001
0000
0110
0000
0000
0000
0010
0000
0100
0001
1000
0000
0000
0000
,
0000
1000
0001
0000
1001
0000
0000
0000
0010
0000
1000
0000
0010
0000
0000
0010
,
0000
0000
0010
0000
1010
0000
0000
0000
0100
0000
0000
0000
0001
0000
0000
0001
,
0000
0001
0000
0000
0000
0000
0200
0000
,
0300
0000
0000
0010
,
0001
0000
0000
0000
0100
0000
0000
0000
0010
0000
0000
0000
1000
0001
1000
0001
,
1000
0001
1000
0100
1000
0001
0010
0001
1000
0100
1000
0001
0010
0100
1000
0001
,
0100
0010
1000
0001
0010
0100
1000
0001
0100
0010
0100
0001
0010
0001
1000
0100
,
0010
0001
1000
0010
0100
0001
1000
0100
0010
0001
0010
0100
1000
0001
0100
0010
,
0100
0001
0010
0100
1000
0001
0100
0010
0100
0001
0010
0001
1000
0001
0010
0001
,
1000
0010
0100
0001
0010
0001
1000
0100
0010
0100
1000
0001
0010
0100
1000
0001
,
0100
0010
0100
0001
0010
0001
1000
0100
0010
0100
1000
0001
0100
0010
0100
0001
,
0010
0001
1000
0100
1000
0001
0100
0010
1000
0001
0010
0100
1000
0000
0010
0000
,
0100
0000
0000
0000
0001
0000
0000
0000
0100
0000
0000
0000
0010
1000
0001
0010
,
0100
1000
0001
0100
0010
0100
0001
0010
0001
1000
0100
1000
0001
0010
0100
1000
,
0001
0100
0010
1000
0001
0010
0001
1000
0100
0010
0001
1000
0010
0100
0001
0010
,
0100
1000
0001
0100
0010
0100
0001
0010
0001
1000
0100
0010
0001
1000
0010
0100
,
0001
0010
0100
1000
0001
0010
0001
1000
0100
0010
0001
1000
0010
0100
0001
0010
,
0001
1000
0100
0010
0001
1000
0010
0100
0001
0100
0010
1000
0001
0010
0100
1000
,
0001
0010
0100
1000
0001
0100
0010
0100
0001
0010
0001
1000
0100
0010
0001
0010
,
0100
1000
0001
0010
0100
1000
0100
0010
0001
1000
0100
0010
0100
1000
0001
0100
,
0010
1000
0001
0100
0010
1000
0010
0100
0001
0100
0010
1000
0010
1000
0100
0010
,
0001
0010
0100
1000
0001
0100
0010
1000
0001
1000
0100
0010
0001
0010
0100
1000
,
0001
0010
0100
0010
0001
0100
0010
1000
0001
0010
0001
0100
0010
1000
0001
0100
,
0010
1000
0100
0010
0001
0010
0100
1000
0001
0100
0010
1000
0001
0010
0100
1000
,
0100
0010
0001
1000
0010
0100
0001
0010
0001
1000
0100
0010
0001
0100
0010
1000
,
0001
0010
0001
1000
0100
0010
0100
1000
0001
0100
0010
0100
0001
1000
0100
0010
,
0001
0100
0010
1000
0001
0010
0100
1000
0001
0100
0010
0100
0001
0010
0001
1000
,
0100
0010
0001
1000
0010
0100
0001
0010
0001
1000
0010
0100
0001
0000
1000
0000
,
0001
0000
0000
0000
0000
0000
0000
0000
0000
0000
0000
0000
1000
0100
0010
0001
,
1000
0010
0100
0001
1000
0100
0010
0001
1000
0010
0100
0001
1000
0010
0100
0001
,
0010
0001
1000
0010
0100
0001
0010
0100
1000
0001
0100
0010
0100
0010
1000
0100
,
1000
0100
0010
0001
1000
0010
0100
0001
0010
0100
1000
0001
0100
0010
0100
0001
,
0010
0001
1000
0100
0010
0001
1000
0010
0100
0001
0010
0100
1000
0001
0100
0010
,
0100
0010
1000
0001
0010
0100
1000
0001
0100
0010
0100
0001
0010
0001
1000
0100
,
0010
0100
1000
0001
0010
0100
1000
0001
0100
0010
1000
0001
0100
0000
0010
0000
,
1000
0001
1000
0100
0010
0001
0010
0100
,
1000
0000
0001
0000
0100
0000
0010
0000
1000
0000
0001
0000
0010
0001
1000
0100
,
0010
0001
0010
0100
1000
0001
0010
0100
1000
0010
0100
0001
0100
0010
1000
0001
,
0100
0010
1000
0100
1000
0001
0010
0100
1000
0001
0100
0010
1000
0100
1000
0001
,
0100
0010
1000
0010
1000
0100
1000
0001
0010
0001
0100
0010
1000
0010
0100
0001
,
1000
0100
0010
0001
1000
0100
0010
0001
1000
0010
0100
0001
0010
0001
0010
0001
,
1000
0100
1000
0001
0100
0010
1000
0001
0010
0100
1000
0001
0100
0010
1000
0001
,
0010
0100
1000
0001
0100
0010
0100
0001
0010
0001
1000
0100
0010
0001
1000
0010
,
0100
0001
0010
0001
1000
0100
1000
0001
0010
0100
1000
0001
0100
0010
1000
0001
,
0010
0000
1000
0000
0001
0000
0010
0000
0001
0000
1000
0000
0001
1000
0001
0010
,
0100
1000
0001
0010
0001
1000
0100
1000
0001
0100
0010
0100
0001
1000
0010
0100
,
0001
0010
0001
1000
0100
0010
0001
0100
0010
1000
0001
0010
0100
0000
0000
0000
,
0010
0000
0100
0000
1000
0000
0000
0000
1000
0000
0000
0000
1000
0001
0010
0001
,
1000
0100
0010
0001
1000
0010
0100
0001
1000
0000
0000
0000
1001
0000
0000
0000
,
0001
0100
0010
1000
0100
0000
0010
0000
,
0001
0000
1001
0000
1000
0100
0010
0001
,
1000
0010
0100
0001
0010
0001
1000
0100
,
0010
0000
0100
0000
1000
0000
0001
0000
0100
0000
0010
0000
1000
0001
1000
0100
,
1000
0001
0010
0100
1000
0001
0010
0001
0100
0010
1000
0001
0100
0010
1000
0001
,
0010
0001
1000
0100
0010
0001
1000
0010
0100
0001
0010
0001
1000
0100
1000
0001
,
0010
0001
1000
0010
0100
0001
0010
0001
1000
0100
0010
0001
1000
0010
0100
0001
,
0010
0100
1000
0001
0100
0010
0100
0001
0010
0001
1000
0010
0100
0001
1000
0100
,
0010
0001
0010
0100
1000
0001
0100
0010
0100
0001
0010
0001
1000
0100
0010
0001
,
0010
0100
1000
0001
0100
0010
0100
0001
0010
0100
1000
0001
0010
0001
1000
0010
,
0100
0001
0010
0001
1000
0100
0010
0001
1000
0010
0100
0001
0010
0100
1000
0001
,
0100
0010
1000
0100
1000
0000
0010
0000
0100
0000
0001
0000
1000
0100
0010
0001
,
0010
0100
1000
0001
0010
0001
1000
0100
1000
0001
0100
0010
0100
0001
1000
0010
,
0100
0001
0010
0001
1000
0100
0010
0001
0010
0100
1000
0001
0100
0010
1000
0001
,
0010
0100
1000
0001
0100
0010
0100
0001
0010
0001
1000
0100
0010
0001
0010
0100
,
1000
0001
0100
0001
0010
0000
0000
0000
0000
0000
0000
0000
0010
0000
0000
0000
,
0001
0100
0010
0000
1000
0000
0100
0000
,
0010
0000
1001
0000
0000
0000
1000
0100
,
0010
0001
0010
0100
1000
0001
0100
0010
,
0100
0001
0010
0001
1000
0001
1001
0000
,
0000
2010
0000
0000
3010
0000
0010
0000
,
0000
1002
0000
0000
0013
0000
0010
0000
,
0000
2002
3003
0000
0011
0000
1001
0000
,
1010
0110
0000
0101
,
0000
2020
0000
3030
1001
0000
0110
0000
,
0000
2002
0000
3003
0110
0000
1010
0000
,
0000
0220
0000
0330
0110
0000
0110
0000
;

//---------------dance-single - ----------------
#NOTES:
     dance-single:
     :
     Hard:
     15:
     0.970,1.000,0.589,0.992,0.472,1433.000,162.000,273.000,5.000,1.000:
1000
0001
0101
0010
,
1010
0010
0110
0001
,
0011
0000
0000
0000
1000
0000
0001
0100
0010
0000
0000
0000
1000
0000
0001
0000
,
2002
0000
0000
0000
3013
0000
0100
0000
0010
0000
1000
0000
0001
0000
0000
0000
1010
0000
0000
0000
0100
0000
0000
0000
0001
0000
0000
0000
1000
0100
0010
0001
,
1000
0000
0010
0000
0100
0001
0100
0000
1010
0000
0000
0000
0001
0000
0001
0000
,
1001
0000
0100
0010
0000
0100
0001
0000
1010
0000
0010
0000
0010
0000
0010
0000
,
1010
0100
0001
0010
,
0100
0000
0010
0000
0001
0000
1000
0000
0010
0000
0100
0001
0100
0000
0010
0000
1000
0000
0001
0000
1000
0000
0001
0000
,
0200
0000
0000
0000
0310
0000
1000
0000
0001
0000
0000
0000
1000
0100
0010
0001
,
0010
0000
0000
0000
0100
0000
0000
0000
1000
0001
0010
0100
1000
0010
0100
0001
,
1000
0000
0001
0100
0010
1000
0010
0100
,
1001
0000
0000
0000
1000
0000
0000
0000
0001
0010
0100
1000
0001
0100
0010
1000
,
0001
0000
1000
0100
0010
0001
1000
0010
,
0100
0000
0000
0000
0011
0000
0000
0000
0100
1000
0001
0100
0010
1000
0100
0010
,
0001
0100
0010
1000
0001
0010
0100
1000
,
0001
0000
0010
0000
0100
0000
1000
0000
0001
1000
0001
0010
0100
1000
0001
0100
,
0020
0000
0000
2030
0000
0000
3002
0000
,
0013
0000
0001
0000
1000
0000
0010
0000
0100
0001
1000
0100
0010
0001
1000
0010
,
0100
0000
0001
0000
0100
0000
0010
1000
,
1010
0000
0000
0000
1000
0000
0001
0000
0100
0010
1000
0001
0010
0100
1000
0001
,
1000
0100
0010
0001
0010
0100
1000
0001
0100
0010
1000
0001
,
0010
0001
1000
0100
0010
0001
0010
0100
1000
0001
0100
0010
,
1000
0100
1000
0001
0010
0001
1000
0100
0010
0001
0010
0100
1000
0001
0100
0010
,
0100
0001
0010
0001
1000
0100
0010
0001
0010
0100
1000
0001
0100
0010
1000
0001
,
1000
0001
0100
0001
,
0101
0000
0000
0000
0010
0000
0000
0000
1000
0001
0010
0100
1000
0001
0100
0010
,
0100
0000
0010
1000
0001
0100
0010
1000
,
0100
0000
0000
0000
0010
0000
0001
0000
1000
0001
1000
0100
1000
0001
0010
0100
,
1000
0000
0010
0100
0001
1000
0100
0010
,
0001
0000
0000
0000
1000
0000
0010
0000
0100
0001
0100
0010
1000
0001
0010
0100
,
1000
0000
0010
1000
0001
0100
0010
1000
,
0001
0000
0010
0000
0100
0000
1000
0000
0001
0100
0010
1000
0001
0010
0100
1000
,
0001
0000
0000
M01M
0000
0000
01M0
0000
,
2M02
0000
3003
0000
,
0202
0000
0303
2020
0000
3030
1000
0100
,
2200
0000
0000
3300
,
2002
0000
3003
0202
0000
0303
0100
0001
,
0202
0000
0000
0303
,
2020
0000
3030
0220
0000
0330
0100
0001
,
1001
0000
1000
0001
,
0100
0010
1000
0001
0010
0001
1000
0010
,
0100
0000
0001
0000
1000
0000
0100
0000
0010
0001
1000
0010
0100
0001
0010
0001
,
1000
0100
1000
0001
0010
0001
0100
0010
,
1000
0000
0001
0000
0010
0000
0100
0000
1000
0001
1000
0100
1000
0001
0010
0001
,
0100
0010
1000
0010
0100
0001
0010
0001
,
1000
0000
0100
0000
0010
0000
0001
0000
1000
0100
1000
0001
0010
0001
0100
0010
,
1000
0010
0100
0001
0010
0001
1000
0100
,
1000
0010
1000
0010
0100
0001
1000
0100
,
0020
0000
0030
0022
0000
0033
0001
1000
,
0020
0000
0000
0030
0100
0000
0001
0000
,
0200
0000
0300
0020
0000
0030
1000
0001
,
2002
0000
3003
0000
,
2200
0000
3300
0220
0000
0330
0001
1000
,
2002
0000
3003
0000
,
0202
0000
0303
2020
0000
3030
1000
0001
,
2002
0000
3003
0000
,
2002
0000
0003
0200
,
0000
0000
0300
0000
0002
0000
3003
0001
,
1000
0000
0010
0100
0001
1000
0100
0010
,
0M01
0000
0010
1100
0000
0010
1100
0000
,
1001
0000
0001
0000
0100
0010
1000
0000
,
1001
0000
0000
0000
0010
0000
0000
0000
0100
0001
1000
0100
0010
0001
1000
0010
,
1000
0100
0010
0000
0001
0100
0010
0000
,
1100
0000
0000
0000
0010
0000
0000
0000
0001
1000
0100
1000
0001
0100
0010
0000
,
2000
0000
0000
0020
,
0000
0000
0030
0000
3002
0000
0000
0100
,
0103
0000
0001
0100
0010
1000
0001
0100
,
0010
0000
1000
0101
0000
1000
0101
0000
,
1010
0000
1000
0000
0001
0100
0010
0000
,
2000
0000
0000
0000
3020
0000
0000
0000
0130
0001
0100
0010
1000
0001
0010
0100
,
1000
0010
0100
0000
0001
1000
0010
0000
,
1010
0000
1000
0000
0001
0100
0010
1000
,
0001
0010
0001
0100
0010
1000
0010
0100
0001
0100
0010
1000
,
0002
0100
0100
0103
,
0202
0303
0002
0003
,
0100
0001
0001
1000
,
2002
0000
3003
0100
,
1001
0010
0001
1000
,
1001
0000
0022
0033
,
0001
1000
0001
1000
,
0001
0100
0010
0000
1000
0000
0001
0000
,
2000
0010
0001
3010
,
2002
3003
0020
0000
,
2030
0001
0100
3001
,
2020
3030
0002
0003
,
0200
0010
0001
0310
,
0022
0033
2002
3003
,
0001
0100
0010
1000
0001
0100
0010
1000
,
0001
0010
0100
1000
0001
0100
0010
1000
,
0002
0100
1000
0103
,
0110
0000
0020
0030
,
2000
0100
0001
3100
,
2200
0000
3300
0010
,
0002
0100
1000
1003
,
2020
3030
0200
0300
,
0002
2003
3002
2003
,
3001
1000
0001
0000
0010
0000
0100
0000
,
0020
0230
0302
0013
,
0022
0033
0200
0300
,
2200
3300
1000
0010
,
2020
3030
1000
0010
,
2000
3001
0010
0001
,
0011
0000
0001
0100
,
0001
1000
0100
1000
0001
0100
0010
1000
,
0001
0010
0100
1000
0001
0100
0010
1000
,
0002
0023
0230
2300
,
3002
0000
0000
0023
0000
0000
0130
0000
,
0010
0000
1000
0100
0010
0100
2000
0000
,
3020
0230
0302
0003
,
0012
0100
1000
0103
,
2001
0010
0001
3010
,
0001
0000
0000
0001
0000
0000
0100
0000
,
0010
1000
0010
0000
0100
0001
1000
0000
,
0002
0203
0302
0013
,
0021
0032
0203
0320
,
2030
0000
3010
0100
0001
0100
0020
0000
,
1030
0010
2001
0000
,
3002
0023
0230
0310
,
0110
0100
2000
0000
,
3001
0010
0100
1000
,
0001
0100
0010
0100
0001
1000
0100
0010
,
0002
0203
0301
0100
,
0102
0000
0000
2003
0000
0000
3020
0000
,
1030
0000
0001
1000
0001
0100
0002
0000
,
2003
3001
0010
0000
,
0002
0203
0320
0030
,
1010
2000
3002
1003
,
1000
0000
0000
0010
0000
0000
0100
0000
,
0100
0001
0100
0000
0010
0000
1000
0000
,
0002
0203
0310
1000
,
0101
0020
2030
3010
,
0100
0000
0001
0010
0100
0010
0001
0000
,
1001
0010
0100
0000
,
0001
0010
0001
0010
,
0011
0001
0000
0000
,
0001
0100
0010
1000
0001
0010
0100
1000
,
0001
0100
0010
1000
0010
0000
0202
0000
,
0000
0000
0000
0000
,
0000
0000
0000
0303
,
0000
0000
0000
0000
0000
0000
0001
0100
,
0010
0000
1000
0000
0001
0000
1000
0000
1100
0000
0000
0000
0020
0000
0000
0032
,
0000
0023
0000
0031
1010
0000
0000
0000
,
2010
0000
3020
0000
0230
0000
0302
0000
0203
0000
0000
0300
1010
0000
0000
0100
,
0001
0000
1000
0000
0000
0000
0020
0000
0130
0000
0010
0000
0001
1000
0100
1000
,
0001
0000
0010
0000
0100
0000
1000
0000
0001
0000
0010
0000
0100
0000
1000
0000
0001
0010
0100
1000
0001
0000
0000
0000
1001
0000
0000
0000
0000
0000
0100
0000
,
0020
0000
0031
0000
0000
0000
1000
0000
2020
0000
3030
0000
0000
0000
0000
0100
,
0002
0000
1003
0000
0010
0000
1000
0000
2002
0000
0000
3003
0020
0000
0030
0100
,
0020
0000
2030
0000
3100
0000
0010
0001
0011
0000
0000
0000
0001
0000
0000
0100
,
0002
0000
0003
0000
1000
0001
0100
0010
1000
0000
0000
0000
2002
0000
3003
0001
,
0200
0000
0320
0000
0030
0000
1000
0000
2002
0000
3003
0000
0000
0000
0000
0001
,
2000
3020
0230
0301
2002
3003
0010
0010
,
0000
0000
0100
0100
0000
0000
1000
1000
,
0000
0000
0000
0000
0000
0000
0000
0000
0000
0000
0000
0000
0001
0000
1000
0100
,
0000
1000
0100
0000
0010
0001
0010
0000
0001
0000
0100
0000
0010
1000
0010
0000
,
0100
0001
0100
0000
0001
0010
0001
0000
1000
0000
0010
0000
0110
0000
0100
0001
,
0000
0001
0100
0000
1010
0000
1000
0000
0001
0000
0100
0000
0010
0100
0010
0000
,
0100
0001
0100
0000
0010
1000
0100
0010
0001
0000
0100
0000
1010
0000
0100
0001
,
0000
0000
0100
0000
0010
0000
0000
0000
1000
0000
0100
0000
0010
0000
0000
0000
0001
0010
0100
1000
0001
0100
0010
1000
0001
0000
0100
0000
0010
0000
0000
0000
,
1000
0000
0100
0000
1000
0000
0000
0000
0001
0000
0100
0000
0010
0000
0000
0000
1000
0100
0010
0001
1000
0010
0100
0001
1000
0000
0000
0000
0001
0000
1000
0000
,
0000
0000
0001
0000
1000
0000
0000
0000
0001
0000
0100
0000
0010
0000
0000
0000
1000
0100
0010
0001
1000
0010
0100
0001
1000
0000
0001
0000
1000
0000
0000
0000
,
0001
1000
0001
0000
1000
0001
1000
0001
1000
0001
1000
0001
1000
0000
0001
1000
,
0000
0001
1000
0000
0001
1000
0001
0000
1000
0000
0100
0000
0010
0001
1000
0000
,
0010
0100
0001
0000
0100
0010
1000
0000
0100
0000
0000
0000
0011
0000
0001
0100
,
0000
0000
0100
0000
0010
0000
0000
0000
1000
0000
0000
0000
1000
0000
0000
0000
0001
1000
0100
1000
0001
0010
0001
0100
0010
0000
1000
0000
0001
0000
0000
0000
,
0100
0010
1000
0000
0001
0010
0100
0010
0001
0000
0100
0000
0001
0000
0010
0100
,
0000
0000
1000
0000
0100
0000
0000
0000
0010
0000
0000
0000
0001
0000
0000
0000
0100
0010
1000
0001
0010
0100
1000
0001
0010
0000
0001
0000
0010
0000
0000
0000
,
0001
0000
1000
0000
0001
0000
0000
0000
1000
0000
0010
0000
1000
0000
0000
0000
1000
0100
1000
0100
0010
0001
0010
0100
1000
0000
0000
0000
0010
0000
0100
0000
,
0000
0000
0001
0000
0100
0000
0000
0000
0010
0000
1000
0000
0001
0000
0000
0000
1000
0001
0010
0100
1000
0001
0100
0010
0100
0000
0010
0000
1000
0000
0000
0000
,
0001
0010
0100
1000
0001
0010
0001
1000
0100
1000
0001
0100
0010
0000
0000
0010
,
0000
1000
0001
0000
1001
0000
0000
0000
0010
0000
0100
0000
0010
0000
1000
0100
,
0000
0000
0010
0000
0001
0000
0000
0000
1001
0000
0000
0000
1000
0000
0100
0000
0000
0000
0010
0000
0001
0100
0010
1000
0001
0000
0000
0000
0010
0000
0000
0000
,
0001
0000
0100
0000
1010
0000
1000
0000
0100
0000
0010
0000
0011
0000
0001
0100
,
0010
1000
0001
0000
0110
0000
0000
0000
0010
0000
0100
0001
1000
0000
0000
0000
,
0000
1000
0001
0000
1001
0000
0000
0000
0010
0000
1000
0000
0010
0000
0000
0010
,
0000
0000
0010
0000
1010
0000
0000
0000
0100
0000
0000
0000
0001
0000
0000
0001
,
0000
0001
0000
0000
0000
0000
0200
0000
,
0300
0000
0000
0010
,
0001
0100
0010
1100
,
1100
0011
0011
2002
,
3003
0020
0030
1010
,
1010
0101
0101
2002
,
0000
3003
0010
1100
,
1100
0011
0011
2002
,
3003
0200
0300
0011
,
0011
0000
1100
0000
1100
0000
1000
0010
,
0100
0001
0100
0020
,
2030
3020
1030
2020
,
3030
0000
0200
0000
0000
0300
0002
0000
,
0023
0230
0310
2002
,
0000
3003
1000
0000
0000
0000
0020
0000
,
0032
2003
3001
0022
,
0033
0000
2002
0000
3003
0000
0001
0100
,
0010
1000
0100
1000
0001
0010
0100
1000
,
0001
0100
0010
1000
0100
0010
0200
0000
,
2300
3002
0103
0220
,
0330
0020
0030
1000
,
0001
0100
0010
2020
,
3030
0000
2000
3002
,
0203
0320
1030
0101
,
0000
0020
0030
2000
,
3200
0000
0320
0000
0031
0000
0001
1000
,
0001
0000
0000
1100
,
1001
0101
1010
2002
,
3003
2000
3000
0101
,
1010
0011
1100
0220
,
0000
0000
0330
0011
,
1100
0011
1100
2002
,
3003
0000
0010
0000
0010
0000
0100
0010
,
1000
0001
1000
0100
0010
0001
0010
0100
,
1000
0001
0100
0010
1000
0001
2000
0000
,
3200
0320
0230
0320
,
0000
0032
0000
0000
0023
0000
0032
0000
,
1003
0100
0010
0001
0200
0000
0320
0000
,
1030
2020
3030
0002
,
0203
0302
0023
0032
,
0203
0320
0230
0310
,
1000
0100
0010
0001
0200
0000
0301
0000
,
0001
1000
0001
0010
0001
1000
0020
0000
,
0230
0320
0130
1002
,
2003
3020
0230
0301
,
0010
0000
0100
0000
1000
0000
0000
0000
1000
0000
0000
0000
1000
0001
0010
0001
,
1000
0100
0010
0001
1000
0010
0100
0001
1000
0000
0000
0000
1001
0000
0000
0000
,
0001
0100
0010
1000
0100
0000
0010
0000
,
0001
0000
1001
0000
1000
0100
0010
0001
,
1000
0010
0100
0001
0010
0001
1000
0100
,
0010
0100
1000
0001
0100
0010
2000
0000
,
0100
0001
3100
1100
,
0000
0001
0000
0000
0001
0000
0010
0001
,
0100
0010
2000
0000
3002
0000
0203
0000
,
0310
2020
3030
2000
,
3020
0230
0302
0203
,
0320
0000
2030
0000
3001
0000
0000
1000
,
0000
0010
1000
0100
,
1000
0000
1000
0010
0100
0001
0100
0000
,
1000
0100
0010
0110
,
0001
0010
0001
0011
,
0001
0101
0001
1001
,
1001
0010
0000
0010
,
0001
0100
0010
0000
1000
0000
0100
0000
,
0010
0000
1001
0000
0000
0000
1000
0100
,
0010
0001
0010
0100
1000
0001
0100
0010
,
0100
0001
0010
0001
1000
0001
1001
0000
,
0000
2010
0000
0000
3010
0000
0010
0000
,
0000
1002
0000
0000
0013
0000
0010
0000
,
0000
2002
3003
0000
0011
0000
1001
0000
,
1010
0110
0000
0101
,
0000
2020
0000
3030
1001
0000
0110
0000
,
0000
2002
0000
3003
0110
0000
1010
0000
,
0000
0220
0000
0330
0110
0000
0110
0000
;

//---------------dance-single - ----------------
#NOTES:
     dance-single:
     :
     Easy:
     10:
     0.641,0.996,0.309,0.789,0.073,906.000,85.000,217.000,0.000,0.000:

0000
0000
1001
0001
,
0101
0000
0100
0000
0010
1000
0010
1000
,
2010
3001
0102
0013
,
2100
0000
3001
0000
0100
0010
0100
0010
,
2001
3100
0012
0103
,
2010
0000
3100
0000
0010
0001
1000
0001
,
2000
3010
0200
0301
,
0010
0100
0010
0100
0010
0100
0010
0100
0010
0100
0010
0100
,
0020
0000
0000
2030
0000
0000
3002
0000
,
0203
0320
4000
0000
,
0000
0030
3002
0023
,
0230
2300
3200
0300
,
0020
0000
0000
0032
0000
0000
0103
0000
,
0101
0010
2000
0000
,
3000
0000
0000
0000
0001
1000
0001
1000
,
0010
0100
0010
0100
0004
0000
0000
0000
,
2003
0000
0000
3020
0000
0000
0130
0000
,
0101
0001
2000
0000
,
3000
0000
0000
0000
0010
0000
1000
0001
,
0200
0320
2030
3000
,
0004
0000
0000
0000
,
0000
0000
0000
0000
,
0403
0000
0000
0000
,
0310
0000
1000
0000
0001
1000
0001
0000
,
1000
0100
1000
0100
,
0010
0100
0010
0001
,
0010
0001
1000
0020
,
0000
0030
1000
1000
,
0010
0100
0010
1000
,
0100
0010
0100
1000
,
0100
0010
0100
1000
,
1001
0000
0001
0100
,
0101
0000
0000
0010
0000
0000
0010
0000
,
2020
0000
0000
3030
,
1000
0000
0000
0010
0000
0000
0100
0000
,
0220
0000
0000
0330
,
0001
0000
0000
1000
0000
0000
0001
0000
,
2002
0000
0000
3003
,
0010
0000
0000
0100
0000
0000
0010
0000
,
0220
0000
0000
0330
,
0001
0010
0001
1000
0010
0100
0001
1000
,
0100
0010
0001
0010
,
0001
1000
0001
0100
,
0001
0010
0001
1000
,
0001
0010
0100
1000
,
0100
0010
0100
1000
,
0100
0010
0100
1000
,
0100
0000
1000
0000
0001
0100
0001
1000
,
0020
0000
0000
1030
0000
0000
1000
0001
,
0200
0000
0000
0310
,
2000
0000
0000
3010
0000
0000
1000
0020
,
0200
0000
0000
0330
,
0002
0000
0000
0103
0000
0000
0100
0002
,
0200
0000
0000
0303
,
0002
0000
0000
1003
0000
0000
0001
2000
,
0020
0000
0000
3030
,
0200
0000
0000
0301
,
0010
0000
0000
0010
0000
0000
0010
0000
,
0002
0000
2000
3003
,
1001
0000
0000
0110
0000
0000
1100
0000
,
1001
1000
0001
0100
,
0010
1000
0100
0010
,
0001
1000
0100
0010
,
0001
0000
0002
0003
,
2002
0000
3003
0001
,
2000
0000
0000
0000
3001
0010
0000
0010
,
0100
0000
0100
0000
,
1100
0000
0000
0011
0000
0000
1100
0000
,
0001
0010
0100
1000
,
0100
0010
0100
1000
,
0100
0010
0001
0100
,
0010
0000
1000
0000
0010
1000
0010
1000
,
0010
0000
0000
0000
,
2004
0000
0000
3003
,
2200
0300
0020
3030
,
4002
0000
0000
3003
,
2002
0000
3003
0010
,
2400
0000
0000
3300
,
0022
0030
2000
3003
,
2040
0000
0000
3030
,
0001
0100
0010
0000
1000
0000
0010
0000
,
4200
0000
0000
3300
,
0022
0030
2000
3003
,
2004
0000
0000
3003
,
2200
0300
0020
3030
,
0024
0000
0000
0033
,
2100
0000
3010
0000
,
1000
0100
1000
0000
0100
0000
0001
0010
,
0001
0000
0100
0000
0010
1000
0010
0000
,
4200
0000
0000
3300
,
2002
3000
0200
0303
,
0420
0000
0000
0330
,
2001
0000
0000
3010
,
0402
0000
0000
0303
,
2010
0000
0200
3300
,
2400
0000
0000
3300
,
0010
0001
0100
0010
,
0240
0000
0000
0330
,
0210
0000
0302
0003
,
0420
0000
0000
0330
,
2002
0000
3003
0000
,
2400
0000
0000
3300
,
2100
0000
3002
0103
,
0010
1000
0010
1000
0001
0100
0001
0100
,
0010
1000
0100
0010
0001
1000
0010
0100
,
0002
0203
0320
2030
,
3010
0000
0000
0010
0000
0000
0020
0000
,
2030
3020
0230
0302
,
0023
0130
0220
0330
,
0000
0200
0320
0230
,
0320
0032
0203
0302
,
0013
0000
0000
0010
0000
0000
0020
0000
,
0230
1300
0110
0001
,
0420
0000
0000
0330
,
0110
0010
0001
1000
,
1001
0000
1000
0100
0000
1000
0100
0000
,
1001
0010
0100
0000
,
0042
0000
0000
0033
,
4400
0000
3300
0000
,
0001
1000
0100
1000
0001
0010
0001
1000
,
0100
1000
0001
0010
0001
1000
0100
1000
,
0004
0000
0000
0003
,
1001
0000
0000
0010
0000
0000
0100
0000
,
0010
0000
1000
0100
0000
0010
0001
0000
,
2000
3010
2020
3030
,
4002
0000
0000
3003
,
0110
0010
1000
0010
,
0100
0000
0000
0100
0000
0000
0100
0000
,
0001
0010
0001
0100
,
0040
0000
0000
0000
,
4030
0000
0000
0000
,
3010
0100
0001
1000
,
0100
0010
0022
0033
,
0002
0203
0320
2030
,
3200
0320
0032
0003
,
1000
0100
1000
0001
0010
0001
0100
0010
,
1000
0100
0010
0001
1000
0000
2002
0000
,
0000
0000
0000
0000
,
0000
0000
0000
0000
,
0000
0000
0000
0000
,
3003
0000
0000
0000
1000
0000
0000
0000
0001
0000
0000
0000
1000
0000
0000
0001
,
0000
1000
0000
0001
0010
0000
0000
0000
,
0100
0000
1000
0000
0100
0000
0010
0000
0100
0000
0000
0000
0010
0000
0000
0001
,
0000
0010
0000
0001
2000
0000
0000
0000
,
3100
0000
0010
0000
0100
0000
0010
0000
0100
0000
0000
0000
0010
0000
0000
0001
,
0000
1000
0000
0001
1001
0000
0000
0000
,
1000
0000
0100
0000
0010
0000
0100
0000
0010
0000
0000
0000
0001
0000
0000
1000
,
0000
0001
0010
0000
0100
0000
0000
0000
,
1000
0000
0100
0000
0010
0000
0001
0000
0010
0000
0001
0000
1000
0000
0000
0001
,
0000
0010
0000
0100
2000
0000
0000
0000
,
3100
0010
0001
1000
0001
0000
1000
1000
,
0000
0000
0010
0010
0000
0000
0100
0100
,
0000
0000
0000
0000
0000
0000
0001
0010
,
0001
0010
0001
1000
0001
0100
0010
1000
,
0010
0100
0010
0000
1000
0100
0010
0001
,
0010
0001
0000
0000
1000
0100
0010
0001
,
0100
0000
0001
0000
1000
0000
0001
0000
0010
0100
0010
0100
0010
0000
0001
0000
,
1000
0000
0001
0000
0010
0000
0001
0000
1000
0000
0000
0000
0100
0010
0100
0000
,
0010
0100
0010
0000
0001
0000
1000
0000
0040
0000
0000
0000
0130
0000
0001
0100
,
0000
0100
0001
0000
1000
0000
1000
0000
0004
0000
0000
0000
1003
0100
1000
0000
,
0001
0100
0001
0000
1000
0100
0010
0001
0010
0100
1000
0000
0010
0000
1000
0000
,
0010
1000
0000
1000
0001
0010
0001
1000
,
0001
0010
0001
0000
1000
0001
0100
0001
,
0010
0001
0100
0001
0010
0001
1000
0010
,
0100
0000
0010
0000
1000
0000
0100
0000
0010
0000
0100
0000
1000
0000
0010
0100
,
0000
0010
0100
0000
0001
0000
1000
0000
0100
0000
0100
0000
0010
1000
0010
0000
,
0100
0001
0100
0000
0001
0010
0001
0000
4000
0000
0000
0000
3010
0000
0100
0001
,
0000
0100
0010
0000
1000
0000
0100
0000
0010
0001
0010
0001
1000
0100
1000
0000
,
0001
0100
0001
1000
0100
0010
0100
1000
0001
0100
0010
1000
0200
0000
0000
0000
,
0000
0320
0000
0000
0032
0000
0000
0000
,
1003
0100
0010
0001
,
0000
0000
1001
0000
0010
0000
0100
0001
,
0010
0001
1000
0200
,
0000
0320
0000
0000
0032
0000
0000
0000
,
1003
0100
0010
0002
,
0000
0000
0003
2000
,
0000
0000
3000
0010
,
0000
0000
0000
2100
,
0001
0100
0001
3200
,
0300
0002
0003
0012
,
1000
0010
1000
0023
,
0000
0000
1030
2400
,
0000
0000
3300
2100
,
0000
0002
3003
0024
,
0000
0000
0000
0000
0033
0000
1000
0001
,
1000
0000
0100
0010
0100
0000
0042
0000
,
0000
0000
0033
2100
,
0000
0002
3003
4200
,
0000
0000
3300
2100
,
0000
0020
3030
0402
,
0000
0000
0303
0012
,
0000
0000
0200
0000
0303
0000
0100
0010
,
1000
0100
0010
0100
1000
0001
0100
0010
,
0100
0001
0010
0001
1000
0010
0100
0000
,
0101
1010
1001
0210
,
0000
0002
0303
0010
,
1010
1000
0001
2002
,
0000
3003
0001
1001
,
0100
0110
0100
2001
,
0000
0020
3030
0200
,
0001
0010
0001
0310
,
0100
0020
0000
2030
,
0000
3200
0000
0320
,
0000
0230
0000
2300
,
0000
3002
0000
0203
,
0000
0000
0000
0320
,
0000
2030
3200
0302
,
0000
0000
2003
0000
3020
0000
0031
0100
,
0010
1000
0100
0010
0001
0010
0100
1000
,
0001
0100
0010
0100
0001
0010
0002
0000
,
0023
0230
2300
3020
,
0000
0130
0000
0000
0002
0000
0023
0000
,
0032
0023
0032
0023
,
0032
2000
3003
0002
,
2003
3002
0023
0032
,
2003
3002
0023
0230
,
0000
0001
0000
0000
0310
0000
1000
0001
,
1000
0000
0001
1000
0001
0010
0001
0000
,
2000
3200
0320
0032
,
0023
0230
0310
2000
,
3200
0320
0032
0203
,
0320
2030
0000
3000
,
0001
0010
0100
1000
,
0010
0000
1000
0000
0000
0000
0010
1000
,
0100
1000
0010
0100
0001
0010
0001
1000
,
0100
0010
0100
1000
0001
0010
0004
0000
,
0000
0000
0000
1003
,
0000
0010
0000
0000
0100
0000
0001
0000
,
1000
0100
0010
1001
,
0100
1001
0000
1000
,
0100
0010
0100
0110
,
0010
0001
0010
0001
,
0000
0001
0000
0000
0001
0000
1000
0001
,
0000
0000
1000
0001
1000
0001
1000
0000
,
0001
0010
0100
1000
,
0100
0010
0001
1000
,
0001
0100
0010
1000
,
0010
0100
0000
0000
,
0001
0010
0100
1000
,
0100
0000
1100
0000
0000
0000
1000
0100
,
1000
0100
1000
0001
1000
0001
0100
0001
,
0010
0001
1000
0001
0100
0001
0010
0000
,
0000
1010
0000
0000
0100
0000
0001
0000
,
0000
1001
0000
0000
0010
0000
0100
0000
,
0000
0011
0000
0000
1000
0000
0100
0000
,
1001
0110
0000
0100
,
0000
1001
0000
0000
0010
0000
0100
0000
,
0000
1001
0000
0000
0100
0000
0010
0000
,
0000
1100
0000
0000
0010
0000
0011
0000
,
0001
1000
0000
0000
;
