#TITLE:Cyclone;
#SUBTITLE:;
#ARTIST:Baby Bash;
#TITLETRANSLIT:;
#SUBTITLETRANSLIT:;
#ARTISTTRANSLIT:;
#CREDIT:;
#BANNER:cyclone.png;
#BACKGROUND:cycloneBG.png;
#LYRICSPATH:;
#CDTITLE:;
#MUSIC:Cyclone.ogg;
#OFFSET:0.120;
#SAMPLESTART:2.520;
#SAMPLELENGTH:15.000;
#SELECTABLE:YES;
#BPMS:0.000=156.010,163.000=78.002,167.000=156.010;
#STOPS:;
#BGCHANGES:;
// cache tags:
#FIRSTBEAT:11.000;
#LASTBEAT:341.500;
#SONGFILENAME:Songs/Rodd's Revival/Cyclone (Rodd Steps)/Cyclone (Rodd Steps).sm;
#HASMUSIC:1;
#HASBANNER:1;
#MUSICLENGTH:134.035;
// end cache tags

//---------------dance-single - R. Farias----------------
#NOTES:
     dance-single:
     R. Farias:
     Challenge:
     9:
     0.731,0.701,0.082,0.627,0.045,591.000,11.000,84.000,8.000,0.000:

0000
0000
0000
0000
,
0000
0000
0000
0000
,
0000
0000
0000
0000
0000
0000
1001
1000
,
0100
0001
0100
0010
0001
0100
1000
0100
,
0010
1000
0100
0010
0001
0100
0201
0000
,
0310
1000
0100
0010
0100
1000
0001
0100
,
0010
0100
0001
1000
0100
0010
0012
0000
,
0103
0010
0100
0001
1000
0100
0010
0001
,
0010
0100
1000
0001
0100
0010
2000
0000
,
3200
0302
0023
2030
,
3200
0000
0310
0001
0100
0010
0210
0000
,
0301
1000
0100
0010
0100
1000
0001
0100
,
1000
0100
0010
1000
0100
0010
0210
0000
,
0310
0001
0100
1000
0100
0010
1000
0100
,
0001
0100
0010
0100
0010
0001
0201
0000
,
0310
0100
0001
1000
0100
0010
0100
1000
,
0001
0100
0010
1000
0100
0010
0012
0000
,
0103
0100
0010
1000
0100
1000
0001
1000
,
0100
1000
0010
0100
0001
0010
0001
1000
,
0001
0100
0010
1000
0200
0000
0310
0010
,
0001
0100
0010
1000
0100
0010
0100
1000
,
0001
0000
0000
0100
0000
0000
0010
0000
0000
0100
0000
0000
0001
0000
0000
0010
0001
0010
0001
0000
0000
0200
0000
0000
,
0000
0310
1000
0100
0010
0100
1000
0001
,
0100
0010
1000
0100
0010
0001
0100
0020
,
1030
0100
0010
0100
0010
0001
0100
0010
,
1000
0000
0100
0000
1000
0000
0001
0000
0100
0000
0010
0000
1000
0100
1000
0000
,
0001
0100
0010
0100
0001
1000
0100
0001
,
0100
0010
0001
0100
1000
0100
0010
1000
,
0100
0010
0100
1000
0010
0001
0010
1000
,
0100
0010
0100
1000
0001
0100
0010
1000
,
0100
0010
0001
0001
0100
0010
1000
0100
,
0010
0001
0100
0100
0010
0100
0001
2000
,
0100
3100
0010
0001
0010
0100
1000
0001
,
0100
0010
2000
0000
3100
0100
0010
0020
,
0000
0031
0100
0010
1000
0100
0020
0000
,
0130
1000
0001
0100
0010
0100
0001
2000
,
0000
3100
0001
0100
0010
0001
0200
0000
,
0310
0100
0001
1000
0200
0000
0310
0010
,
0001
0100
2000
0000
3100
0010
2000
0000
,
3100
0010
0001
0010
0100
1000
0001
0200
,
0000
0000
0000
0000
0000
0000
0310
0000
1000
0000
0100
0000
M010
0001
0100
001M
,
100M
0100
001M
0100
10M0
0001
M100
0010
100M
0100
0010
M001
0200
0000
0000
0000
,
2300
3020
0032
0203
,
0310
0001
0100
0010
1000
0100
0020
0000
,
0032
0000
0203
0000
0310
1000
0200
0000
,
0301
0100
0010
0001
0100
0010
0200
0000
,
0302
0000
2003
3100
0010
0001
0020
0000
,
0032
0203
2300
3020
,
0032
0000
0103
0010
1000
0100
0010
0100
,
1000
0001
0100
0010
1000
0001
0201
0000
,
0310
0010
1000
0100
0001
0100
0010
0001
,
0100
1000
0100
0010
1000
0100
0210
0000
,
0010
0310
0001
0100
0010
1000
0001
0100
,
0010
0100
0001
1000
0001
1000
1200
0000
,
0010
0310
0001
1000
0001
0100
0010
1000
,
0100
0010
0100
1000
0001
0100
0010
0010
,
1000
1000
0100
0100
0001
0001
0010
0010
,
1000
1000
0200
0000
0320
0031
0200
0000
,
0310
1000
0100
0010
0001
0100
0010
1000
,
0200
0000
0000
0000
0320
0000
0000
0000
0031
0000
0100
0000
0010
0000
1000
0100
,
1000
0001
0100
0010
0100
0001
1000
0100
,
0020
0000
0032
0000
0103
0100
0010
1000
,
0100
0001
0100
1000
0010
0100
0001
0010
,
2000
0000
3020
0000
0031
0100
0010
0100
,
0001
1000
0100
0010
0100
1000
0001
0100
,
0020
0000
0230
0301
1000
0100
0010
0001
,
0100
0010
0100
0001
1000
0100
0010
0100
,
1000
0001
0100
0010
0100
0001
1000
0100
,
0010
0001
0100
1000
0100
0010
1000
0100
,
0001
0100
0010
0001
0100
0001
0100
0010
,
2000
0000
0100
3100
0000
0010
0001
0100
,
0020
0000
1000
1030
0000
0100
0010
0001
,
0200
0000
0310
0010
0200
0000
0000
0301
,
1000
0100
0001
0100
1000
0010
0200
0000
,
0302
0000
2003
0000
0100
3100
0010
0001
,
0100
1000
0100
0010
2000
0000
3200
0000
,
0320
0000
0032
0000
0100
0103
0010
0100
,
0001
1000
0001
0100
0010
0100
0002
0000
,
2003
0000
3200
0010
0010
0310
0200
0000
,
2300
0000
3001
0100
0010
1000
0200
0000
,
0302
0023
2030
3200
,
0320
0032
0203
0320
,
1000
1030
0100
0001
0100
0010
0001
0100
,
1000
0100
0010
0100
0010
1000
2100
0000
,
0100
3100
0010
0001
0010
0100
1000
0001
,
0100
0010
2000
3000
0000
0000
0000
0000
;
