#TITLE:Dawn of Victory;
#SUBTITLE:;
#ARTIST:Rhapsody;
#TITLETRANSLIT:;
#SUBTITLETRANSLIT:;
#ARTISTTRANSLIT:;
#CREDIT:Arvin;
#BANNER:../bn-Rhapsody.png;
#BACKGROUND:../Rhapsody-bg.png;
#LYRICSPATH:;
#CDTITLE:;
#MUSIC:02 - Dawn Of Victory.ogg;
#OFFSET:-0.069;
#SAMPLESTART:9.840;
#SAMPLELENGTH:19.900;
#SELECTABLE:YES;
#DISPLAYBPM:190.000;
#BPMS:0.000=189.980,508.000=190.700,524.000=189.980,840.000=47.530;
#STOPS:;
#BGCHANGES:;
// cache tags:
#FIRSTBEAT:0.000;
#LASTBEAT:852.313;
#SONGFILENAME:Songs/Rhapsody of Fire/Dawn of Victory - [Arvin]/Dawn of Victory.sm;
#HASMUSIC:1;
#HASBANNER:1;
#MUSICLENGTH:287.059;
// end cache tags

//---------------dance-single - Challenge----------------
#NOTES:
     dance-single:
     Challenge:
     Challenge:
     16:
     1.000,1.000,0.143,0.195,1.000,2574.000,41.000,56.000,118.000,0.000:

1MM1
0000
0000
0000
,
MM11
0000
0000
0000
,
11MM
0000
0000
0000
,
1M1M
0000
0000
0000
,
1MM1
0000
0000
0000
,
11MM
0000
0000
0000
,
MM11
0000
0000
0000
,
M2M2
0000
0000
0000
0000
0000
0303
0000
0001
0010
0100
1000
0001
1000
0010
0100
,
0001
1000
0100
0010
0001
0100
0010
1000
0100
0010
0001
1000
0001
1000
0010
0100
,
0001
0010
0100
1000
0010
0100
0001
1000
0001
1000
0010
0100
0001
1000
0100
1000
,
0001
0010
0001
0100
0010
1000
0100
0010
0001
0100
0010
1000
0001
0010
0100
1000
,
0010
0100
0001
0010
0100
1000
0001
0100
0001
1000
0100
1000
0010
0100
0001
0010
,
0100
1000
0001
1000
0001
0010
0100
1000
0010
0100
0001
0010
0100
0010
0001
1000
,
0100
0010
0001
0100
0010
0100
0001
0010
0100
1000
0010
0100
0010
1000
0001
0010
,
0100
0010
0001
1000
0100
0010
0001
1000
0001
1000
0100
0010
0001
1000
0010
1000
,
0001
0100
0001
1000
0100
0010
0100
1000
0001
0010
0100
1000
0001
0010
0100
0010
,
0001
1000
0010
0100
0001
0010
0100
1000
0010
0100
0001
1000
0001
1000
0100
0010
,
0001
0100
0010
1000
0100
0010
0001
1000
0001
1000
0100
0010
0001
1000
0010
1000
,
0001
0100
0001
0010
0100
1000
0010
0100
0001
0010
0100
1000
0001
0100
0010
1000
,
0100
0010
0001
0100
0010
1000
0001
0010
0001
1000
0010
1000
0100
0010
0001
0100
,
0010
1000
0001
1000
0001
0100
0010
1000
0100
0010
0001
0100
0010
0100
0001
1000
,
0010
0100
0001
0010
0100
0010
0001
0100
0010
1000
0100
0010
0100
1000
0001
0100
,
0010
0100
0001
1000
0010
0100
0001
1000
0001
1000
0010
0100
0001
1000
0100
1000
,
0001
0010
0001
1000
0010
0100
0010
1000
0001
0100
0010
1000
0001
0100
0010
0100
,
0002
0000
0000
0000
0013
0000
0010
0000
0100
0000
0100
0000
1000
0100
0010
0001
,
2000
0000
0000
3100
0020
0000
0000
0031
,
2000
0000
0000
3010
0100
0001
0100
0010
,
2000
0000
0000
0000
0000
0000
3010
0100
0002
0000
0000
0000
0000
0000
1003
0000
,
0200
0000
0000
0310
0001
1000
0010
1000
,
0002
0000
0000
0000
0203
0000
0000
0310
,
1000
0000
0001
0010
0100
1000
0001
1000
0001
0010
0100
1000
0001
0100
0010
0100
,
M001
1000
11MM
0100
,
M22M
0000
0000
0000
0000
0000
0000
0000
000M
M000
000M
M000
000M
M000
033M
M000
,
0010
0001
0010
0100
1000
0001
0010
0100
1000
0100
0010
0001
1000
0001
1000
0100
,
0010
0001
0100
0010
1000
0100
0010
0001
0100
0010
1000
0001
0010
0100
1000
0010
,
0100
0001
0010
0100
1000
0010
0100
0001
1000
0001
1000
0100
0010
0001
1000
0001
,
1000
0100
0010
0001
0010
0100
1000
0001
0010
0100
1000
0001
0100
0001
1000
0010
,
1000
0001
0100
0010
0100
0001
0010
0100
1000
0010
0100
0010
1000
0100
0010
0001
,
1000
0100
0010
0100
1000
0001
0010
0100
0010
0001
1000
0100
0010
0001
1000
0001
,
0100
0010
1000
0001
1000
0010
0100
0001
0010
0100
1000
0001
0100
0001
1000
0010
,
1000
0100
0010
0001
1000
0001
1000
0100
0010
0001
1000
0010
1000
0001
0100
0001
,
1000
0100
0010
0100
1000
0001
0010
0100
1000
0010
0100
0001
0010
0100
1000
0001
,
1000
0100
1100
0000
0100
0010
0110
0000
,
0010
0001
0011
0000
0001
0100
0110
0000
,
1M1M
0000
0000
0000
4MM4
0MM0
0MM0
3MM3
,
0001
1000
0100
0010
0001
1000
0100
0010
0001
0010
0100
1000
0001
1000
0001
0010
,
0100
1000
0010
0100
0001
0010
0100
1000
0010
0100
0001
1000
0100
0010
0001
0100
,
0010
1000
0100
0010
0001
0100
0010
1000
0001
1000
0001
0010
0100
1000
0001
1000
,
0001
0010
0100
1000
0100
0010
0001
1000
0100
0010
0001
1000
0010
1000
0001
0100
,
0001
1000
0010
0100
0010
1000
0100
0010
0001
0100
0010
0100
0001
0010
0100
1000
,
0001
0010
0100
0010
0001
1000
0100
0010
0100
1000
0001
0010
0100
1000
0001
1000
,
0010
0100
0001
1000
0001
0100
0010
1000
0100
0010
0001
1000
0010
1000
0001
0100
,
0001
0010
0100
1000
0001
1000
0001
0010
0100
1000
0001
0100
0001
1000
0010
1000
,
0001
0010
0100
0010
0001
1000
0100
0010
0001
0100
0010
1000
0100
0010
0001
1000
,
0001
0010
0011
0000
0010
0100
0110
0000
,
0100
1000
1100
0000
1000
0010
0110
0000
,
M1M1
MMMM
0002
0000
,
0203
0000
0320
0000
,
1030
0100
0010
0001
0100
0010
1000
0100
0010
0001
0010
0100
1000
0010
0100
0001
,
0010
0100
1000
0001
0100
0001
1000
0010
1000
0001
0100
0010
1000
0010
0100
0001
,
1000
0100
0010
0001
0010
0100
1000
0010
0100
0001
0010
0100
1000
0100
0010
0001
,
0100
0010
1000
0100
0010
0001
1000
0001
1000
0100
0010
0001
1000
0010
1000
0001
,
0100
0001
1000
0100
0010
0100
1000
0001
0010
0100
1000
0001
0010
0100
0010
0001
,
1000
0100
1000
0010
0100
0001
0010
0001
0100
0010
1000
0100
0010
0001
0100
0001
,
1000
0010
0100
0001
0010
0100
1000
0001
0100
0001
0010
0100
1000
0010
0100
0001
,
1000
0001
0100
0010
1000
0100
0010
0001
1000
0010
0100
0001
1000
0100
0010
0001
,
1MM0
0000
0000
1000
0010
1000
0010
0000
0000
0100
0001
0100
,
0001
0000
0000
1000
0100
1000
0100
0010
0001
0010
0001
1000
,
0001
0000
0000
0100
0001
0100
0001
0000
0000
1000
0001
1000
,
0001
0000
0000
0001
0010
0001
0010
0100
1000
0100
1000
0001
,
1000
0100
0010
0001
0100
0010
1000
0100
0010
0001
0010
0100
1000
0010
0100
0001
,
0010
0100
1000
0001
0100
0001
1000
0010
1000
0001
0100
0010
1000
0010
0100
0001
,
1000
0100
0010
0001
0010
0100
1000
0010
0100
0001
0010
0100
1000
0100
0010
0001
,
0100
0010
1000
0100
0010
0001
1000
0001
1000
0100
0010
0001
1000
0010
1000
0001
,
0100
0001
1000
0100
0010
0100
1000
0001
0010
0100
1000
0001
0010
0100
0010
0001
,
1000
0100
1000
0010
0100
0001
0010
0001
0100
0010
1000
0100
0010
0001
0100
0001
,
1000
0010
0100
0001
0010
0100
1000
0001
0100
0001
0010
0100
1000
0010
0100
0001
,
1000
0001
0100
0010
1000
0100
0010
0001
1000
0010
0100
0001
1000
0100
0010
0001
,
1MM0
0000
0000
0000
,
11MM
0000
0000
0000
,
MM11
0000
0000
0000
,
M1M1
0000
0000
0000
,
1MM1
0000
0000
0000
,
MM11
0000
0000
0000
,
11MM
0000
0000
0000
,
2M2M
0000
0000
0000
0000
0000
3030
0000
1000
0100
0010
0001
1000
0001
0100
0010
,
1000
0001
0010
0100
1000
0010
0100
0001
0010
0100
1000
0001
1000
0001
0100
0010
,
1000
0100
0010
0001
0100
0010
1000
0001
1000
0001
0100
0010
1000
0001
0010
0001
,
1000
0100
1000
0010
0100
0001
0010
0100
1000
0010
0100
0001
1000
0100
0010
0001
,
0100
0010
1000
0100
0010
0001
1000
0010
1000
0001
0010
0001
0100
0010
1000
0100
,
0010
0001
1000
0001
1000
0100
0010
0001
0100
0010
1000
0100
0010
0100
1000
0001
,
0010
0100
1000
0010
0100
0010
1000
0100
0010
0001
0100
0010
0100
0001
1000
0100
,
0010
0100
1000
0001
0010
0100
1000
0001
1000
0001
0010
0100
1000
0001
0100
0001
,
1000
0010
1000
0001
0010
0100
0010
0001
1000
0100
0010
0001
1000
0100
0010
0100
,
0010
0001
0010
0100
1000
0001
0010
0100
1000
0100
0010
0001
1000
0001
1000
0100
,
0010
0001
0100
0010
1000
0100
0010
0001
0100
0010
1000
0001
0010
0100
1000
0010
,
0100
0001
0010
0100
1000
0010
0100
0001
1000
0001
1000
0100
0010
0001
1000
0001
,
1000
0100
0010
0001
0010
0100
1000
0001
0010
0100
1000
0001
0100
0001
1000
0010
,
1000
0001
0100
0010
0100
0001
0010
0100
1000
0010
0100
0010
1000
0100
0010
0001
,
1000
0100
0010
0100
1000
0001
0010
0100
0010
0001
1000
0100
0010
0001
1000
0001
,
0100
0010
1000
0001
1000
0010
0100
0001
0010
0100
1000
0001
0100
0001
1000
0010
,
1000
0100
0010
0001
1000
0001
1000
0100
0010
0001
1000
0010
1000
0001
0100
0001
,
1000
0100
0010
0100
1000
0001
0010
0100
1000
0010
0100
0001
0010
0100
1000
0001
,
1000
0100
1100
0000
0100
0010
0110
0000
,
0010
0001
0011
0000
0001
0100
0110
0000
,
1M1M
MMMM
2000
0000
,
3020
0000
0230
0000
,
0301
0010
0100
1000
0010
0100
0001
0010
0100
1000
0100
0010
0001
0100
0010
1000
,
0100
0010
0001
1000
0010
1000
0001
0100
0001
1000
0010
0100
0001
0100
0010
1000
,
0001
0010
0100
1000
0100
0010
0001
0100
0010
1000
0100
0010
0001
0010
0100
1000
,
0010
0100
0001
0010
0100
1000
0001
1000
0001
0010
0100
1000
0001
0100
0001
1000
,
0010
1000
0001
0010
0100
0010
0001
1000
0100
0010
0001
1000
0100
0010
0100
1000
,
0001
0010
0001
0100
0010
1000
0100
1000
0010
0100
0001
0010
0100
1000
0010
1000
,
0001
0100
0010
1000
0100
0010
0001
1000
0010
1000
0100
0010
0001
0100
0010
1000
,
0001
1000
0010
0100
0001
0010
0100
1000
0001
0100
0010
1000
0001
0010
0100
1000
,
0MM1
0000
0000
0001
0100
0001
0100
0000
0000
0010
1000
0010
,
1000
0000
0000
0001
0010
0001
0010
0100
1000
0100
1000
0001
,
1000
0000
0000
0010
1000
0010
1000
0000
0000
0001
1000
0001
,
1000
0000
0000
1000
0100
1000
0100
0010
0001
0010
0001
1000
,
0001
0010
0100
1000
0010
0100
0001
0010
0100
1000
0100
0010
0001
0100
0010
1000
,
0100
0010
0001
1000
0010
1000
0001
0100
0001
1000
0010
0100
0001
0100
0010
1000
,
0001
0010
0100
1000
0100
0010
0001
0100
0010
1000
0100
0010
0001
0010
0100
1000
,
0010
0100
0001
0010
0100
1000
0001
1000
0001
0010
0100
1000
0001
0100
0001
1000
,
0010
1000
0001
0010
0100
0010
0001
1000
0100
0010
0001
1000
0100
0010
0100
1000
,
0001
0010
0001
0100
0010
1000
0100
1000
0010
0100
0001
0010
0100
1000
0010
1000
,
0001
0100
0010
1000
0100
0010
0001
1000
0010
1000
0100
0010
0001
0100
0010
1000
,
0001
1000
0010
0100
0001
0010
0100
1000
0001
0100
0010
1000
0001
0010
0100
1000
,
0M01
0010
0100
0010
0001
1000
010M
0010
0001
1000
0001
1000
,
001M
0100
0001
0100
0010
1000
010M
0010
0001
0010
0100
1000
,
00M1
1000
0100
0010
0001
0010
010M
1000
0001
0100
0001
1000
,
0M20
0000
0130
0001
0100
0010
1000
0001
0200
0000
0000
0000
0000
0000
0000
0000
,
03M1
0100
0010
0100
0001
1000
001M
0100
0001
1000
0001
1000
,
010M
0010
0001
0010
0100
1000
001M
0100
0001
0100
0010
1000
,
0M01
1000
0010
0100
0001
0100
001M
1000
0001
0010
0001
1000
,
02M0
0000
0310
0001
0100
0010
1000
0001
0200
0000
0000
0000
0000
0000
0000
0000
,
0310
1000
0001
0010
0001
1000
0010
1000
0001
0100
0010
1000
0100
0010
0001
0010
,
0100
1000
0001
0100
0001
1000
0010
1000
0001
0100
0010
0100
0001
0010
0001
1000
,
0100
0010
0001
0010
0100
1000
0001
0010
0001
1000
0100
1000
0010
0100
0001
0010
,
0001
0100
0010
1000
0100
0010
0001
0010
0100
0000
1000
0000
0001
0000
0100
0000
,
0010
1000
0001
0010
0001
1000
0010
1000
0001
0100
0010
1000
0100
0010
0001
0010
,
0100
1000
0001
0100
0001
1000
0010
1000
0001
0100
0010
0100
0001
0010
0001
1000
,
0100
0010
0001
0010
0100
1000
0001
0010
0001
1000
0100
1000
0010
0100
0001
0010
,
0001
0100
0010
1000
0100
0010
0001
0010
0100
0000
1000
0000
0001
0000
0100
0000
,
0020
0000
0000
0000
0000
0000
1030
0001
0010
0000
0200
0000
0000
0000
1300
0000
,
0002
0000
0000
0103
0020
0000
1030
0100
0010
0001
2000
0000
0000
0000
0000
0000
,
3002
0000
0000
0000
0000
0000
0103
0010
1000
0001
0020
0000
0000
0000
0000
0000
,
0130
1000
0001
0100
0002
0000
0000
0000
,
0203
0000
0000
0000
0000
0000
0301
1000
0100
0000
0020
0000
0000
0000
0031
0000
,
2000
0000
0000
3010
0200
0000
0301
0010
0100
1000
0002
0000
0000
0000
0000
0000
,
2003
0000
0000
0000
0000
0000
3010
0100
0001
1000
0200
0000
0000
0000
0000
0000
,
0310
0001
1000
0010
2000
0000
0000
0000
,
3M01
0010
0100
0010
0001
1000
010M
0010
0001
1000
0001
1000
,
001M
0100
0001
0100
0010
1000
010M
0010
0001
0010
0100
1000
,
00M1
1000
0100
0010
0001
0010
010M
1000
0001
0100
0001
1000
,
0M20
0000
0130
0001
0100
0010
1000
0001
0200
0000
0000
0000
0000
0000
0000
0000
,
03M1
0100
0010
0100
0001
1000
001M
0100
0001
1000
0001
1000
,
010M
0010
0001
0010
0100
1000
001M
0100
0001
0100
0010
1000
,
0M01
1000
0010
0100
0001
0100
001M
1000
0001
0010
0001
1000
,
02M0
0000
0310
0001
0100
0010
1000
0001
0200
0000
0000
0000
0000
0000
0000
0000
,
031M
1000
0001
0010
0100
1000
00M1
0100
0001
1000
0100
0010
,
M001
0000
0000
0000
0010
0000
0000
0000
0100
0000
0000
0000
1000
0000
0000
0000
0001
0000
0000
0000
0100
0000
0000
0000
M001
0000
0000
0010
0000
0000
0100
0000
0000
1000
0000
0000
0100
0000
0000
0010
0000
0000
0001
0000
0000
1000
0000
0000
,
0020
0000
0230
0000
,
0301
1000
0100
0010
0001
1000
0100
0010
0001
0010
0100
1000
0001
1000
0001
0010
,
0100
1000
0010
0100
0001
0010
0100
1000
0010
0100
0001
1000
0100
0010
0001
0100
,
0010
1000
0100
0010
0001
0100
0010
1000
0001
1000
0001
0010
0100
1000
0001
1000
,
0001
0010
0100
1000
0100
0010
0001
1000
0100
0010
0001
1000
0010
1000
0001
0100
,
0001
1000
0010
0100
0010
1000
0100
0010
0001
0100
0010
0100
0001
0010
0100
1000
,
0001
0010
0100
0010
0001
1000
0100
0010
0100
1000
0001
0010
0100
1000
0001
1000
,
0010
0100
0001
1000
0001
0100
0010
1000
0100
0010
0001
1000
0010
1000
0001
0100
,
0001
0010
0100
1000
0001
1000
0001
0010
0100
1000
0001
0100
0001
1000
0010
1000
,
0001
0010
0100
0010
0001
1000
0100
0010
0001
0100
0010
1000
0100
0010
0001
1000
,
0100
1000
0100
0010
0001
1000
0100
0010
0001
0010
0100
1000
0001
1000
0001
0010
,
0100
1000
0010
0100
0001
0010
0100
1000
0010
0100
0001
1000
0100
0010
0001
0100
,
0010
1000
0100
0010
0001
0100
0010
1000
0001
1000
0001
0010
0100
1000
0001
1000
,
0001
0010
0100
1000
0100
0010
0001
1000
0100
0010
0001
1000
0010
1000
0001
0100
,
0001
1000
0010
0100
0010
1000
0100
0010
0001
0100
0010
0100
0001
0010
0100
1000
,
0001
0010
0100
0010
0001
1000
0100
0010
0100
1000
0001
0010
0100
1000
0001
1000
,
0010
0100
0001
1000
0001
0100
0010
1000
0100
0010
0001
1000
0010
1000
0001
0100
,
0001
0100
0101
0000
0001
0010
0011
0000
,
0010
0100
0110
0000
0100
1000
1100
0000
,
1M1M
MMMM
2000
0000
,
3020
0000
0230
0000
,
0301
0010
0100
1000
0010
0100
0001
0010
0100
1000
0100
0010
0001
0100
0010
1000
,
0100
0010
0001
1000
0010
1000
0001
0100
0001
1000
0010
0100
0001
0100
0010
1000
,
0001
0010
0100
1000
0100
0010
0001
0100
0010
1000
0100
0010
0001
0010
0100
1000
,
0010
0100
0001
0010
0100
1000
0001
1000
0001
0010
0100
1000
0001
0100
0001
1000
,
0010
1000
0001
0010
0100
0010
0001
1000
0100
0010
0001
1000
0100
0010
0100
1000
,
0001
0010
0001
0100
0010
1000
0100
1000
0010
0100
0001
0010
0100
1000
0010
1000
,
0001
0100
0010
1000
0100
0010
0001
1000
0010
1000
0100
0010
0001
0100
0010
1000
,
0001
1000
0010
0100
0001
0010
0100
1000
0001
0100
0010
1000
0001
0010
0100
1000
,
0MM1
0000
0000
0001
0100
0001
0100
0000
0000
0010
1000
0010
,
1000
0000
0000
0001
0010
0001
0010
0100
1000
0100
1000
0001
,
1000
0000
0000
0010
1000
0010
1000
0000
0000
0001
0100
0001
,
0100
0000
0000
0010
1000
0010
1000
0001
0010
0001
0010
0100
,
1000
0100
0010
0001
0100
0010
1000
0100
0010
0001
0010
0100
1000
0010
0100
0001
,
0010
0100
1000
0001
0100
0001
1000
0010
1000
0001
0100
0010
1000
0010
0100
0001
,
1000
0100
0010
0001
0010
0100
1000
0010
0100
0001
0010
0100
1000
0100
0010
0001
,
0100
0010
1000
0100
0010
0001
1000
0001
1000
0100
0010
0001
1000
0010
1000
0001
,
0100
0001
1000
0100
0010
0100
1000
0001
0010
0100
1000
0001
0010
0100
0010
0001
,
1000
0100
1000
0010
0100
0001
0010
0001
0100
0010
1000
0100
0010
0001
0100
0001
,
1000
0010
0100
0001
0010
0100
1000
0001
0100
0001
0010
0100
1000
0010
0100
0001
,
1000
0001
0100
0010
1000
0100
0010
0001
1000
0010
0100
0001
1000
0100
0010
0001
,
1000
0000
0000
0100
1000
0100
1000
0000
0000
0010
0100
0010
,
0100
0000
0000
0001
0010
0001
0010
0100
1000
0100
1000
0001
,
0100
0000
0000
0010
1000
0010
1000
0000
0000
0001
0100
0001
,
0100
0000
0000
0001
0010
0001
0010
0100
1000
0100
1000
0001
,
1000
0100
0010
0001
0100
0010
1000
0100
0010
0001
0010
0100
1000
0010
0100
0001
,
0010
0100
1000
0001
0100
0001
1000
0010
1000
0001
0100
0010
1000
0010
0100
0001
,
1000
0100
0010
0001
0010
0100
1000
0010
0100
0001
0010
0100
1000
0100
0010
0001
,
0100
0010
1000
0100
0010
0001
1000
0001
1000
0100
0010
0001
1000
0010
1000
0001
,
2000
0000
0000
0000
0000
0000
0000
0000
3200
0000
0000
0000
0000
0000
0300
0120
,
0000
0000
0000
0000
0000
0000
0000
0000
0000
0000
0000
0000
0000
0000
0030
0002
0000
0000
0000
0000
0000
0000
0000
0000
0000
0000
0000
0000
0000
0000
0003
0000
,
2002
0000
0M00
00M0
0M00
00M0
0M00
00M0
,
3M03
0000
0000
0000
0000
1001
0000
0000
0000
0000
0000
0000
0000
0000
0000
0000
0000
0000
0000
0000
0000
0000
0000
0000
0000
0000
0000
0000
0000
0000
0000
0000
0000
0000
0000
0000
0000
0000
0000
0000
0000
0000
0000
0000
0000
0000
0000
0000
0000
0000
0000
0000
0000
0000
0000
0000
0000
0000
0000
0000
0000
0000
0000
0000
;
