#TITLE:Hadouken Lolita;
#SUBTITLE:;
#ARTIST:Bokusatsu Shoujo Koubou;
#TITLETRANSLIT:;
#SUBTITLETRANSLIT:;
#ARTISTTRANSLIT:;
#CREDIT:;
#BANNER:../ban - Jawn2.png;
#BACKGROUND:../Jawn2 - bg.png;
#LYRICSPATH:;
#CDTITLE:../CDa.png;
#MUSIC:Hadouken Lolita.ogg;
#OFFSET:0.009;
#SAMPLESTART:85.715;
#SAMPLELENGTH:17.170;
#SELECTABLE:YES;
#DISPLAYBPM:224.000;
#BPMS:0.000=223.973;
#STOPS:;
#BGCHANGES:;
// cache tags:
#FIRSTBEAT:31.000;
#LASTBEAT:576.250;
#SONGFILENAME:Songs/Jimmy Jawns 2/Hadouken Lolita - [Aoreo]/Hadouken Lolita.sm;
#HASMUSIC:1;
#HASBANNER:1;
#MUSICLENGTH:155.840;
// end cache tags

//---------------dance-single - J. Nero----------------
#NOTES:
     dance-single:
     J. Nero:
     Challenge:
     15:
     1.000,1.000,0.064,0.199,1.000,1370.000,10.000,31.000,0.000,0.000:
0000
0000
0000
0000
,
0000
0000
0000
0000
,
0000
0000
0000
0000
,
0000
0000
0000
0000
,
0000
0000
0000
0000
,
0000
0000
0000
0000
,
0000
0000
0000
0000
,
0000
0000
0000
0000
0000
0000
0000
0000
0000
1000
0001
0100
,
0001
0010
0100
1000
0001
1000
0010
0100
0001
1000
0100
0010
,
0100
1000
0001
0100
0010
1000
0001
1000
0100
0010
0001
0100
,
0001
1000
0010
0100
0010
1000
0001
0010
0100
1000
0001
0100
,
0010
0100
0001
1000
0100
0010
0100
1000
0010
0100
0001
1000
,
0001
0010
0100
1000
0010
0100
0001
0100
0010
1000
0100
0010
,
0001
0000
0000
0000
0100
0000
0000
0000
0001
0000
0000
0000
1000
0000
0000
0000
0100
0000
0000
0000
0010
0000
0000
0000
0100
0000
0000
0000
1000
0000
0000
0000
0010
0000
0000
0000
0100
0000
0000
0001
0000
0000
1000
0000
0000
0100
0000
0000
,
0010
0000
0000
0011
0000
0000
1001
0000
0000
1010
0000
0000
0010
0000
0100
0001
,
1000
0100
1000
0001
0100
0010
1000
0001
1000
0100
0010
0001
0100
0001
1000
0100
,
1000
0010
0100
0001
0010
0001
1000
0100
,
1000
0010
0100
0010
1000
0100
0010
0001
,
1000
0010
0100
0001
0010
0100
1000
0010
,
0100
0001
0010
0001
1000
0010
1000
1000
,
0010
0100
0001
0010
0001
1000
0100
0010
,
0100
0000
1000
0000
0010
0000
0100
0000
0001
0000
1000
0000
0001
0100
0001
0010
,
0100
1000
0010
0100
0010
1000
0100
0010
,
0001
1000
0001
0010
0100
0000
0000
0000
1000
0100
1000
0001
0100
0001
1000
0100
,
0010
0001
0100
0010
1000
0100
0010
0001
,
1000
0100
1000
0010
0100
0001
0010
0100
,
1000
0010
0100
0010
1000
0100
0010
0001
,
1000
0000
0100
0000
1000
0000
0001
0000
0100
0000
0001
1000
0100
0000
0010
0001
,
1000
0001
0100
0010
0100
0001
0010
0100
,
1000
0001
1000
0000
0001
0000
0010
0000
0001
0000
0100
0010
1000
0000
0001
0000
,
0020
0000
0130
0000
1000
0000
0010
0000
0200
0000
0301
0000
1000
0000
0001
1000
,
0001
0010
0100
0000
1000
0001
1000
0000
0001
0010
0100
1000
0001
1000
0010
0000
,
0100
0001
1000
0100
1000
0010
0100
0010
,
1000
0001
0010
0001
0100
0010
1000
0100
,
0010
0001
0100
0001
1000
0100
0010
0100
,
1000
0000
0010
0000
0100
0000
0001
0000
0010
0000
0001
1000
0100
0000
1000
0001
,
1000
0010
0100
0001
0010
0100
1000
0001
,
1000
0100
0010
0000
0001
1000
0001
0000
1000
0000
0010
0100
0001
0000
1000
0000
,
0100
0100
1000
0001
0001
0100
0010
1000
,
0001
0100
0001
1000
0100
0010
0001
1000
0010
0100
0001
0010
0100
1000
0001
1000
,
0010
0100
0001
0010
0001
1000
0100
1000
,
0010
0100
0010
1000
0100
0010
0001
0100
,
0001
0010
0100
1000
0010
1000
0001
0010
,
0001
0100
0010
1000
0100
0010
0001
0001
,
1000
0100
1000
0010
0100
0010
1000
0100
,
0010
0001
0010
0001
0100
0010
1000
0100
,
0010
0001
0100
0001
1000
0100
0010
0100
,
1000
0000
0010
0000
0100
0000
0001
0000
1000
0001
1000
0100
0010
0001
0100
0010
,
2000
0000
0000
0000
0000
0000
3001
0000
0000
0000
1000
0000
0001
0000
0100
0001
,
0010
0000
0000
0000
0000
0000
0000
0000
0100
1000
0001
1000
0010
0000
0100
0001
,
1000
0000
0010
0000
1000
0000
0100
0000
0010
0000
0001
0000
0001
0000
1000
0001
,
0100
0000
0000
0000
0001
0000
1000
0000
0001
1000
0001
0010
0100
1000
0001
1000
,
0020
0000
0000
0000
0000
0000
0130
0000
0000
0000
0001
0000
1000
0000
0100
0010
,
0001
0000
0000
0000
0000
0000
0000
0000
1000
0001
1000
0010
0100
0000
0001
1000
,
0010
0000
1000
0000
0100
0000
0010
0000
0001
1000
0001
0100
0010
0000
1000
0001
,
0100
0010
1000
0001
1000
0100
0010
0001
1000
0001
0100
0010
1000
0001
0010
0100
,
1000
0100
1000
0010
0100
0010
1000
0100
,
0010
0001
0100
0001
1000
0010
1000
1000
,
0001
0010
0001
0100
0010
1000
0010
0100
,
0001
0000
1000
0000
0100
0000
0010
0000
0001
0000
0100
0000
0010
0000
1000
0001
,
1000
0010
0100
0001
0010
0001
1000
0100
,
0010
0000
0001
0000
0100
0000
0010
0000
1000
0000
0100
0000
1000
0000
0001
0010
,
0100
0000
1000
0000
0010
0000
0100
0000
0001
0000
1000
0010
1000
0001
0100
0001
,
1000
0000
0100
0000
0010
0000
0100
1000
0010
0100
0001
1000
0001
0100
0010
1000
,
0100
0010
0001
1000
0001
0100
0010
1000
0001
0010
0100
1000
0010
1000
0001
0100
,
0010
1000
0001
0010
0100
0010
0001
0100
0010
1000
0001
1000
0100
0010
0001
1000
,
0001
0100
0010
1000
0001
0010
0001
0100
0010
1000
0001
1000
0100
0010
0001
0100
,
0001
1000
0100
0010
0100
1000
0001
0100
0010
1000
0010
0100
0001
0010
0100
1000
,
0001
0100
0010
1000
0010
0100
0001
0010
0100
1000
0001
0100
0001
1000
0100
1000
,
0001
0100
0010
1000
0010
0100
0001
0010
0100
1000
0001
0100
0010
1000
0100
0010
,
0001
1000
0001
0100
0010
1000
0001
0010
0100
0010
0001
1000
0010
1000
0100
0010
,
0001
1000
0001
0100
0010
1000
0001
0010
0100
0010
0001
1000
0010
0100
0001
0010
,
0100
1000
0010
1000
0001
0010
0100
1000
0001
0100
0010
1000
0100
1000
0001
0010
,
0100
1000
0001
0100
0010
0100
0001
0010
0100
1000
0001
1000
0010
0100
0001
1000
,
0001
0010
0100
1000
0001
0100
0001
0010
0100
1000
0001
1000
0010
0100
0001
0010
,
0001
1000
0010
0100
0010
1000
0001
0010
0100
1000
0100
0010
0001
0100
0010
1000
,
0001
0010
0100
1000
0100
0010
0001
0100
0010
1000
0001
0010
0001
1000
0010
1000
,
0001
0010
0100
1000
0100
0010
0001
0100
0010
1000
0001
0010
0100
1000
0010
0100
,
0001
1000
0001
0010
0100
1000
0001
0100
0010
0100
0001
1000
0100
1000
0010
0100
,
0002
0000
0000
0000
0000
0000
0000
0000
1003
0000
0001
1000
0001
0000
0010
0100
,
2000
0000
3001
0200
0000
0310
2000
3000
,
2001
0000
3001
0020
0000
0130
2000
3000
,
2010
0000
3010
0200
0000
0301
0020
0030
,
0120
0000
0130
2000
0000
3001
0002
0003
,
1002
0000
1003
0020
0000
0130
0002
0003
,
0012
0000
0013
0200
0000
1300
0002
0003
,
1002
0000
1003
0020
0000
0130
0002
0003
,
0012
0000
0000
0000
0013
0000
0200
0000
0000
0000
1300
0000
0001
0000
1000
0001
,
1000
0010
0100
0010
1000
0001
0010
0100
0010
0001
0100
0010
,
1000
0001
1000
0100
0010
0001
0100
0001
1000
0010
0100
0001
,
0010
0100
1000
0001
1000
0010
0100
0001
1000
0100
0010
0001
,
0100
0001
1000
0100
0010
0100
1000
0010
0100
0001
1000
0100
,
0010
0001
0100
0001
1000
0010
0100
0010
1000
0001
0100
0001
,
1000
0100
1000
0001
0010
0001
1000
0100
0010
0001
0100
0010
,
1000
0000
0000
0000
0001
0000
0100
0000
0000
0000
0001
0000
0000
0000
1000
0001
,
1000
0100
0010
0001
0100
0001
1000
0100
1000
0001
0100
0010
1000
0100
0010
0001
,
1000
0100
1000
0010
0100
0001
0010
0001
,
1000
0100
1000
0010
0100
0010
1000
0001
,
0100
0001
0010
0100
1000
0001
0010
0001
,
0100
0010
1000
0100
1000
0001
0010
0001
,
0100
0010
1000
0100
1000
0001
0100
0010
,
0100
0001
0010
0100
1000
0010
1000
0100
,
0010
0001
0100
0001
1000
0100
1000
0010
,
0100
0010
1000
0100
0010
0001
0100
0001
,
0010
0100
0100
1000
0001
0001
0100
0010
,
1000
0100
0100
0010
0001
0001
1000
0100
,
1000
0001
0001
0100
0010
0010
1000
0100
,
0010
0000
0001
0000
0001
0000
1000
0000
0100
0000
0100
0000
1000
0000
0001
0100
,
0001
0000
0010
0100
1000
0000
0001
0100
0010
0000
1000
0000
0001
0100
0001
0000
,
1000
0000
0100
0000
0100
0000
0010
0000
0001
0000
1000
0001
1000
0100
0010
0001
,
1000
0001
0100
0010
1000
0001
1000
0100
0010
0001
0100
0001
1000
0100
0010
0100
,
1000
0001
0100
0010
1000
0010
0100
0001
1000
0100
0010
0001
0100
0001
1000
0010
,
1000
0100
1000
0010
0100
0010
1000
0100
,
0010
0001
0100
0001
0010
0001
0100
0010
,
1000
0100
1000
0010
0100
0010
1000
0100
,
0010
0001
0100
0001
0010
0100
0010
0001
,
1000
0100
1000
0010
0100
0010
1000
0100
,
0010
0000
0001
0000
0100
0000
0001
0000
0010
0000
0001
0000
0100
0010
1000
0100
,
0010
0001
0100
0001
0010
0100
1000
0010
,
1000
0001
1000
0010
0100
0000
0000
0000
0001
1000
0001
0010
0100
1000
0001
1000
,
0010
0000
1000
0001
1000
0100
0010
0000
0001
0000
0100
0000
0001
0000
0010
0000
,
0100
1000
0010
0100
0010
1000
0100
0010
,
0100
0000
1000
0001
1000
0010
0100
0000
0001
0000
1000
0000
0001
0000
0010
0000
,
0100
0000
1000
0000
0010
0000
0100
0000
0001
0000
1000
0001
0100
0000
0001
0010
,
0100
1000
0001
0100
0000
0001
1000
0000
,
0001
0100
0001
0000
1000
0100
0010
0000
0001
0000
1000
0001
0100
0000
0010
0000
,
1000
0000
0100
0000
1000
0000
0010
0000
0100
0000
0001
0000
0010
0000
0100
1000
,
0001
0100
0001
0000
1000
0010
0100
0000
0001
1000
0001
0010
0100
1000
0001
0100
,
0010
0000
1000
0001
1000
0010
0100
0000
0001
0000
0010
0000
0001
0000
0100
0000
,
0010
1000
1000
0001
0100
0100
0001
0010
,
0100
0000
1000
0001
1000
0010
0100
0000
0001
0000
1000
0000
0100
0000
1000
0000
,
0010
0000
0100
0000
0100
0000
0001
0000
0010
0000
0100
1000
0001
0000
1000
0001
,
1000
0010
0100
0000
0001
1000
0100
0000
,
1000
0001
0100
0000
0001
0010
0100
0000
1000
0000
0010
0100
0001
0000
1000
0000
,
0100
0100
1000
0001
0001
0100
0010
1000
,
0001
0100
0001
1000
0100
0010
0001
1000
0010
0100
0010
1000
0001
0010
0100
1000
,
0001
0100
0001
0010
0100
1000
0001
1000
,
0001
0010
0100
0010
0001
0100
0001
1000
,
0100
0010
0100
0010
0001
1000
0001
1000
,
0010
0000
0100
0000
0001
0000
1000
0000
0100
0000
0010
0000
0001
0000
1000
0001
,
0100
0010
0100
0001
0010
0001
1000
0010
,
0100
0000
0001
0000
0010
0000
0001
0000
1000
0000
0100
0000
1000
0000
0010
0100
,
0002
0000
0000
0000
0013
0000
0100
0000
2000
0000
0000
0000
3001
0000
0100
0001
,
1000
0000
0001
0100
0010
0000
1000
0100
0010
0000
0001
0000
1000
0001
1000
0010
,
0200
0300
0000
0000
0000
0000
0000
0000
0000
0000
0000
0000
0000
0000
0000
0000
;
