#TITLE:A Bitch Called Barbie (Imil Remix);
#SUBTITLE:CMOD OKAY;
#ARTIST:Imil;
#TITLETRANSLIT:;
#SUBTITLETRANSLIT:;
#ARTISTTRANSLIT:;
#CREDIT:;
#BANNER:../speedcore rejects ban.png;
#BACKGROUND:../speedcore rejects bg.png;
#LYRICSPATH:;
#CDTITLE:;
#MUSIC:A Bitch Called Barbie (Imil Remix).ogg;
#OFFSET:-0.340;
#SAMPLESTART:100.000;
#SAMPLELENGTH:12.000;
#SELECTABLE:YES;
#BPMS:0.000=275.000,348.000=285.000,364.000=290.001,380.000=320.002,396.000=350.002,412.000=378.004;
#STOPS:;
#BGCHANGES:;
// cache tags:
#FIRSTBEAT:42.000;
#LASTBEAT:624.000;
#SONGFILENAME:Songs/Speedcore Rejects/A Bitch Called Barbie (Imil Remix) - [Happy Feet!]/A Bitch Called Barbie (Imil Remix).sm;
#HASMUSIC:1;
#HASBANNER:1;
#MUSICLENGTH:123.876;
// end cache tags

//---------------dance-single - Blank----------------
#NOTES:
     dance-single:
     Blank:
     Challenge:
     13:
     1.000,1.000,0.840,1.000,0.105,601.000,104.000,190.000,106.000,58.000:

0000
0000
0000
0000
,
0000
0000
0000
0000
,
0000
0000
0000
0000
,
0000
0000
0000
0000
,
0000
0000
0000
0000
,
0000
0000
0000
0000
,
0000
0000
0000
0000
,
0000
0000
0000
0000
,
0000
0000
0000
0000
,
0000
0000
0000
0000
,
0000
0000
MMMM
0000
,
0022
2233
3322
2233
,
3322
2233
3322
2233
,
3322
2233
3322
2233
,
3322
0000
2233
0000
3322
0000
1033
0100
,
0020
0232
2323
3232
,
2323
3232
2323
3232
,
2323
3232
2323
3232
,
2323
3232
2323
0000
,
3031
1000
0020
0000
0230
0000
0302
0000
,
2003
3200
0320
0032
,
0203
0320
2030
3002
,
0023
0000
0032
0000
2203
3322
2233
3322
,
2233
3320
2030
3002
,
0023
0032
2003
3200
,
0320
0032
2003
3020
,
2232
0000
0000
0000
3303
0000
0000
0000
4000
0000
0000
0000
3001
0100
0001
0100
,
0001
1000
0100
0000
1000
0001
0100
0000
,
0010
1000
0100
0000
0010
0001
0100
0000
,
0010
1000
0001
0000
0100
0010
1000
0000
,
0001
1000
0010
0000
1100
0011
1100
0011
,
1100
0001
0010
0000
0100
1000
0001
0000
,
0100
0010
1000
0000
0010
0100
0001
0000
,
1000
0001
0100
0000
0001
0010
0100
0000
,
0010
0001
1000
0000
1001
0000
0004
0000
,
2003
3020
0230
0320
,
2030
3002
0023
0032
,
2003
3200
2300
3020
,
0230
0000
0302
0000
2223
0000
0000
3330
,
0001
1000
0001
1000
0010
0100
0010
0100
,
0001
0100
0001
0100
0004
0000
0000
0000
,
2223
0000
0000
0000
0000
0000
0000
0000
0000
0000
0000
0000
0000
0000
0000
0000
0000
0000
0000
0000
0000
0000
0000
0000
0000
0000
0000
0000
0000
0000
0000
3330
0222
0000
0000
0000
0000
0000
0000
0000
0000
0000
0000
0000
0000
0000
0000
0000
0000
0000
0000
0000
0000
0000
0000
0000
0000
0000
0000
0000
0000
0000
0000
0333
,
2202
0000
0000
0000
0000
0000
0000
0000
0000
0000
0000
0000
0000
0000
0000
0000
0000
0000
0000
0000
0000
0000
0000
0000
0000
0000
0000
0000
0000
0000
0000
3303
0040
0000
0000
0000
0000
0000
0000
0000
0000
0000
0000
0000
0000
0000
0000
0000
1030
0000
0000
0000
0001
0000
0000
0000
1000
0000
0000
0000
0001
0000
0000
0000
,
20M0
0000
3M00
0000
,
000M
0000
M000
0000
,
00M0
0000
0M00
0000
,
00M0
0000
M000
0000
,
0000
0000
0000
0000
0000
MMMM
0000
0000
0000
0000
0000
0000
0000
0000
0000
0000
0000
0000
0000
0000
0000
0000
0000
0000
0000
0000
0000
0000
0000
0000
0000
0000
0000
0000
0000
0000
0000
0000
0000
0000
0000
0000
0000
0000
0000
0000
0000
0000
,
0000
MMMM
0000
0000
0000
0000
0000
0000
,
0000
0000
0000
0000
0000
0000
0000
MMMM
0000
0000
0000
0000
0000
0000
0000
0000
0000
0000
0000
0000
0000
0000
0000
0000
0000
0000
0000
0000
0000
0000
0000
0000
0000
0000
0000
0000
0000
0000
0000
0000
0000
0000
0000
0000
0000
0000
0000
0000
,
0000
M000
0000
0000
0000
00M0
0000
0000
,
0000
0M00
0000
0000
0000
00M0
0000
0000
,
0000
0M00
0000
0000
0000
000M
0000
0000
,
0000
M000
0000
0000
0000
000M
0000
0000
,
0000
0000
0M00
0000
0000
0000
0000
0000
0000
0000
0000
00M0
0000
0000
0000
0000
,
0000
0000
0000
0000
,
0000
0000
0000
0000
,
M000
0M00
00M0
000M
M000
0M00
00M0
000M
,
M000
0000
0000
0M00
0000
0000
00M0
0000
0000
000M
0000
0000
M000
0000
0M00
0000
00M0
0000
000M
0000
M000
0000
0M00
0000
00M0
0000
0000
0000
0000
0000
0000
0000
0000
0000
0000
0000
0000
0000
0000
0000
0000
0000
0000
0000
0000
0000
0000
0000
,
1000
0001
0100
0100
0010
1000
0100
0100
,
1000
0001
1000
0001
,
0100
0010
1000
1000
0100
0010
0001
0001
,
1000
0100
1000
0010
0200
0000
0302
0000
,
2223
0000
0000
0000
0000
0000
0000
0000
0000
0000
0000
0000
0000
0000
0000
0000
0000
0000
0000
0000
0000
0000
0000
0000
0000
0000
0000
0000
0000
0000
0000
3330
0222
0000
0000
0000
0000
0000
0000
0000
0000
0000
0000
0000
0000
0000
0000
0000
0000
0000
0000
0000
0000
0000
0000
0000
0000
0000
0000
0000
0000
0000
0000
0333
,
2220
0000
0000
0000
0000
0000
0000
0000
0000
0000
0000
0000
0000
0000
0000
0000
0000
0000
0000
0000
0000
0000
0000
0000
0000
0000
0000
0000
0000
0000
0000
3330
0222
0000
0000
0000
0000
0000
0000
0000
0000
0000
0000
0000
0000
0000
0000
0000
0000
0000
0000
0000
0000
0000
0000
0000
0000
0000
0000
0000
0000
0000
0000
0333
,
2202
0000
0000
0000
0000
0000
0000
0000
0000
0000
0000
0000
0000
0000
0000
0000
0000
0000
0000
0000
0000
0000
0000
0000
0000
0000
0000
0000
0000
0000
0000
3303
2022
0000
0000
0000
0000
0000
0000
0000
0000
0000
0000
0000
0000
0000
0000
0000
0000
0000
0000
0000
0000
0000
0000
0000
0000
0000
0000
0000
0000
0000
0000
3033
,
2202
0000
0000
0000
0000
0000
0000
0000
0000
0000
0000
0000
0000
0000
0000
0000
0000
0000
0000
0000
0000
0000
0000
0000
0000
0000
0000
0000
0000
0000
0000
3303
0004
0000
0000
0000
0000
0000
0000
0000
0000
0000
0000
0000
0000
0000
0000
0000
0000
0000
0000
0000
0000
0000
0000
0000
0000
0000
0000
0000
0000
0000
0000
0000
,
1003
0100
1000
0010
0100
0001
0010
0001
,
1000
0100
0010
0001
1000
0010
0100
0001
,
0010
0001
0010
0100
1000
0010
0100
0001
,
1000
0100
1000
0001
0100
0001
1000
0004
,
0013
0100
1000
0001
1000
0010
0100
0001
,
1000
0000
0100
0000
0010
0000
0001
0000
1000
0000
0010
0000
0100
0001
0100
0001
,
0100
0010
1000
0100
1000
0001
0010
0001
,
1000
0001
0100
0001
0202
0300
2203
0300
,
3001
0010
0100
1000
0010
0100
0001
1000
,
0100
1000
0010
0100
0010
1000
0100
0010
,
0001
1000
0001
0100
0010
1000
0100
1000
,
0010
0100
0001
1000
2220
0000
3334
0000
,
1013
0101
1010
0101
1010
0101
1010
0101
,
1010
0101
1010
0101
1000
0001
1000
0001
,
1100
0011
1100
0011
1100
0011
1100
0011
,
1100
0000
0000
0000
0000
0000
0000
0000
0011
0000
0000
0000
0000
0000
0000
0000
1100
0000
0000
0000
0000
0000
0000
0000
0011
0000
0000
0000
0000
0000
0000
0000
2200
0000
0000
0000
0000
0000
0000
0000
0000
0000
0000
0000
0000
0000
0000
0000
0000
0000
0000
0000
0000
0000
0000
0000
0000
0000
0000
0000
0000
0000
0000
3300
,
2222
0000
3333
0000
,
0000
0000
0000
0000
,
0000
0000
0000
0000
,
0000
0000
0000
0000
0000
0000
0000
0000
0000
0000
0000
0000
0000
0000
0000
0000
0000
0000
0000
0000
0000
0000
0000
0000
0000
0000
0000
0000
0000
0000
0000
0000
0000
0000
0000
0000
0000
0000
0000
0000
0000
0000
0000
0000
0000
0000
0000
0000
2012
0000
0000
0000
0000
0000
0000
0000
0000
0000
0000
0000
0000
0000
0000
3003
,
2102
0000
0000
3003
0000
0000
0000
0000
,
0000
0000
0000
0000
,
0000
0000
0000
0000
,
0000
0000
0000
0000
,
2222
0000
0000
3333
0000
0000
0000
0000
,
0000
0000
0000
0000
,
0000
0000
0000
0000
,
0000
0000
0000
0000
,
2220
333M
0000
000M
,
0000
M000
0000
M000
,
0000
0M00
0000
0M00
,
0000
00M0
0000
00M0
,
2202
33M3
0000
00M0
,
0000
M000
0000
M000
,
0000
000M
0000
000M
,
0000
0M00
0000
0M00
,
0222
0333
0000
0000
,
0000
0000
0000
0000
0000
0000
0000
0000
0000
0000
0000
0000
M000
0M00
00M0
000M
,
00M0
0M00
M000
0M00
00M0
000M
00M0
0M00
M000
0M00
00M0
000M
00M0
0M00
M000
0M00
,
00M0
0000
0000
0000
0001
1000
0001
0100
,
0010
1000
0001
1000
0001
0100
0010
0100
,
0001
1000
0001
0010
0100
1000
0100
0010
,
0001
1000
0001
0100
0010
1000
0001
0010
,
0100
1000
0100
1000
0001
1000
0010
1000
,
0001
0100
0001
1000
0010
0100
0001
1000
,
0001
0010
0100
1000
0100
0010
0001
1000
,
0010
1000
0001
0100
0002
0000
0000
0000
,
2003
0000
0000
0000
3001
0100
0010
1000
,
0100
0010
0001
1000
0100
1000
0001
0010
,
0001
1000
0001
0010
0100
1000
0100
0010
,
0100
1000
0001
1000
0010
0100
0010
1000
,
0100
1000
0001
0010
0001
1000
0010
0100
,
0010
1000
0100
1000
0001
0100
0001
1000
,
0100
1000
0010
0100
0004
1000
0000
1003
,
0040
0100
0000
0130
0004
1000
0000
1003
,
0400
0010
0000
0310
0001
0000
1000
0000
,
0001
1000
0001
1000
,
0001
0000
1000
0001
0100
0000
0010
0000
,
0100
0010
0100
0010
,
0100
0000
0010
0100
0001
0000
0010
0000
,
0001
0010
0001
0010
,
0001
0000
0010
0001
1000
0000
0100
0000
,
1000
0000
0100
0000
4000
0000
0000
3000
,
2002
0000
3003
0000
0001
0100
0010
1000
,
0100
1000
0001
0010
0100
1000
0010
0100
,
0010
1000
0100
1000
0001
0010
0001
1000
,
0001
0100
0010
1000
0100
0010
0001
1000
,
0040
0100
0031
1000
0100
1000
0010
0100
,
0001
1000
0001
0100
0001
1000
0001
0100
,
0040
1000
0130
1000
2002
0000
0000
0000
,
3003
0000
0000
0000
,
0000
0000
0000
0000
1000
0100
0010
0001
,
1000
0001
0100
0001
0010
0100
0010
0001
,
1000
0100
1000
0004
1000
0103
0010
0100
,
0010
0001
1000
0001
0100
0010
1000
0010
,
0200
0000
0304
0000
1003
0100
1000
0001
,
1000
0010
0100
0010
1000
0001
0100
0001
,
1000
0010
4000
0100
3010
0001
0010
0001
,
1000
0100
1000
0001
0010
0001
1000
0001
,
0200
0000
0000
0000
0000
0000
0000
0000
0000
0000
0000
0000
0000
0000
0000
0300
0200
0000
0000
0000
0000
0000
0000
0000
0000
0000
0000
0000
0000
0000
0000
0000
0301
0000
0000
0000
0000
0000
0000
0000
1000
0000
0000
0000
0000
0000
0000
0000
0001
0000
0000
0000
0000
0000
0000
0000
0100
0000
0000
0000
0000
0000
0000
0000
,
0010
1000
0100
0010
0001
1000
0100
1000
,
0010
0100
0010
1000
0001
0010
0001
1000
,
0001
0100
0010
1000
0100
0010
0001
1000
,
0010
0100
0020
0030
4000
0100
0000
0001
,
0000
0001
0000
0100
0000
0001
0000
0010
,
0000
0010
0000
0001
3MM0
0000
0MM0
0000
,
0MM0
0MM0
0MM0
0MM0
,
0MM0
0000
0000
0000
0MM0
0000
0000
0000
0000
2222
0000
0000
0000
0000
0000
0000
,
0000
0000
0000
0000
,
3333
0000
0000
0000
;
