#TITLE:Momiji;
#SUBTITLE:Kitto, Sumiwataru Asairoyorimo OP theme;
#ARTIST:WHITE-LIPS;
#TITLETRANSLIT:;
#SUBTITLETRANSLIT:;
#ARTISTTRANSLIT:;
#CREDIT:ALICE_;
#BANNER:Momiji.png;
#BACKGROUND:Momiji.jpg;
#LYRICSPATH:;
#CDTITLE:cdtitle.png;
#MUSIC:Momiji.mp3;
#OFFSET:2.370;
#SAMPLESTART:0.200;
#SAMPLELENGTH:12.000;
#SELECTABLE:YES;
#BPMS:0.000=130.000,128.000=260.000,130.000=130.000;
#STOPS:;
#BGCHANGES:3.438=Momiji.avi=1.000=1=0=1,
99999=-nosongbg-=1.000=0=0=0 // don't automatically add -songbackground-
;
// cache tags:
#FIRSTBEAT:6.000;
#LASTBEAT:184.000;
#SONGFILENAME:Songs/alice 4th complete step/Momiji/Momiji.sm;
#HASMUSIC:1;
#HASBANNER:1;
#MUSICLENGTH:82.742;
// end cache tags

//---------------dance-single - ----------------
#NOTES:
     dance-single:
     :
     Hard:
     6:
     0.399,0.442,0.073,0.157,0.000,212.000,6.000,13.000,0.000,0.000:
0000
0000
0000
0000
,
0000
0000
0000
0000
1000
0001
0100
0010
,
1000
0000
0001
0002
0000
0000
0003
0000
,
0001
1000
0010
0100
0001
0000
0010
0020
,
0000
0000
0030
0000
0100
0010
0100
1000
,
0010
0000
0100
0001
0010
0001
0100
0000
,
0010
1000
0001
0010
0200
0000
0000
0000
,
0000
0300
0000
0000
,
0101
0000
0001
0010
0000
0001
0100
0000
,
0010
1000
0000
0100
1000
0000
0010
0100
,
0000
0001
1000
0000
0100
0010
0000
0001
,
0100
0000
1000
0100
0000
0001
0010
0000
,
1000
0100
0000
0001
1000
0000
0010
0100
,
0000
0001
0010
0000
1000
0001
0000
1000
,
0020
0000
0000
0230
0000
0300
0000
0000
,
0001
1000
0000
0001
0020
0000
0000
0230
,
0000
0300
0000
0000
1000
0010
0100
0001
,
0010
0000
0100
1000
0001
0100
0010
0000
,
0000
1001
0000
0000
0200
0000
1300
0010
,
0100
0001
1000
0000
0000
0000
0000
0000
,
0001
0000
0001
0000
0001
0010
0002
0000
,
0100
0103
0010
1000
,
0100
0010
0001
0000
0100
0000
0010
0000
,
1000
0000
1000
0000
1000
0100
2000
0000
,
0010
3010
0100
0001
,
0010
0100
1000
0000
0010
0000
0100
0000
,
1001
0000
0001
0000
0100
0001
1000
0000
,
0100
0000
0010
0000
0100
1000
0001
0100
,
0001
1000
0100
0000
0000
0010
0000
0000
,
0001
1000
0001
1000
0000
0010
0100
0010
,
1000
0100
0001
0100
2000
0000
0000
0000
,
0000
3000
0020
0000
0000
0000
0000
0000
,
0030
0000
0000
0000
,
1001
0000
0001
0010
0000
0100
1000
0000
,
0010
1000
0000
0001
0100
0000
1000
0100
,
0001
0010
0100
1000
0100
0010
0001
0100
,
0010
0000
1000
0100
0000
0001
0100
0000
,
1000
0010
0000
0001
0010
0000
0001
1000
,
0100
0010
1000
0001
1000
0100
0001
0100
,
0010
0000
0000
1010
0000
1000
0100
0000
,
0000
0011
0000
0001
0100
0000
0010
1000
,
0001
0010
1000
0000
0010
0001
0000
0100
,
0010
0000
1000
0100
0010
0100
1000
0001
,
0010
0001
0100
0010
1000
0001
0100
1000
,
0001
0010
0200
0000
0000
0000
0000
0000
,
0000
0000
0000
0300
;

//---------------dance-single - ----------------
#NOTES:
     dance-single:
     :
     Challenge:
     12:
     0.849,0.862,1.000,0.749,0.236,333.000,95.000,62.000,0.000,17.000:
0000
0000
0000
0000
,
0000
0000
0000
0000
0010
0001
0100
0010
,
2010
0000
0001
0102
0000
0100
3113
0000
,
1000
0000
0000
0000
0010
0001
0000
0000
0100
0000
0000
0000
1000
0000
0000
0000
0102
0000
0000
0000
0000
0000
0000
0000
1000
0000
0000
0000
2010
0000
0000
0000
,
0000
0000
0000
0000
0100
0000
0000
0000
3113
0000
0000
0000
0000
0000
0000
0000
1000
0000
0000
0000
0010
0001
0000
0000
0100
0000
0000
0000
1000
0000
0000
0000
,
0110
0000
0000
0000
0000
0000
0000
0000
0010
0000
0000
0000
0001
0000
0000
0000
1010
0000
0000
0000
0100
0000
0000
0000
0001
0010
0000
0000
0000
0000
0000
0000
,
0100
0001
1010
1000
0102
0000
1000
0110
,
0010
1003
1001
0000
0000
0000
0000
0001
,
1101
0100
0010
1100
0100
0010
1001
0001
,
0100
1001
0001
1010
0101
0100
0010
0101
,
0100
0010
1001
1000
0100
1001
1000
0110
,
1010
1000
0010
0101
0001
0010
1001
1000
,
0100
1001
1000
0110
1100
1000
0001
1100
,
1000
0010
0101
1000
0120
1032
0010
0203
,
1320
0130
1001
2001
0100
0010
3001
0010
,
0210
2301
0010
3200
0321
0130
1001
0102
,
0010
0000
1003
0000
0100
0000
0010
0000
0001
0000
0200
0300
0020
0030
1002
0003
,
2010
0000
3100
0012
1000
0013
2002
0000
,
3003
2020
0000
3030
2100
0010
0001
0001
,
3010
0101
1100
0000
0000
0000
0000
0000
,
0001
0001
0010
0001
1000
0001
0100
0000
,
1000
0001
1000
0010
1200
0000
0010
0001
,
1000
0301
2010
0001
0100
0001
3010
1000
,
0102
0000
0000
0010
0000
0000
1000
0000
0000
0010
0000
0000
0103
0000
0000
1000
0010
0001
0200
0000
0000
0000
0000
0000
,
0010
0000
0000
0301
0000
0000
1000
0000
0000
0001
0010
1000
0200
0000
0000
0010
0000
0000
1000
0000
0000
0301
0000
0000
,
0010
0100
1000
0010
0001
1010
0100
0001
,
2012
0100
0010
0000
0103
3010
0001
0110
,
2000
3000
0020
0030
0002
0003
0020
0030
2000
3000
0200
0300
0020
0030
0002
0003
,
0200
0300
0020
0030
2002
0000
0000
0000
0000
3003
2020
0000
0000
0000
0000
3030
,
0202
0300
2000
3000
0200
0300
0020
0000
0000
0000
0030
0003
2000
3000
0200
0300
,
0002
0003
2000
3000
0020
0030
0002
0003
1100
0000
0010
0000
1000
0000
0100
0000
,
0001
0010
2002
0000
0000
0000
0000
0000
,
3003
0000
0000
0000
,
1100
0000
0001
0010
0000
0000
0100
0000
0000
1001
0000
0000
0100
0000
0000
0010
0000
0000
0101
1000
0000
0010
0000
0000
,
0100
0000
0000
1001
0000
0000
1000
0000
0000
0010
0000
0000
0101
0000
1000
0011
0000
0000
0100
0000
0000
1100
0000
0000
,
0010
0000
0000
0000
1001
0000
0000
0000
0101
0000
0000
0000
1000
0000
0000
0000
0010
0000
0000
0000
1001
0100
0000
0000
0010
0000
0000
0000
0100
0000
0000
0000
,
1010
0001
0000
1100
0000
0000
0010
0000
0000
0100
0000
0000
1001
0000
0000
0010
0000
0000
0101
1000
0000
0011
0000
0000
,
1000
0000
0000
0000
0000
0000
0000
0000
0000
0000
0000
0000
0000
0000
0000
0000
0000
0000
0000
0000
0000
0000
0000
0000
1010
0000
0000
0000
0000
0000
0000
0000
0000
0000
0000
0000
0000
0000
0000
0000
0000
0000
0000
0000
0000
0000
0000
0000
0101
0000
0000
0000
0000
0000
0000
0000
0000
0000
0000
0000
0000
0000
0000
0000
0000
0000
0000
0000
0000
0000
0000
0000
0010
0000
0000
0000
0000
0000
0000
0000
0000
0000
0000
0000
0000
0000
0000
0000
0000
0000
0000
0000
0000
0000
0000
0000
1001
0000
0000
0000
0000
0000
0000
0000
0100
0000
0000
0000
0000
0000
0000
0000
0000
0000
0000
0000
0000
0000
0000
0000
0010
0000
0000
0000
0000
0000
0000
0000
0000
0000
0000
0000
0000
0000
0000
0000
0000
0000
0000
0000
0000
0000
0000
0000
1000
0000
0000
0000
0000
0000
0000
0000
0000
0000
0000
0000
0000
0000
0000
0000
0000
0000
0000
0000
0000
0000
0000
0000
0100
0000
0000
0000
0000
0000
0001
0000
0000
0000
0000
0000
0020
0000
0000
0000
0000
0000
0000
0000
0000
0000
0000
0000
,
0000
0000
0000
0000
0100
0000
0000
0000
0101
0000
0000
0000
0030
0000
0000
0000
1000
0000
0000
0000
0001
0010
0100
1000
0200
0000
0000
0000
0300
0000
0000
0000
,
0110
1000
0001
0000
0000
0000
0000
0000
0100
0000
0000
0000
1010
0000
0000
0000
0001
0000
0000
0000
0100
0000
0000
0000
1001
0100
0010
0000
0000
0000
0000
0000
,
0100
0000
0000
1001
0000
0000
0100
0000
0000
0010
0000
0000
1100
0011
0000
0000
0000
0000
0100
0000
0000
1001
0000
0000
,
0100
0000
0000
0000
0000
0000
0000
0000
0000
0000
0000
0000
0000
0000
0000
0000
0000
0000
0000
0000
0000
0000
0000
0000
0010
0000
0000
0000
0000
0000
0000
0000
0000
0000
0000
0000
0000
0000
0000
0000
0000
0000
0000
0000
0000
0000
0000
0000
0110
0000
0000
0000
0000
0000
0000
0000
0000
0000
0000
0000
0000
0000
0000
0000
1001
0000
0000
0000
0000
0000
0000
0000
0000
0000
0000
0000
0000
0000
0000
0000
0000
0000
0000
0000
0000
0000
0000
0000
0000
0000
0000
0000
0000
0000
0000
0000
1000
0000
0000
0000
0000
0000
0000
0000
0000
0000
0000
0000
0000
0000
0000
0000
0000
0000
0000
0000
0000
0000
0000
0000
0001
0000
0000
0000
0000
0000
0010
0000
0000
0000
0000
0000
0100
0000
0000
0000
0000
0000
1000
0000
0000
0000
0000
0000
0100
0000
0000
0000
0000
0000
0000
0000
0000
0000
0000
0000
0000
0000
0000
0000
0000
0000
0000
0000
0000
0000
0000
0000
0010
0000
0000
0000
0000
0000
0000
0000
0000
0000
0000
0000
0000
0000
0000
0000
0000
0000
0000
0000
0000
0000
0000
0000
,
0101
0000
1000
0010
0000
0000
0001
0000
0000
1100
0000
0000
0010
0000
0000
0100
0000
0000
1010
0001
0000
0100
0000
0000
,
1000
0000
0000
1001
0000
0000
0100
0000
0000
0011
0000
0000
0110
0000
1000
0001
0000
0000
0010
0000
0000
1001
0000
0000
,
1000
0000
0000
0011
0000
0000
0100
0001
0010
1000
0100
0010
0100
0001
0010
0100
1000
0100
0020
0000
0000
0000
0000
0000
,
0000
0000
0000
0000
,
0030
0000
0000
0000
;

//---------------dance-single - Copied from----------------
#NOTES:
     dance-single:
     Copied from:
     Medium:
     4:
     0.347,0.415,0.121,0.157,0.000,178.000,10.000,13.000,0.000,0.000:
0000
0000
0000
0000
,
0000
0000
0000
0000
,
0101
0000
1000
0001
0000
0100
0100
0000
,
0001
2000
3000
0000
1100
0000
0001
1000
,
0000
0010
0010
0000
1000
0002
0003
0000
,
0110
0000
0010
1000
0100
0000
0010
0000
,
0010
0001
0100
0000
0010
0000
0010
1000
,
0001
0100
0010
0000
0000
0000
0000
0000
,
1001
0000
0000
1000
0000
0000
0001
0000
,
0000
0100
0000
0010
1000
0000
0000
0001
,
0000
0000
1000
0000
0000
0100
0000
0010
,
0001
0000
0000
1000
0000
0000
0001
0000
,
0000
0100
0000
0010
1000
0000
0100
0010
,
0000
0100
1000
0000
0010
0100
0000
0001
,
1000
0000
0100
0100
0000
0000
0000
0000
,
1000
0001
0000
0100
0010
0000
1000
1000
,
0000
0000
0001
0000
0000
0001
1000
0100
,
1000
0000
0010
0000
1000
0001
0100
0000
,
1001
0000
0000
0000
0020
0000
0030
0100
,
1000
0001
0100
0000
0000
0000
0000
0000
,
1000
0000
0100
0000
0001
0100
2000
0000
,
0000
0000
0000
3000
0010
0000
0100
0001
,
0100
0001
0010
0000
0100
0000
0010
0000
,
0001
0000
1000
0000
0001
1000
0200
0000
,
0000
0000
0000
0000
,
0300
0000
0000
0000
,
0011
0000
1000
0000
0001
0100
0010
0000
,
1000
0100
1000
0010
0100
0001
1000
0100
,
1000
0100
0010
0000
0000
0001
0000
0000
,
0100
0010
1000
0002
0000
0000
0000
0000
,
0000
0003
1000
0010
0020
0000
0000
0000
,
0000
0230
0000
0000
,
0300
0000
0000
0000
,
1000
0100
1000
0010
0000
0000
0001
0100
,
0001
0010
0000
0000
1000
0100
1000
0010
,
0000
0000
0001
0010
0100
1000
0000
0000
,
0001
0010
0001
0100
0000
0000
1000
0010
,
1000
0100
0000
0000
0001
0010
0001
0100
,
0000
0000
1000
0010
0100
0001
0000
0000
,
2100
3000
0010
0100
0000
0000
0102
0003
,
0010
0100
0000
0000
2001
3000
0100
0010
,
0000
0000
1002
0003
0010
0100
0000
1000
,
0010
0000
0100
0001
0000
1000
0100
0000
,
1000
0010
0000
0100
0001
0010
0001
0100
,
0010
1000
0200
0000
0000
0000
0000
0000
,
0000
0000
0000
0300
;

//---------------dance-single - ----------------
#NOTES:
     dance-single:
     :
     Easy:
     1:
     0.121,0.164,0.109,0.097,0.000,53.000,9.000,8.000,0.000,0.000:
0000
0000
0000
0000
,
0000
0000
0000
0000
,
1000
0000
0000
0000
,
0000
0000
0001
0000
,
0000
0000
0000
0000
,
0100
0000
0000
0100
,
0000
0000
0020
0000
,
0000
0030
0000
0000
,
1000
0000
0000
1000
,
0000
0000
0001
0000
,
0000
0001
0000
0000
,
0010
0000
0000
0010
,
0000
0000
0100
0000
,
0000
0100
0000
0000
,
1000
0000
0000
0100
,
0000
0000
0001
0000
,
0000
0100
0000
0000
,
0010
0000
0000
0100
,
0000
0000
0001
0000
,
0000
1000
0000
0000
,
0100
0000
0000
0100
,
0000
0000
1000
0000
,
0000
1000
0000
0000
,
0001
0000
0000
0001
,
0000
0000
0020
0000
,
0000
0030
0000
0000
,
2002
0000
0000
3003
,
0000
0000
0000
0000
1000
0000
0000
0100
,
0000
0010
0000
0000
,
0001
0000
0000
1000
,
0000
0000
0020
0000
,
0000
0030
0200
0000
0000
0000
0000
0000
,
0300
0000
0000
0000
,
1100
0000
0000
0001
,
0000
0000
0101
0000
,
0000
1000
0000
0000
,
0110
0000
0000
1000
,
0000
0000
0101
0000
,
0000
0020
0000
0030
,
1001
0000
0000
0110
,
0000
0000
1100
0000
,
0000
0000
0011
0000
0000
1000
0000
0000
,
0001
0000
0000
0100
,
0000
0000
1000
0000
,
0000
0020
0000
0000
,
0000
0030
0000
0000
0000
0000
0000
0000
;
