#TITLE:~300~;
#SUBTITLE:Gotta move faster;
#ARTIST:Detach M-Style;
#TITLETRANSLIT:;
#SUBTITLETRANSLIT:;
#ARTISTTRANSLIT:;
#CREDIT:;
#BANNER:../fallback - bn.png;
#BACKGROUND:../fallback - bg.png;
#LYRICSPATH:;
#CDTITLE:;
#MUSIC:300.ogg;
#OFFSET:-0.023;
#SAMPLESTART:87.040;
#SAMPLELENGTH:14.520;
#SELECTABLE:YES;
#DISPLAYBPM:300.000;
#BPMS:0.000=140.000,48.000=150.000,80.000=160.000,112.000=170.000,144.000=180.000,176.000=190.000,208.000=200.000,240.000=210.000,272.000=220.000,304.000=230.000,320.000=240.000,336.000=250.000,352.000=260.000,368.000=270.000,384.000=280.000,400.000=290.000,416.000=300.000,464.000=35.000;
#STOPS:;
#BGCHANGES:;
// cache tags:
#FIRSTBEAT:16.000;
#LASTBEAT:466.000;
#SONGFILENAME:Songs/Beast Aoreo BEAST!/300 - [Aoreo]/300.sm;
#HASMUSIC:1;
#HASBANNER:1;
#MUSICLENGTH:149.054;
// end cache tags

//---------------dance-single - ----------------
#NOTES:
     dance-single:
     :
     Challenge:
     17:
     1.000,1.000,0.309,1.000,1.000,1146.000,46.000,223.000,0.000,0.000:
0000
0000
0000
0000
,
0000
0000
0000
0000
,
0000
0000
0000
0000
,
0000
0000
0000
0000
,
1001
0101
0110
1010
,
1100
0000
0000
0000
1001
0000
0000
0000
0101
0000
0000
0000
1001
0000
1000
0100
,
0010
0011
0101
0110
,
1010
0000
0000
0000
1001
0000
0000
0000
0101
0000
0000
0000
0100
0010
1000
0100
,
1000
0000
0000
0000
1001
0000
0000
0000
0101
0000
0000
0000
0100
0001
1000
0100
,
1000
0000
0000
0000
0000
0000
0000
0000
1010
0000
0000
0000
0000
0000
0000
0000
0110
0000
0000
0000
0000
0000
0000
0000
0100
0001
0100
0001
0100
0000
0000
0000
,
0101
0000
0000
0000
0000
0000
0000
0000
0001
1000
0001
1000
0001
0000
0000
0000
1001
0000
0000
0000
0000
0000
0000
0000
1000
0100
1000
0100
1000
0000
0000
0000
,
0100
0000
1000
0000
0010
0000
0100
0000
0001
0000
0100
0000
0010
0000
1000
0000
0100
0000
1000
0000
0001
0100
0001
0100
0001
0000
0000
0000
0000
0000
0000
0000
,
0100
0001
1000
0000
1100
0000
0100
1000
0010
0100
0001
0000
0101
0000
0100
0010
,
1000
0100
1000
0000
1100
0000
0100
0010
0001
0010
0100
0000
1100
0000
1010
0000
,
0010
0100
0001
0000
0101
0000
0100
0010
1000
0100
1000
0000
1100
0000
0100
0010
,
0001
0100
0010
0000
0110
0000
0100
0000
0101
0000
0000
0001
1000
0000
0100
0000
,
1000
0100
0010
0000
0011
0000
0000
0000
0001
0100
0010
0000
1010
0000
1010
0000
,
1000
0100
0010
0000
0011
0000
0000
0000
0001
0100
0010
0000
0110
0000
0110
0000
,
0100
0001
1000
0000
1100
0000
0000
0000
0100
0010
0001
0000
0011
0000
0010
0000
,
0100
1000
0010
0000
0110
0000
0000
0000
0100
0001
1000
0100
1000
0000
0010
0000
,
0200
0010
1000
0001
,
1000
0000
0010
0000
0001
0000
0010
0010
,
0320
0001
1000
0001
,
0100
0000
0000
0000
1000
0000
0000
0000
1030
0000
0000
0010
0100
0000
0001
0000
,
0100
0000
0001
1000
0000
1000
0010
0000
0100
0000
0001
1000
0000
1000
0010
0000
,
0110
0000
0100
0001
0000
0001
0010
0000
0100
1000
0000
1000
0010
0000
0100
0000
,
0001
0000
1000
0001
0000
0010
0100
0000
1000
0000
0010
0100
0000
0100
0001
0000
,
0010
0100
0000
0100
1000
0000
0010
0000
0100
0000
0001
1000
0010
0000
0100
0000
,
0001
0100
0001
0000
0100
0010
0100
0000
0010
1000
0010
0000
1000
0100
0010
0000
,
0100
1000
0001
0000
0100
0001
0100
0000
0010
1000
0100
0000
1100
0000
1001
0000
,
0001
0100
0010
0000
0100
0010
1000
0000
0100
1000
0001
0000
0100
0001
0100
0000
,
0001
0000
0010
0000
0100
0000
0000
0000
1000
0000
0010
0000
0100
0000
0001
0100
0001
0000
1000
0000
0010
0000
0100
0000
0001
0000
0000
0000
0101
0000
0000
0000
,
0100
0001
1000
0000
0100
1000
0010
0000
0100
0001
0010
0000
0100
1000
0100
0000
,
1000
0001
1000
0000
0001
0100
0010
0000
0100
0010
1000
0000
1100
0000
1001
0000
,
0001
0100
0010
0000
0100
0001
0010
0000
0100
1000
0010
0000
1000
0001
1000
0000
,
0001
0100
0010
0000
0100
0001
1000
0000
1100
0000
0000
1000
0010
0000
0100
0000
,
0101
0001
1000
0100
,
1000
0000
0000
0000
0010
0100
0001
1000
0100
0010
0001
0010
0100
1000
0100
1000
,
0010
0100
0001
0010
0100
1000
0100
0010
0100
1000
0010
0100
0001
0010
0100
0010
,
0001
0100
0001
1000
0100
1000
0001
0100
0010
0100
0001
1000
0100
0010
0001
0100
,
0010
1000
0100
0010
0001
0100
0010
1000
0100
1000
0001
0100
0010
0100
0001
0010
,
0100
1000
0100
1000
0001
0100
0010
1000
0001
0100
0001
1000
0100
0010
0001
1000
,
0100
0010
0001
0010
0100
1000
0010
0100
0001
0010
0001
0100
0010
1000
0100
1000
,
0001
0100
0001
0010
0100
1000
0010
0100
0001
0010
0100
1000
0010
0100
0001
1000
,
0010
0100
0001
0000
0100
0000
0001
0000
,
1000
0001
1000
0001
1000
0001
1000
0001
1000
0001
1000
0001
1000
0001
1000
0001
,
1000
0000
0001
1000
0000
1000
0010
0000
0100
0000
0001
0010
0000
0100
1000
0000
,
0100
0000
0010
0001
0000
0001
0100
0000
0010
0000
1000
0010
0000
0100
0001
0000
,
1000
0100
0010
0001
0100
0010
1000
0001
,
1000
0001
0100
0010
0100
0100
0001
0001
,
1000
0000
0010
0000
0100
0001
1000
0000
0100
0000
1000
0000
0010
0000
0100
0000
,
0001
0000
0010
0000
0100
0000
1000
0000
0001
1000
0010
0000
1000
0001
0100
0000
,
0010
0100
0001
1000
,
0100
0000
1000
0000
0001
0000
0100
0100
,
0100
0010
1000
0001
,
1000
0000
0000
0001
1000
0001
1000
0001
1000
0001
1000
0001
1000
0000
0000
0001
0000
0000
1000
0000
0000
0001
0000
0000
,
0100
0001
0010
0100
1000
0100
1000
0010
,
0100
0001
0010
0100
1000
0010
0100
0001
,
1000
0100
0010
0100
1000
0010
0100
0001
,
0100
0000
0010
0000
1000
0000
0001
0000
0100
0000
0010
0100
0010
0000
1000
0000
,
0001
1000
0100
0010
0001
1000
0100
0010
0001
0100
0010
1000
0001
0100
0010
0100
,
0001
1000
0100
1000
0001
1000
0010
0100
0001
0010
0100
1000
0010
0100
0001
1000
,
0100
0010
0001
1000
0100
0010
0001
0100
0010
0100
0001
1000
0100
0010
0100
1000
,
0010
0100
0001
0010
0100
1000
0001
0010
0100
1000
0001
0100
0001
1000
0100
1000
,
0001
1000
0100
0010
0001
0100
0010
1000
,
0100
0010
0001
0100
0001
1000
0100
1000
,
0010
0100
0001
0010
0100
1000
0001
0100
,
0010
0000
1000
0000
0100
0000
1000
0000
0001
0000
0100
0010
0100
0000
0001
0000
,
2000
0000
3000
0002
0000
0003
0020
0000
0230
0000
0300
2000
0000
3000
0020
0000
,
2030
0000
3000
0002
0000
0003
0200
0000
0320
0000
0030
0200
0000
0300
0002
0000
,
2003
0000
3000
0200
0000
0300
2000
0000
3020
0000
0030
0200
0000
0300
0002
0000
,
0023
0000
0000
0000
0000
0000
0000
0000
0030
0000
0000
0000
0200
0000
0000
0000
0000
0000
0000
0000
0300
0000
0000
0000
2000
0000
0000
0000
0000
0000
0000
0000
3002
0000
0000
0000
0000
0000
0000
0000
0203
0300
0000
0000
0020
0030
0000
0000
0200
0300
0000
0000
0000
0000
0000
0000
0002
0003
0000
0000
0000
0000
0000
0000
,
2000
0000
3000
0200
0000
0300
2000
0000
3020
0000
0030
0200
0000
0300
0002
0000
,
0023
0000
0030
0200
0000
0300
2000
0000
3020
0000
0030
0200
0000
0300
0002
0000
,
2003
0000
3000
0020
0000
0030
0200
0000
0302
0000
0003
0020
0000
0030
0200
0000
,
2300
0000
0000
0000
0000
0000
0000
0000
3000
0000
0000
0000
0002
0000
0000
0000
0000
0000
0000
0000
0003
0000
0000
0000
0200
0000
0000
0000
0000
0000
0000
0000
0320
0000
0000
0000
0000
0000
0000
0000
2030
3000
0000
0000
0020
0030
0000
0000
2000
3000
0000
0000
0000
0000
0000
0000
0020
0030
0000
0000
0000
0000
0000
0000
,
0200
0300
0000
0000
0001
0000
0000
0000
0100
0000
0000
0000
0010
0000
0000
0000
1000
0000
0000
0000
0001
0000
0000
0000
0100
0000
0000
0000
0010
0000
0000
0000
1000
0000
0000
0000
0100
0000
0000
0000
0010
0000
0000
0000
0001
0000
0000
0000
0010
0000
0000
0000
0001
0000
0000
0000
0100
0000
0000
0000
0001
0000
0000
0000
,
0100
0010
0100
0010
1000
0100
1000
0100
1000
0001
1000
0001
0100
0001
0100
0001
,
1000
0100
0010
0001
1000
0100
0010
0001
0100
0001
0100
0010
1000
0001
0100
0010
,
1000
0001
0100
0010
1000
0100
0010
0001
0100
0010
1000
0100
1000
0001
0100
0010
,
0200
0000
0300
0002
0000
0003
0020
0000
0230
0000
0300
2000
0000
3000
0020
0000
,
2030
0000
3000
0002
0000
0003
0200
0000
0320
0000
0030
0200
0000
0300
0002
0000
,
2003
0000
3000
0200
0000
0300
2000
0000
3020
0000
0030
0200
0000
0300
0002
0000
,
0023
0000
0000
0000
0000
0000
0000
0000
0030
0000
0000
0000
0200
0000
0000
0000
0000
0000
0000
0000
0300
0000
0000
0000
2000
0000
0000
0000
0000
0000
0000
0000
3002
0000
0000
0000
0000
0000
0000
0000
0203
0300
0000
0000
0020
0030
0000
0000
0200
0300
0000
0000
0000
0000
0000
0000
0002
0003
0000
0000
0000
0000
0000
0000
,
1000
0001
1000
0001
1000
0001
1000
0100
0010
0001
1000
0100
0010
0001
0100
0001
,
0100
0001
0100
0001
1000
0100
1000
0001
0010
0100
1000
0001
0010
0100
1000
0010
,
0100
0001
1000
0010
0100
0001
0100
0010
1000
0100
0010
0001
0100
0010
1000
0001
,
0100
0010
0100
0001
0010
0100
1000
0100
1000
0010
0100
0001
0100
0001
1000
0100
,
2000
0000
3000
0002
0000
0003
0200
0000
0320
0000
0030
0200
0000
0300
0002
0000
,
2003
0000
3000
0200
0000
0300
2000
0000
3020
0000
0030
0200
0000
0300
0002
0000
,
0023
0000
0030
0200
0000
0300
2000
0000
3002
0000
0003
0200
0000
0300
0020
0000
,
2030
0000
0000
0000
0000
0000
0000
0000
3000
0000
0000
0000
0002
0000
0000
0000
0000
0000
0000
0000
0003
0000
0000
0000
0200
0000
0000
0000
0000
0000
0000
0000
0302
0000
0000
0000
0000
0000
0000
0000
2003
3000
0000
0000
0200
0300
0000
0000
2000
0000
3000
0000
0000
0000
0000
0000
0002
0000
0003
0000
0000
0000
0000
0000
,
0200
0000
0300
0000
0002
0003
0000
0000
0200
0300
0000
0000
0002
0003
0000
0000
0200
0300
0000
0000
0002
0003
0000
0000
0200
0300
0000
0000
0002
0003
0000
0000
0200
0300
0000
0000
0002
0003
0000
0000
2000
3000
0000
0000
0002
0003
0000
0000
2000
3000
0000
0000
0002
0003
0000
0000
2000
3000
0000
0000
0002
0003
0000
0000
,
2000
3000
0000
0000
0002
0003
0000
0000
2000
3000
0000
0000
0200
0300
0000
0000
2000
3000
0000
0000
0200
0300
0000
0000
2000
3000
0000
0000
0200
0300
0000
0000
2000
3000
0000
0000
0200
0300
0000
0000
2000
3000
0000
0000
0200
0300
0000
0000
2000
3000
0000
0000
0200
0300
0000
0000
0020
0030
0000
0000
0002
0003
0000
0000
,
2000
3000
0000
0000
0200
0300
0000
0000
0020
0030
0000
0000
0002
0003
0000
0000
2000
3000
0000
0000
0200
0300
0000
0000
0020
0030
0000
0000
0002
0003
0000
0000
0200
0300
0000
0000
0002
0003
0000
0000
2000
3000
0000
0000
0020
0030
0000
0000
0200
0300
0000
0000
0002
0003
0000
0000
2000
3000
0000
0000
0020
0030
0000
0000
,
0200
0300
0000
0000
0002
0003
0000
0000
2000
3000
0000
0000
0200
0300
0000
0000
2000
3000
0000
0000
0200
0300
0000
0000
2000
3000
0000
0000
0200
0300
0000
0000
2000
3000
0000
0000
0002
0003
0000
0000
2000
3000
0000
0000
0002
0003
0000
0000
2000
3000
0000
0000
0002
0003
0000
0000
2000
3000
0000
0000
0002
0003
0000
0000
,
2000
0000
3000
0002
0000
0003
0200
0000
0320
0000
0030
0200
0000
0300
0002
0000
,
2003
0000
3000
0200
0000
0300
2000
0000
3020
0000
0030
0200
0000
0300
0002
0000
,
0023
0000
0030
0200
0000
0300
2000
0000
3002
0000
0003
0200
0000
0300
0020
0000
,
2030
0000
0000
0000
0000
0000
0000
0000
3000
0000
0000
0000
0002
0000
0000
0000
0000
0000
0000
0000
0003
0000
0000
0000
0200
0000
0000
0000
0000
0000
0000
0000
0302
0000
0000
0000
0000
0000
0000
0000
2003
3000
0000
0000
0200
0300
0000
0000
2000
0000
3000
0000
0000
0000
0000
0000
0002
0000
0003
0000
0000
0000
0000
0000
,
2000
3000
0000
0000
0001
0000
0000
0000
1000
0000
0000
0000
0000
0000
0000
0000
0001
0000
0000
0000
0100
0000
0000
0000
0001
0000
0000
0000
0000
0000
0000
0000
0100
0000
0000
0000
0001
0000
0000
0000
0100
0000
0000
0000
0000
0000
0000
0000
0001
0000
0000
0000
1000
0000
0000
0000
0001
0000
0000
0000
0000
0000
0000
0000
,
1000
0100
1000
0000
0010
1000
0010
0000
0100
0001
0100
0000
0001
1000
0001
0000
,
1000
0100
0010
0000
0001
0100
0010
0000
0100
0010
0100
0000
0010
1000
0010
0000
,
1000
0001
1000
0000
0001
1000
0001
0000
1000
0001
1000
0001
1000
0001
1000
0001
,
2000
0000
3000
0002
0000
0003
0200
0000
0320
0000
0030
0200
0000
0300
0002
0000
,
2003
0000
3000
0200
0000
0300
2000
0000
3020
0000
0030
0200
0000
0300
0002
0000
,
0023
0000
0030
0200
0000
0300
2000
0000
3002
0000
0003
0200
0000
0300
0020
0000
,
2030
0000
0000
0000
0000
0000
0000
0000
3000
0000
0000
0000
0002
0000
0000
0000
0000
0000
0000
0000
0003
0000
0000
0000
0200
0000
0000
0000
0000
0000
0000
0000
0302
0000
0000
0000
0000
0000
0000
0000
2003
3000
0000
0000
0001
0000
0000
0000
2000
0000
3000
0000
0001
0000
0000
0000
1000
0000
0000
0000
0001
0000
0000
0000
,
1000
0000
0000
0000
0000
0100
0000
0000
0000
0000
0010
0000
0000
0000
0000
0001
0000
0000
0000
0000
1000
0000
0000
0000
0000
0100
0000
0000
0000
0000
0010
0000
0000
0000
0000
0001
0000
0000
0000
0000
1000
0000
0000
0000
0000
0100
0000
0000
0000
0000
1000
0000
0000
0000
0000
0100
0000
0000
0000
0000
0010
0000
0000
0000
,
0000
0001
0000
0000
0000
0000
1000
0000
0000
0000
0000
0001
0000
0000
0000
0000
1000
0000
0000
0000
0000
0001
0000
0000
0000
0000
1000
0000
0000
0000
0000
0001
0000
0000
0000
0000
1000
0000
0000
0000
0000
0001
0000
0000
0000
0000
1000
0000
0000
0000
0000
0001
0000
0000
0000
0000
1000
0000
0000
0000
0000
0100
0000
0000
,
0000
0000
0010
0000
0000
0000
0000
0001
0000
0000
0000
0000
0100
0000
0000
0000
0000
0001
0000
0000
0000
0000
0100
0000
0000
0000
0000
0001
0000
0000
0000
0000
0100
0000
0000
0000
0000
0001
0000
0000
0000
0000
0100
0000
0000
0000
0000
0001
0000
0000
0000
0000
0010
0000
0000
0000
0000
0100
0000
0000
0000
0000
1000
0000
,
0000
0000
0000
0001
0000
0000
0000
0000
1000
0000
0000
0000
0000
0001
0000
0000
0000
0000
1000
0000
0000
0000
0000
0001
0000
0000
0000
0000
1000
0000
0000
0000
0000
0001
0000
0000
0000
0000
1000
0000
0000
0000
0000
0001
0000
0000
0000
0000
1000
0000
0000
0000
0000
0001
0000
0000
0000
0000
1000
0000
0000
0000
0000
0100
,
0000
0000
0000
0000
1000
0000
0000
0000
0000
0100
0000
0000
0000
0000
1000
0000
0000
0000
0000
0100
0000
0000
0000
0000
1000
0000
0000
0000
0000
0100
0000
0000
0000
0000
1000
0000
0000
0000
0000
0100
0000
0000
0000
0000
1000
0000
0000
0000
0000
0100
0000
0000
0000
0000
0010
0000
0000
0000
0000
0001
0000
0000
0000
0000
,
0100
0000
0000
0000
0000
0001
0000
0000
0000
0000
0100
0000
0000
0000
0000
0001
0000
0000
0000
0000
0100
0000
0000
0000
0000
0001
0000
0000
0000
0000
0100
0000
0000
0000
0000
0001
0000
0000
0000
0000
0100
0000
0000
0000
0000
0001
0000
0000
0000
0000
0100
0000
0000
0000
0000
0001
0000
0000
0000
0000
0100
0000
0000
0000
,
0000
0001
0000
0000
0000
0000
1000
0000
0000
0000
0000
0001
0000
0000
0000
0000
1000
0000
0000
0000
0000
0001
0000
0000
0000
0000
1000
0000
0000
0000
0000
0001
0000
0000
0000
0000
1000
0000
0000
0000
0000
0001
0000
0000
0000
0000
1000
0000
0000
0000
0000
0001
0000
0000
0000
0000
1000
0000
0000
0000
0000
0001
0000
0000
,
0000
0000
1000
0000
0000
0000
0000
0100
0000
0000
0000
0000
0010
0000
0000
0000
0000
0001
0000
0000
0000
0000
1000
0000
0000
0000
0000
0100
0000
0000
0000
0000
0010
0000
0000
0000
0000
0001
0000
0000
0000
0000
1000
0000
0000
0000
0000
0100
0000
0000
0000
0000
0010
0000
0000
0000
0000
0001
0000
0000
0000
0000
0000
0000
,
2000
0000
3000
0000
;
