#TITLE:Not Gonna Get Us;
#SUBTITLE:;
#ARTIST:Rot'N'Creep;
#TITLETRANSLIT:;
#SUBTITLETRANSLIT:;
#ARTISTTRANSLIT:;
#CREDIT:;
#BANNER:not gonna get us bn.png;
#BACKGROUND:not gonna get us bg.png;
#LYRICSPATH:;
#CDTITLE:;
#MUSIC:Not Gonna Get Us.ogg;
#OFFSET:-0.019;
#SAMPLESTART:91.020;
#SAMPLELENGTH:12.000;
#SELECTABLE:YES;
#DISPLAYBPM:200.000;
#BPMS:0.000=160.000,136.000=163.000,144.000=166.000,152.000=169.000,154.000=175.000,156.000=180.000,232.000=183.000,240.000=186.000,244.000=187.000,248.000=192.000,250.000=194.000,252.000=196.000,254.000=198.000,256.000=200.000;
#STOPS:;
#BGCHANGES:;
// cache tags:
#FIRSTBEAT:32.000;
#LASTBEAT:388.000;
#SONGFILENAME:Songs/SPEEEDCOOOORE 4/Not Gonna Get Us - [Aoreo]/Not Gonna Get Us.sm;
#HASMUSIC:1;
#HASBANNER:1;
#MUSICLENGTH:132.000;
// end cache tags

//---------------dance-single - J. Nero----------------
#NOTES:
     dance-single:
     J. Nero:
     Challenge:
     15:
     1.000,1.000,0.197,0.045,1.000,984.000,26.000,6.000,48.000,0.000:
0000
0000
0000
0000
,
0000
0000
0000
0000
,
0000
0000
0000
0000
,
0000
0000
0000
0000
,
0000
0000
0000
0000
,
0000
0000
0000
0000
,
0000
0000
0000
0000
,
0000
0000
0000
0000
,
1000
0000
1000
0001
0100
0001
0010
0100
,
1000
0001
0100
0001
0010
0100
0000
0000
,
0000
0000
0000
0000
,
0000
0000
0000
0000
,
1000
0000
1000
0001
0100
0001
0010
0100
,
1000
0001
0100
0001
0010
0100
1000
0001
,
0100
0000
0000
0000
0100
0000
0001
0000
1000
0000
0002
0000
0000
0000
0000
0M00
,
00M0
0M00
00M0
0M00
00M0
0M00
00M0
0M00
00M0
0M00
00M0
0M00
00M3
0M00
00M0
0M00
,
1000
0000
0000
0001
0000
0000
1000
0000
0000
0100
0000
0000
0010
0000
0000
0001
0000
0000
1000
0000
0000
0010
0000
0000
0100
0000
0000
0000
0000
0000
0100
0000
0000
0001
0000
0000
0010
0000
0000
0100
0000
0000
1000
0000
0001
0000
1000
0000
,
0010
0100
0001
1000
0001
0010
0100
1000
0010
0100
0010
0100
0004
0000
0000
0000
,
0013
0000
0000
0100
0000
0000
1000
0000
0000
0001
0000
0000
1000
0000
0000
0010
0000
0000
0100
0000
0000
0001
0000
0000
1000
0000
0000
0100
0000
0000
0010
0000
0000
0001
0000
0000
1000
0000
0001
0000
1000
0000
0100
0000
0010
0000
0001
0000
,
1000
0000
0000
0010
0000
0000
1000
0000
0000
0001
0000
0000
0010
0000
0000
0100
0000
0000
1000
0000
0000
0001
0000
0000
0100
0000
0000
0000
0000
0000
0100
0000
0000
0001
0000
0000
1000
0000
0001
0000
1000
0000
0100
0000
0010
0000
0001
0000
,
1000
0000
0000
0100
0000
0000
1000
0000
0000
0001
0000
0000
0100
0000
0000
0001
0000
0000
1000
0000
0000
0100
0000
0000
0010
0000
0000
0000
0000
0000
0010
0000
0000
0001
0000
0000
1000
0000
0001
0000
1000
0000
0010
0000
0100
0000
0010
0000
,
1000
0000
0000
0001
0000
0000
0100
0000
0000
0001
0000
0000
0010
0000
0000
0100
0000
0000
1000
0000
0000
0001
0000
0000
0100
0000
0000
0010
0000
0000
0100
0000
0000
0010
0000
0000
1000
0000
0001
0000
1000
0000
0100
0000
0010
0000
0001
0000
,
1000
0000
0000
0001
0000
0000
0100
0000
0000
0010
0000
0000
0100
0000
0000
0001
0000
0000
0010
0000
0000
0100
0000
0000
1000
0000
0000
0001
0000
0000
1000
0000
0000
0010
0000
0000
1000
0000
0001
0000
1000
0000
0100
0000
0010
0000
0001
0000
,
1000
0010
1000
0100
0010
0001
1000
0001
0100
0000
0100
0001
0040
0000
0000
0000
,
0130
0000
1000
0000
0001
0000
0100
0000
0010
0000
1000
0000
0001
0100
0001
0100
,
0010
0000
0000
0000
0000
0000
1000
0000
0100
0000
1000
0000
0001
0000
0000
0000
0000
0000
1000
0000
0001
0000
1000
0000
0100
0000
0000
0010
0000
0000
0100
0000
0000
1000
0000
0000
0001
0000
1000
0000
0001
0000
0100
0000
0010
0000
0100
0000
,
0001
0000
0000
1000
0000
0000
0001
0000
0000
0010
0000
0000
0100
0000
0000
0010
0000
0000
0001
0000
0000
1000
0000
0000
0010
0000
0000
1000
0000
0000
0100
0000
0000
0010
0000
0000
0001
0000
0000
1000
0000
0000
0010
0000
1000
0000
0100
0000
,
0010
0001
1000
0001
0100
0010
0100
0001
0010
0100
1000
0010
0400
0000
0000
0000
,
0301
0000
1000
0000
0001
0000
0010
0000
0100
0000
1000
0000
0001
1000
0001
1000
,
0100
0000
0000
0000
0000
0000
0010
0000
0001
0000
1000
0000
0001
0000
0000
0000
0000
0000
1000
0000
0100
0000
1000
0000
0001
0000
0000
0100
0000
0000
0001
0000
0000
1000
0000
0000
0010
0000
1000
0000
0001
0000
1000
0000
0100
0000
0010
0000
,
0001
0000
0000
1000
0000
0000
0001
0000
0000
0100
0000
0000
0010
0000
0000
0100
0000
0000
0001
0000
0000
1000
0000
0000
0100
0000
0000
0010
0000
0000
0100
0000
0000
1000
0000
0000
0001
0000
0000
0100
0000
0000
0001
0000
1000
0000
0100
0000
,
1000
0001
0010
0100
1000
0001
0100
0001
0010
0100
0010
0100
4000
0000
0000
0000
,
3002
0000
1003
0100
0000
1000
0000
0001
,
0100
0001
0010
0100
0000
1000
0000
0010
,
1000
0000
0100
1000
0000
0001
0000
0010
,
0001
1000
0001
0010
0000
0100
0000
0000
,
1000
0000
0010
1000
0000
0001
0000
1000
,
0100
0010
0001
0100
0000
0010
0000
1000
,
0100
0000
0100
1000
0001
2000
0000
0000
,
00M0
0M00
00M0
0M00
00M0
0M00
00M0
0M00
00M0
0M00
00M0
0M00
00M0
0M00
30M0
0000
,
0001
0000
0000
1000
0000
0000
0100
0000
0000
0010
0000
0000
0001
0000
0000
0100
0000
0000
0001
0000
0000
1000
0000
0000
0010
0000
0000
0000
0000
0000
0010
0000
0000
1000
0000
0000
0100
0000
0000
0010
0000
0000
0001
0000
1000
0000
0001
0000
,
0100
0010
1000
0001
1000
0100
0010
0001
0100
0010
0100
0010
4000
0000
0000
0000
,
3001
0000
0000
0100
0000
0000
0001
0000
0000
1000
0000
0000
0100
0000
0000
0010
0000
0000
0100
0000
0000
1000
0000
0000
0001
0000
0000
0100
0000
0000
0001
0000
0000
1000
0000
0000
0001
0000
1000
0000
0001
0000
0010
0000
0100
0000
1000
0000
,
0001
0000
0000
1000
0000
0000
0100
0000
0000
0010
0000
0000
0001
0000
0000
1000
0000
0000
0010
0000
0000
1000
0000
0000
0100
0000
0000
0000
0000
0000
0100
0000
0000
0010
0000
0000
0001
0000
1000
0000
0010
0000
1000
0000
0001
0000
0100
0000
,
0001
0000
0000
0010
0000
0000
0001
0000
0000
1000
0000
0000
0010
0000
0000
1000
0000
0000
0001
0000
0000
0010
0000
0000
0100
0000
0000
0000
0000
0000
0100
0000
0000
1000
0000
0000
0001
0000
1000
0000
0001
0000
0100
0000
0010
0000
0100
0000
,
0001
0000
0000
1000
0000
0000
0010
0000
0000
1000
0000
0000
0100
0000
0000
0010
0000
0000
0001
0000
0000
1000
0000
0000
0010
0000
0000
0100
0000
0000
0010
0000
0000
0100
0000
0000
0001
0000
1000
0000
0001
0000
0010
0000
0100
0000
1000
0000
,
0001
0000
0000
1000
0000
0000
0010
0000
0000
0100
0000
0000
0010
0000
0000
1000
0000
0000
0100
0000
0000
0010
0000
0000
0001
0000
0000
1000
0000
0000
0001
0000
0000
0100
0000
0000
0001
0000
1000
0000
0001
0000
0010
0000
0100
0000
1000
0000
,
0001
0100
0001
0010
0100
1000
0001
1000
0010
0000
0010
1000
0400
0000
0000
0000
,
0310
0000
0001
0000
1000
0000
0010
0000
0100
0000
0001
0000
1000
0010
1000
0010
,
0100
0000
0000
0000
0000
0000
0001
0000
0100
0000
0001
0000
1000
0000
0000
0000
0000
0000
0001
0000
1000
0000
0001
0000
0100
0000
0000
0010
0000
0000
1000
0000
0000
0100
0000
0000
0010
0000
0001
0000
1000
0000
0001
0000
0100
0000
0010
0000
,
1000
0000
0000
0001
0000
0000
1000
0000
0000
0100
0000
0000
0010
0000
0000
0100
0000
0000
1000
0000
0000
0001
0000
0000
0100
0000
0000
0001
0000
0000
0010
0000
0000
0100
0000
0000
1000
0000
0000
0001
0000
0000
0100
0000
0001
0000
0010
0000
,
0100
1000
0001
1000
0010
0100
0010
1000
0100
0010
0001
0100
0040
0000
0000
0000
,
1030
0000
0001
0000
1000
0000
0100
0000
0010
0000
0001
0000
1000
0001
1000
0001
,
0010
0000
0000
0000
0000
0000
0100
0000
1000
0000
0001
0000
1000
0000
0000
0000
0000
0000
0001
0000
0100
0000
0001
0000
1000
0000
0000
0010
0000
0000
1000
0000
0000
0001
0000
0000
0100
0000
0001
0000
1000
0000
0001
0000
0010
0000
0100
0000
,
1000
0000
0000
0001
0000
0000
1000
0000
0000
0010
0000
0000
0100
0000
0000
0010
0000
0000
1000
0000
0000
0001
0000
0000
0010
0000
0000
0100
0000
0000
0010
0000
0000
0001
0000
0000
1000
0000
0000
0100
0000
0000
1000
0000
0001
0000
0100
0000
,
0001
1000
0100
0010
0001
1000
0010
1000
0100
0010
0100
0010
0004
0000
0000
0000
,
1003
0000
0000
0000
1010
0000
0000
0010
0100
0000
0100
0000
0001
1000
0000
0100
,
1000
0000
0001
0000
0101
0000
0000
0100
0001
1000
0001
0000
0010
0100
0000
1000
,
0010
0000
0000
0000
0110
0000
0000
0100
0001
0000
0001
0000
1000
0010
0000
1000
,
0001
0000
0100
0000
0101
0000
0000
0001
0010
0001
1000
0000
0001
1000
0000
0010
,
0100
0000
0000
0000
0101
0000
0000
0001
0010
0000
0010
0000
0100
1000
0000
0001
,
1000
0000
0000
0000
1010
0000
0000
0010
1000
0001
1000
0000
0001
0010
0000
0001
,
0100
0000
0000
0000
0100
0000
0001
0000
0010
0000
0200
0000
0000
0000
03M0
00M0
,
10M0
00M0
00M0
00M0
10M0
00M0
00M1
00M0
01M0
00M0
00M2
00M0
00M0
00M0
0000
0003
,
1000
0000
0001
0000
1000
0000
0100
0000
0010
0000
0001
0000
1000
0000
0010
0000
0100
0000
0000
0000
0100
0000
0001
0000
0040
0030
0000
0000
0400
0300
0000
0000
,
1000
0100
0010
0001
1000
0010
1000
0001
0010
0100
0010
0100
4000
0000
0000
0000
,
3001
0000
0100
0000
0001
0000
1000
0000
0100
0000
0010
0000
0001
0000
1000
0000
0001
0000
0100
0000
0010
0000
0100
0000
0004
0003
0000
0000
4000
3000
0000
0000
,
0001
0100
0010
1000
0010
0100
0001
0010
0100
0000
0100
1000
0040
0000
0000
0000
,
1030
0000
0100
0000
1000
0000
0001
0000
0100
0000
0001
0000
1000
0000
0100
0000
0010
0000
0000
0000
0010
0000
0001
0000
0400
0300
0000
0000
0040
0030
0000
0000
,
1000
0001
0100
0001
0010
0100
1000
0001
0100
0010
0100
0010
4000
0000
0000
0000
,
3001
0000
0100
0000
0001
0000
1000
0000
0100
0000
0010
0000
0001
0000
1000
0000
0001
0000
0100
0000
0010
0000
1000
0000
0400
0300
0000
0000
0040
0030
0000
0000
,
0001
1000
0001
0010
0100
1000
0001
1000
0100
0000
0100
0010
0004
0000
0000
0000
,
1003
0000
0010
0000
1000
0000
0100
0000
0010
0000
0001
0000
1000
0010
1000
0010
,
0100
0000
0004
0003
0010
0000
0400
0300
1000
0001
1000
0010
0100
0001
0010
0100
,
1000
0001
1000
0010
0100
0010
1000
0001
1000
0100
0010
0001
1000
0001
0400
0300
,
0001
1000
0001
0010
0100
1000
0001
0100
0010
0100
0001
1000
0004
0000
0000
0000
,
1003
0000
0010
0000
1000
0000
0100
0000
0010
0000
0001
0000
1000
0010
1000
0010
,
0100
0000
0004
0003
0010
0000
0400
0300
1000
0001
1000
0010
0100
0010
1000
0100
,
0010
0001
1000
0010
0100
0010
1000
0001
1000
0100
0010
0001
1000
0010
0400
0300
,
0001
1000
0001
0010
0100
1000
0001
0100
0001
1000
0100
0010
0004
0000
0000
0000
,
1003
0000
0001
0000
1000
0000
0100
0000
0010
0000
0001
0000
1000
0000
0010
0000
0100
0000
0000
0000
0100
0000
0001
0000
0040
0030
0000
0000
0400
0300
0000
0000
,
1000
0100
0010
0001
1000
0010
1000
0001
0010
0100
0010
0100
4000
0000
0000
0000
,
3001
0000
0100
0000
0001
0000
1000
0000
0100
0000
0010
0000
0001
0000
1000
0000
0001
0000
0100
0000
0010
0000
0100
0000
0004
0003
0000
0000
4000
3000
0000
0000
,
0001
0100
0010
1000
0010
0100
0001
0010
0100
0000
0100
1000
0040
0000
0000
0000
,
1030
0000
0100
0000
1000
0000
0001
0000
0100
0000
0001
0000
1000
0000
0100
0000
0010
0000
0000
0000
0010
0000
0001
0000
0400
0300
0000
0000
0040
0030
0000
0000
,
1000
0001
0100
0001
0010
0100
1000
0001
0100
0010
0100
0010
4000
0000
0000
0000
,
3001
0000
0100
0000
0001
0000
1000
0000
0100
0000
0010
0000
0001
0000
1000
0000
0001
0000
0100
0000
0010
0000
1000
0000
0400
0300
0000
0000
0040
0030
0000
0000
,
0001
1000
0001
0010
0100
1000
0001
1000
0100
0000
0100
0010
0004
0000
0000
0000
,
1003
0000
0010
0000
1000
0000
0100
0000
0010
0000
0001
0000
1000
0010
1000
0010
,
0100
0000
0004
0003
0010
0000
0400
0300
1000
0001
1000
0010
0100
0001
0010
0100
,
1000
0001
1000
0010
0100
0010
1000
0001
1000
0100
0010
0001
1000
0001
0400
0300
,
0001
1000
0001
0010
0100
1000
0001
0100
0010
0100
0001
1000
0004
0000
0000
0000
,
1003
0000
0010
0000
1000
0000
0100
0000
0010
0000
0001
0000
1000
0010
1000
0010
,
0100
0000
0004
0003
0010
0000
0400
0300
1000
0001
1000
0010
0100
0010
1000
0100
,
0010
0001
1000
0010
0100
0010
1000
0001
1000
0100
0010
0001
1000
0010
0400
0300
,
0001
1000
0001
0010
0100
1000
0001
0100
0001
1000
0100
0010
0004
0000
0000
0000
,
2003
0000
0000
0000
,
3000
0000
0000
0000
;
