#TITLE:Hypernon;
#SUBTITLE:Steps by Tel'Morier;
#ARTIST:MaLKaViaN and NoRAd;
#TITLETRANSLIT:;
#SUBTITLETRANSLIT:;
#ARTISTTRANSLIT:;
#CREDIT:;
#BANNER:;
#BACKGROUND:owned_kitty.jpg;
#LYRICSPATH:;
#CDTITLE:;
#MUSIC:Hypernon.mp3;
#OFFSET:0.000;
#SAMPLESTART:27.273;
#SAMPLELENGTH:12.000;
#SELECTABLE:YES;
#BPMS:0.000=110.000;
#STOPS:;
#BGCHANGES:;
// cache tags:
#FIRSTBEAT:0.000;
#LASTBEAT:113.000;
#SONGFILENAME:Songs/dragon force/Hypernon/hypernon.sm;
#HASMUSIC:1;
#HASBANNER:0;
#MUSICLENGTH:63.429;
// end cache tags

//---------------dance-single - ----------------
#NOTES:
     dance-single:
     :
     Hard:
     8:
     0.714,0.624,0.252,1.000,0.544,231.000,16.000,70.000,0.000,9.000:
1000
0001
0000
0001
1000
0000
0001
0000
1000
0000
0000
0001
0000
0000
1100
0000
,
0001
0010
0000
0010
0001
0000
0100
0000
0001
0000
0000
0100
0000
0000
0101
0000
,
1000
0100
0000
0100
1000
0000
0010
0000
1000
0000
0000
0100
0000
0000
0011
0000
,
0100
0010
0000
0010
0100
0000
0001
0000
0100
0000
0000
1000
0000
0000
0011
0000
,
0001
0010
0000
0100
1000
0000
0100
0000
1000
0000
0000
0010
0000
0000
1010
0000
,
1000
0100
0000
0010
0001
0000
0100
0000
0001
0000
0000
1000
0000
0000
1001
0000
,
0100
0010
0002
0000
0000
0000
1000
0000
0100
0000
0000
0100
0000
0000
1010
0000
,
1003
0100
0000
0001
0010
0000
0100
0000
0010
0000
0000
1000
0000
0000
0101
0000
,
0100
0010
0200
0000
0000
0000
0010
0000
0001
0000
0000
0010
0000
0000
1001
0000
,
0301
1000
0100
0010
0001
0010
0200
0000
0010
0000
0000
0001
0000
0000
0011
0000
,
0310
0001
0010
0100
2000
0000
0010
0000
0001
0000
0000
0100
0000
0000
0110
0001
,
3100
0010
0001
0010
0200
0000
0010
0000
0001
0000
0000
0010
0000
0000
0001
0000
,
0310
0001
0020
0000
1000
0000
0100
0000
1000
0000
0000
0100
0000
0000
1100
0000
,
1030
0100
0010
0001
0010
0100
2000
0000
0010
0000
0000
0010
0000
0000
0101
0000
,
3100
0010
0001
0010
0200
0000
0010
0000
0001
0000
0000
0010
0000
0000
0011
0000
,
0310
0001
0010
0100
2000
0000
0100
0000
0010
0000
0000
0001
0000
0000
0101
0000
,
3200
0010
0001
0000
0320
0000
0000
0030
0002
0000
0023
0000
0230
0000
0000
0000
,
2300
0001
0100
3010
0200
0010
0001
0300
0200
0000
2300
0000
3020
0000
0000
0000
,
0230
0001
1000
0000
0320
0000
0000
0000
0032
0000
0023
0000
0230
0000
0000
0000
,
2300
0001
0100
0010
3200
0000
0000
0000
2300
0000
3200
0000
0320
0000
0000
0000
,
0032
0100
1000
0000
0023
0000
0000
0000
2030
0000
3002
0000
0023
0000
0000
0000
,
2030
0100
0010
0001
3100
0010
0002
0000
0023
0000
0032
0000
0023
0000
0000
0000
,
0230
1000
0010
0000
0320
0000
0000
0000
0032
0000
0203
0000
2300
0000
0000
0000
,
3200
0001
1000
0001
0320
0000
0000
0000
2030
0000
3200
0000
0320
0000
0000
0000
,
2030
0100
0010
0000
3200
0000
0000
0000
0302
0000
0023
0000
0032
0000
0000
0000
,
2003
0100
0010
0001
3200
0010
0001
0000
0320
0000
0032
0000
0023
0000
0000
0000
,
2030
0100
0010
0000
3200
0000
0000
0000
0320
0000
0032
0000
0023
0000
0000
0000
,
0230
1000
0010
1000
0320
0000
0000
0000
0032
0000
0023
0000
2032
0000
0000
0000
,
0000
3003
0000
0000
;
