#TITLE:Until You Come Back;
#SUBTITLE:;
#ARTIST:Beautiful Day;
#TITLETRANSLIT:;
#SUBTITLETRANSLIT:;
#ARTISTTRANSLIT:;
#CREDIT:;
#BANNER:uycb-banner.png;
#BACKGROUND:uycb-bg.png;
#LYRICSPATH:;
#CDTITLE:;
#MUSIC:226_Until_U_Come_Back.mp3;
#OFFSET:-0.320;
#SAMPLESTART:26.001;
#SAMPLELENGTH:12.000;
#SELECTABLE:YES;
#BPMS:0.000=151.970;
#STOPS:;
#BGCHANGES:;
// cache tags:
#FIRSTBEAT:1.000;
#LASTBEAT:285.000;
#SONGFILENAME:Songs/Community Keyboard Megapack - Volume 2/(Laggy) Until You Come Back/Until You Come Back.sm;
#HASMUSIC:1;
#HASBANNER:1;
#MUSICLENGTH:116.146;
// end cache tags

//---------------dance-single - ----------------
#NOTES:
     dance-single:
     :
     Hard:
     10:
     0.957,1.000,1.000,0.697,0.598,575.000,122.000,81.000,0.000,36.000:  // measure 1
0000
0000
0000
2002
0000
0000
3003
0000
0000
1000
0000
0100
,  // measure 2
0000
0000
0000
0001
0000
0000
1000
0000
0000
0000
0001
0000
0000
0000
0000
0010
0000
0000
0100
0000
0000
0000
0000
0000
,  // measure 3
1000
0000
0000
0000
1000
0000
0000
0000
0000
0000
0001
0010
0001
0000
0000
0010
,  // measure 4
0000
0100
1000
0000
0100
0000
0001
0000
,  // measure 5
0000
0000
0000
0000
0000
0000
0000
0000
0000
0000
0000
0000
0002
0000
0000
0000
0000
0000
0003
0000
0000
0000
0000
0000
0000
0000
0000
0000
0000
0000
1000
0000
0000
0100
0000
0000
1000
0000
0000
0000
0000
0000
0000
0000
0001
0000
0000
0000
,  // measure 6
0000
1000
0010
0000
0100
0000
0001
0000
,  // measure 7
0000
0000
0100
0010
0100
0000
0000
0000
0010
0000
0000
0000
0100
0000
0000
1000
,  // measure 8
0000
0001
0001
0000
0000
2000
0000
0000
,  // measure 9
0000
3000
0220
0000
0000
0000
0000
0000
,  // measure 10
0330
0000
2000
0200
3020
0000
0000
0000
0302
0000
0000
0000
0230
0000
0000
0000
,  // measure 11
0023
0000
0000
0000
0000
0000
2330
0000
0000
0000
0001
0000
0000
0000
0000
0002
0000
0000
3020
0000
0000
0203
0000
0000
,  // measure 12
2030
0000
0000
0320
0000
0000
3032
0000
0000
0003
0200
0000
0000
0000
0000
0010
0000
0000
0320
0000
0000
0000
0000
0000
,  // measure 13
0230
0000
0300
0000
0100
0000
0000
0000
0000
0000
0200
0020
0302
0000
0230
0000
,  // measure 14
2003
0000
0000
0000
0000
0000
0320
0000
0000
0000
0000
0000
3002
0000
0000
0000
0000
0000
0000
0000
0000
0230
0000
0000
0000
0000
0000
0000
0000
0000
0023
0000
0000
0000
0000
0000
2300
0000
0000
0030
0001
0000
0000
0000
0000
3002
0000
0000
,  // measure 15
0000
0003
1000
0000
2000
0000
3000
0000
0002
0000
0003
0000
1000
0000
0000
0001
,  // measure 16
0000
0000
1000
0000
0001
0000
0000
2002
0000
0000
0000
0000
0000
3003
0000
0000
,  // measure 17
0000
0000
0000
0000
0001
0000
1000
0000
0010
0000
0100
0001
0000
0001
0100
0000
,  // measure 18
0010
0000
0100
0000
1000
0000
0100
0000
0001
0000
0100
1000
0000
1000
0100
0000
,  // measure 19
0001
0000
0010
0000
0010
0100
1000
0100
0010
0100
1000
0100
0010
0001
0010
0100
,  // measure 20
0010
0001
0010
0100
0010
0001
0010
0100
1000
0100
0010
0100
1000
0100
0010
0100
,  // measure 21
1000
0100
0010
0001
0001
0000
0010
0000
0100
0000
1000
0010
0000
0010
1000
0000
,  // measure 22
0001
0000
0010
0000
0100
0000
1000
0000
0100
0000
0010
0100
0000
0100
0010
0000
,  // measure 23
1000
0000
0100
0000
0010
0001
0010
0100
0010
0001
0010
0100
0010
0001
0010
0100
,  // measure 24
0010
0001
0010
0100
1000
0100
0010
0100
1000
0100
0010
0100
1000
0100
0010
0001
,  // measure 25
2001
0000
0001
3000
1100
0000
0110
0000
0011
0000
0101
0010
0101
0000
0110
0000
,  // measure 26
0110
1100
0101
1100
0110
1100
0011
0011
,  // measure 27
0110
0000
0101
0000
0110
0000
1001
0000
1100
0000
0110
0001
0110
0000
1100
0000
,  // measure 28
0101
1010
0011
1010
1100
0011
0110
1100
,  // measure 29
0011
0000
0110
0000
2010
0000
0100
0000
0010
0000
0001
0100
0010
0000
0100
0000
,  // measure 30
0010
0000
3001
0000
0012
0000
0010
0000
0100
0000
1000
0010
0100
0000
0010
0000
,  // measure 31
0100
0000
1003
0000
0120
0000
1000
0000
0100
0000
0001
1000
0100
0000
1000
0000
,  // measure 32
0100
0031
2001
0000
0000
0000
0002
0000
,  // measure 33
0000
0000
3003
0000
1100
0000
1000
0000
1100
0000
1000
0100
0011
0000
0011
0000
,  // measure 34
0010
1010
1000
0001
0100
0010
1000
0001
,  // measure 35
0100
0000
0010
0000
0011
0000
0010
0000
1010
0000
0100
0010
0101
0000
0011
0000
,  // measure 36
0001
1100
0010
1100
1001
0011
0100
1100
,  // measure 37
0010
0011
0010
1100
1100
0010
0100
0001
,  // measure 38
0100
0000
0000
0010
0000
0000
1001
0000
0000
0000
0000
0000
0000
0000
0000
0000
0000
0000
1000
0000
0000
0000
1000
0000
,  // measure 39
0000
0000
0000
1000
0000
0000
2000
0000
0000
0000
3000
0000
0000
0000
0000
0000
0000
0000
0000
0000
0000
0000
0000
0000
,  // measure 40
0000
0000
2000
0200
3020
0000
0000
0000
0302
0000
0000
0000
0230
0000
0000
0000
,  // measure 41
0023
0000
0000
0000
0000
0000
2330
0000
0000
0000
0001
0000
0000
0000
0000
0002
0000
0000
3020
0000
0000
0203
0000
0000
,  // measure 42
2030
0000
0000
0320
0000
0000
3032
0000
0000
0003
0200
0000
0000
0000
0000
0010
0000
0000
0320
0000
0000
0000
0000
0000
,  // measure 43
0230
0000
0300
0000
0100
0000
0000
0000
0000
0000
0200
0020
0302
0000
0230
0000
,  // measure 44
2003
0000
0000
0000
0000
0000
0320
0000
0000
0000
0000
0000
3002
0000
0000
0000
0000
0000
0000
0000
0000
0230
0000
0000
0000
0000
0000
0000
0000
0000
0023
0000
0000
0000
0000
0000
2300
0000
0000
0030
0001
0000
0000
0000
0000
3002
0000
0000
,  // measure 45
0000
0003
1000
0000
2000
0000
3000
0000
0002
0000
0003
0000
1000
0000
0000
0001
,  // measure 46
0000
0000
1000
0000
0001
0000
0000
2002
0000
0000
0000
0000
0000
0000
0000
0000
,  // measure 47
3003
0000
0000
0000
0001
0010
0100
1000
0001
0010
1000
0010
0000
0010
1000
0000
,  // measure 48
0100
0000
0010
0001
0010
0100
0010
0001
0010
0100
0010
0001
0000
0001
0010
0000
,  // measure 49
0010
0000
0010
0100
0010
0100
0010
0100
1000
0100
0010
0001
0010
1000
0010
0001
,  // measure 50
0010
0001
0010
0100
1000
0010
0100
0001
0010
0100
1000
0100
0010
0001
0010
0001
,  // measure 51
0010
0100
1000
0001
1000
0100
1000
0010
0100
0010
0100
0010
0000
0010
0100
0000
,  // measure 52
0100
0000
0100
0010
0001
0010
0100
1000
0100
0010
0100
0010
0000
0010
0100
0000
,  // measure 53
1000
0000
0010
0100
0010
0100
1000
0001
0010
0001
0010
0100
1000
0100
0010
0001
,  // measure 54
0010
0100
0010
0001
0010
0100
0010
0001
0010
0001
0010
0100
1000
0100
0010
0100
,  // measure 55
1000
0100
0010
0100
1010
0000
0110
0000
0011
0000
0110
1000
0110
0000
1100
0000
,  // measure 56
0101
0011
0101
1001
1100
1010
0110
0011
,  // measure 57
0101
0000
0011
0000
1001
0000
1010
0000
0110
0000
1001
0100
1001
0000
1100
0000
,  // measure 58
0110
1010
0101
0110
0011
1010
1100
0110
,  // measure 59
0011
0000
0110
0000
2001
0000
0010
0000
0100
0000
0010
0100
0001
0000
0010
0000
,  // measure 60
0100
0000
3010
0000
0210
0000
0001
0000
0010
0000
1000
0001
0010
0000
0001
0000
,  // measure 61
0010
0000
1300
0000
1002
0000
0100
0000
0010
0000
0100
0010
1000
0000
0100
0000
,  // measure 62
0010
0103
2001
0000
0000
0000
0002
0000
,  // measure 63
3003
0000
0000
0000
1010
0000
0010
0000
1010
0000
0010
0100
1001
0000
1001
0000
,  // measure 64
0010
1010
1000
0001
1000
0100
0010
0001
,  // measure 65
0100
0000
0010
0000
0101
0000
0100
0000
0101
0000
0100
0010
0101
0000
0011
0000
,  // measure 66
0001
1100
0010
1100
1001
0011
0100
1100
,  // measure 67
0010
0011
0010
1100
1100
0010
0100
0001
,  // measure 68
0100
0000
0010
0000
1001
0000
0010
0000
0010
0000
0100
0100
0000
0000
1000
0000
,  // measure 69
0100
0010
0001
0100
1000
1100
0110
0011
,  // measure 70
0110
0000
1001
0000
0000
0000
0110
0000
0110
0000
0110
0100
0000
0000
0010
0000
,  // measure 71
0010
0010
0001
1000
0001
2000
0000
0000
,  // measure 72
0000
0000
0000
3000
0000
0000
1000
0000
0100
0000
0010
0000
1001
0000
0000
0000
0000
0000
0000
0000
0000
0000
0000
0000
0000
0000
0000
0000
0000
0000
0000
0000
0000
0000
0000
0000
0000
0000
0000
0000
0000
0000
0000
0000
0000
0000
0000
0000
;
