#TITLE:Arcadia Parade;
#SUBTITLE:Himesama, Oteyawarakani ! OP theme;
#ARTIST:Katakiri Retka;
#TITLETRANSLIT:;
#SUBTITLETRANSLIT:;
#ARTISTTRANSLIT:;
#CREDIT:ALICE_;
#BANNER:Arcadia Parade.png;
#BACKGROUND:Arcadia Parade.jpg;
#LYRICSPATH:;
#CDTITLE:cdtitle.png;
#MUSIC:Arcadia Parade.mp3;
#OFFSET:-0.080;
#SAMPLESTART:64.619;
#SAMPLELENGTH:16.420;
#SELECTABLE:YES;
#BPMS:0.000=163.000;
#STOPS:;
#BGCHANGES:3.750=Arcadia Parade.avi=1.000=0=0=1,
99999=-nosongbg-=1.000=0=0=0 // don't automatically add -songbackground-
;
// cache tags:
#FIRSTBEAT:13.000;
#LASTBEAT:259.500;
#SONGFILENAME:Songs/alice 4th complete step/Arcadia Parade/Arcadia Parade.sm;
#HASMUSIC:1;
#HASBANNER:1;
#MUSICLENGTH:103.170;
// end cache tags

//---------------dance-single - ----------------
#NOTES:
     dance-single:
     :
     Hard:
     7:
     0.493,0.566,0.204,0.330,0.000,301.000,21.000,34.000,0.000,0.000:
0000
0000
0000
0000
,
0000
0000
0000
0000
,
0000
0000
0000
0000
,
0000
0000
0000
0000
,
2001
0000
0000
0000
,
0000
0000
0000
0000
,
3200
0000
0000
0300
,
1000
0010
0100
0001
0010
0100
1000
0010
,
0100
0001
0010
0100
1000
1000
0010
0101
,
0000
1000
0010
0000
1000
1000
0100
1000
,
0000
0010
0100
0000
0001
0010
0100
1000
,
0000
0001
0001
0000
0010
0100
0001
0202
,
0303
1000
0100
2200
3300
1000
0010
0220
,
0330
1000
0001
0000
0010
0010
0001
0100
,
0000
0001
0010
0000
1000
0010
0100
0001
,
0000
1000
1000
0000
0100
1000
0010
2020
,
3030
0100
0001
0022
0033
0100
1000
0002
,
0000
0000
1000
0003
0000
0000
1000
0000
,
0000
1000
0000
1000
,
0000
0001
0000
0001
,
0000
0001
0000
0001
,
0000
0010
0000
0010
,
0000
0000
0100
0000
0000
0000
0100
0002
,
0003
1000
0010
0100
0001
0001
1000
0001
,
0000
0100
1000
0100
0000
1001
0000
0120
,
0000
0000
0100
0030
0001
0100
0001
0000
,
0100
0000
0010
0000
1000
0100
1000
0000
,
0100
0000
0010
0000
0001
0100
0001
0000
,
0100
0000
0010
0000
1000
0100
1000
0020
,
0000
0000
0130
0000
0001
1000
0100
2000
,
0000
3001
0001
0101
0000
1100
0000
0110
,
0000
1000
0001
0000
0100
0010
1000
0001
,
0000
0010
0100
1000
0000
0001
1000
0010
,
0100
0000
0100
0000
0001
0010
0100
1000
,
0000
0100
0001
0100
1000
0100
0010
0000
,
0001
0000
0001
0000
1000
0010
0100
0001
,
0000
0010
1000
0010
0001
0010
0100
0000
,
1000
0000
1000
0000
0001
1000
0100
0001
,
0000
0100
1000
0020
0000
0000
0130
0001
,
0000
1000
0100
0001
0100
1000
0100
0010
,
0000
0001
0100
1000
0100
0001
0100
0010
,
0000
1000
0001
0100
0000
0010
0000
1001
,
0000
1000
0100
1000
0010
0100
0001
0020
,
0000
0031
1000
0000
0100
0100
0000
2002
,
3003
1000
0100
1000
0010
0001
0010
2000
,
3000
0001
0100
0001
0010
1000
0010
0002
,
0003
0100
0010
0100
0001
1000
0100
0020
,
0000
0000
0000
0000
0000
0030
0001
0100
,
0001
0101
0010
1100
,
1000
0100
0010
0001
0000
0001
0100
0010
,
0000
0100
1000
0100
0010
0100
0000
1000
,
0000
0001
0000
1000
0000
0010
0100
2002
,
3003
0001
0010
0001
0100
1000
0100
0002
,
0003
0010
1000
0010
0001
0100
0001
2000
,
3000
0001
0010
0100
1000
0010
0100
0002
,
0000
0000
0000
0000
0000
0003
1000
0100
,
1000
0011
0001
1100
,
1000
0010
0100
0001
0000
0001
1000
0000
,
0200
0000
0310
0000
1000
0001
1000
0002
,
0000
0000
0000
0000
0000
0000
0000
0003
,
2200
0000
0000
0000
0000
0000
0000
0300
,
0000
0000
0000
0000
,
3002
0000
0000
0000
0000
0000
0000
0003
,
1000
0010
0010
1000
0100
0001
0100
1000
,
1000
0001
0010
1000
0010
0001
0100
1010
;

//---------------dance-single - ----------------
#NOTES:
     dance-single:
     :
     Challenge:
     12:
     0.847,0.912,1.000,0.824,0.107,379.000,141.000,85.000,0.000,54.000:
0000
0000
0000
0000
,
0000
0000
0000
0000
,
0000
0000
0000
0000
,
0000
0000
0020
0000
0000
0000
0000
0030
,
2002
0000
0000
0000
,
0000
0000
0000
0000
0000
0000
0000
3003
,
1020
0000
0000
0000
0000
0000
0000
0000
0000
0000
0200
0000
0000
0000
0030
0300
,
1001
0010
0100
1001
0010
0100
1001
0010
,
0100
1001
0010
0100
1001
1010
0100
0012
,
0000
0103
1010
1000
0100
0110
0001
2010
,
0000
0100
3011
0100
1001
0011
0100
1020
,
0000
0100
0031
0100
1000
1010
0001
0220
,
0000
1000
1331
0022
0000
0100
1133
1002
,
0000
0103
1010
1000
0100
0110
0001
2010
,
0000
0100
3011
0100
1001
0011
0100
1020
,
0001
1000
2130
0010
3001
0110
1000
2002
,
0000
0100
3113
2002
0000
0010
3113
2002
,
3000
1003
0100
0000
1000
0000
0001
0000
,
0100
0000
0001
0000
1000
0001
0100
0001
,
1000
0010
0100
0001
,
1000
0000
0010
0000
0100
0001
1000
0010
,
0100
0010
0100
0010
,
1000
0000
0001
0000
1000
0100
0001
2001
,
0000
3100
0101
0020
1000
1130
1001
0020
,
0000
0130
0101
1001
0000
1101
0010
0202
,
0000
0303
0010
0000
1000
1000
0001
0000
,
0100
0000
0010
0000
1000
1000
0001
0000
,
0100
0000
0010
0000
1000
1000
0001
0000
,
0100
0000
0010
0000
1000
1000
0001
0202
,
0000
0000
0010
0000
1000
1303
0010
2020
,
0000
0100
3031
1001
0000
0101
0000
0011
,
0000
1100
0011
0100
0100
1001
0100
1020
,
0000
0000
0100
0000
1000
0000
0131
0000
0000
0000
1001
0000
0100
0010
0100
0010
,
2001
0000
3101
0001
1000
1100
0001
2010
,
0000
0100
0010
0100
0001
0100
0011
3100
,
1002
0000
1013
1000
0001
0011
1000
0102
,
0000
0010
0100
0010
1000
0010
1100
0013
,
1200
0000
0311
0001
1000
1010
0001
0102
,
0000
0000
1000
0000
0110
0000
1013
0100
0001
1000
0010
0100
0001
1000
0022
0000
,
0000
0100
1000
0000
0100
0100
1033
2210
,
0000
0010
0001
0000
0010
0010
3301
2102
,
0000
3103
0010
0111
0000
1010
0100
2002
,
0000
3000
0203
0000
0321
0000
2030
0000
3200
0000
0302
0000
0023
0000
1230
0000
,
0300
0201
2301
3000
0110
0110
0000
2021
,
0000
0000
3130
0000
0011
0000
1000
0100
1000
0000
0110
0000
0001
0000
0202
0000
,
0000
0000
0313
0000
1100
0000
0001
0010
0001
0000
0110
0000
1000
0000
2020
0000
,
0000
0000
3031
0000
1100
0000
0010
1000
0101
0000
0011
0000
0100
0000
2001
0000
,
0000
0000
3100
0000
0010
0100
0001
0000
1000
0000
1100
0000
0202
0000
0000
0303
,
1100
0000
0010
0000
0101
1000
0010
0000
1100
0000
0101
0000
0011
1000
0100
0000
,
0110
0001
1000
0220
0000
1330
0011
0200
,
0000
0301
1010
0100
1001
0011
0100
2020
,
3030
0101
1000
0011
1000
0110
0001
2020
,
0000
0000
3130
0000
0011
0000
1000
0100
1000
0000
0110
0000
0001
0000
0202
0000
,
0000
0000
0313
0000
1100
0000
0001
0010
0001
0000
0110
0000
1000
0000
2020
0000
,
0000
0000
3031
0000
1100
0000
0010
1000
0101
0000
0011
0000
0100
0000
1002
0000
,
0000
0100
0010
1000
0100
1000
0020
0003
,
1031
0000
0010
0000
0101
1000
0100
0000
1010
0000
0011
0000
1100
0001
0010
0000
,
1001
0100
0010
0202
0000
1300
0010
1003
,
0102
0000
0010
0000
1000
0000
0100
0010
1003
0000
1100
0000
0010
0000
2002
0000
,
0000
0000
0000
0000
0000
0000
0000
3003
,
0220
0000
0000
0000
,
0000
0000
0000
0000
0000
0000
0000
0330
,
0201
0000
0000
0000
0000
0000
0000
0300
,
1001
0000
1000
1000
0100
0000
1010
0000
0001
0001
0010
0000
1001
0000
0010
0010
,
0100
0000
1001
0000
1000
1000
0010
0000
1001
0000
1010
0000
0100
0000
1111
0000
;

//---------------dance-single - ----------------
#NOTES:
     dance-single:
     :
     Medium:
     6:
     0.393,0.409,0.204,0.213,0.000,241.000,21.000,22.000,0.000,0.000:
0000
0000
0000
0000
,
0000
0000
0000
0000
,
0000
0000
0000
0000
,
0000
0000
0000
0000
,
2002
0000
0000
0000
,
0000
0000
0000
3003
,
0020
0000
0000
0030
,
1001
0000
0001
0010
0000
0001
0100
0000
,
0010
1000
0000
0010
0100
0001
1000
0100
,
0000
0000
1000
0000
0001
0100
0001
0010
,
0000
0000
0100
0000
1000
0010
0100
0001
,
0000
0000
1000
0000
0100
1000
0010
0100
,
0000
0001
1000
0001
0000
0100
0010
0100
,
0000
0000
0001
0000
1000
0010
1000
0100
,
0000
0000
0010
0000
0001
0100
0010
1000
,
0000
0000
0010
0000
0100
0001
1000
0100
,
0000
1000
0001
1000
0000
0010
0100
0020
,
0000
0100
0000
0100
,
0030
0001
0000
0001
,
0000
1000
0000
1000
,
0000
0010
0000
0010
,
0000
1000
0000
1000
,
0000
0000
0001
0000
0000
0000
0001
0010
,
0000
0100
1000
0010
0000
0100
0001
0010
,
0000
0100
1000
0010
0000
0110
0000
1001
,
0000
0000
0100
0000
0001
0001
0000
0000
,
1000
0000
0000
0000
0010
0010
0000
0000
,
0100
0000
0000
0000
0001
0001
0000
0000
,
1000
0000
0000
0000
0100
0100
1000
0001
,
0000
0000
0100
0000
0010
0010
1000
0100
,
0000
0010
0001
0100
0000
1001
0000
0110
,
0000
0000
0001
0000
1000
0100
1000
0010
,
0000
0100
0001
1000
0000
2002
0000
3003
,
0002
0000
0000
0003
2000
0000
3000
0101
,
0000
0000
1000
0100
0010
0001
0100
0000
,
0020
0000
0000
0030
2000
0000
3000
0101
,
0000
0000
0001
0010
0100
1000
0010
0000
,
0200
0000
0000
0300
0002
0000
0003
1000
,
0000
0001
0100
0020
0000
0000
0030
1000
,
0000
1000
0100
1000
0001
0010
0001
0100
,
0000
0001
0100
0001
1000
0010
1000
0100
,
0000
1000
0001
0010
0000
0100
0000
0020
,
0000
0000
0000
0000
0000
0000
0030
0001
,
0000
0001
1000
0000
0010
0100
0000
1001
,
0000
0000
1000
0000
0001
0100
0000
1001
,
0000
0000
0001
0000
1000
0100
0000
0110
,
0000
0100
1000
0010
0100
0000
0001
2000
,
0000
0000
3000
0000
0000
0000
0010
0100
,
0010
0101
0010
1100
,
1000
0001
1000
0020
0000
0000
0030
1000
,
0000
1000
0001
1000
0100
0010
0001
0100
,
0000
0010
0000
1000
0000
0001
0000
1001
,
0000
0000
0010
0000
0100
1000
0000
0110
,
0000
0000
0010
0000
0100
0001
0000
1001
,
0000
0100
1000
0010
0100
0000
1000
0002
,
0000
0000
0000
0000
0003
0000
0100
0010
,
0100
1001
0010
0001
,
0100
0010
1000
0200
0000
0000
0310
0000
,
1001
0000
0100
0000
0010
0000
0001
2000
,
0000
0000
0000
0000
0000
0000
0000
3000
,
0020
0000
0000
0000
,
0000
0000
0000
0030
,
2002
0000
0000
3003
,
1000
0100
0000
0010
0100
0000
1000
0010
,
0000
0100
0001
0000
0010
0001
0100
1010
;

//---------------dance-single - ----------------
#NOTES:
     dance-single:
     :
     Easy:
     4:
     0.206,0.283,0.155,0.107,0.000,122.000,16.000,11.000,0.000,0.000:
0000
0000
0000
0000
,
0000
0000
0000
0000
,
0000
0000
0000
0000
,
0000
0000
0000
0000
,
0000
0000
0000
0000
,
0000
0000
0000
0000
,
0000
0000
0000
0000
,
0000
0000
0000
0000
,
0000
0000
0000
0000
0000
0000
0000
1001
,
0000
0100
0010
1000
,
0000
0001
0010
0001
,
0100
0000
0010
0000
0000
0000
0000
1000
,
0000
0000
0000
0001
0000
0000
0000
1000
,
0000
0010
0100
0001
,
0000
1000
0010
1000
,
0001
0000
0010
0000
0000
0000
0000
0100
,
0000
0000
0000
1000
0000
0000
0000
2002
,
0000
3003
0000
0000
,
0000
0000
0000
0000
,
0000
0000
0000
0000
,
0000
0000
0000
0000
,
0000
0000
0000
0000
,
0000
0000
0000
0000
0000
0000
0000
0001
,
0000
0000
0000
1000
0000
0000
0000
0010
,
0000
0000
0000
0100
0000
0001
0000
2000
,
0000
3000
0000
0000
,
0000
0000
0000
0000
,
0000
0000
0000
0000
,
0000
0000
0000
0000
0000
0000
0000
0202
,
0000
0000
0303
0000
0000
0000
0000
2200
,
0000
3300
0000
0001
0000
1000
0000
0010
,
0000
0100
0001
1000
,
0000
0000
0000
0010
0000
0020
0030
0000
,
1000
0001
0100
0010
,
0000
1000
0100
1000
,
0001
1000
0010
0100
,
0000
0001
0010
0001
,
1000
0100
1000
0001
,
0100
0000
0010
0000
0100
0000
0000
1001
,
0000
0000
0001
0000
0001
0000
0000
1010
,
0000
0000
0100
0000
0100
0000
0000
1001
,
0000
0000
0000
0010
0000
0100
0000
0002
,
0000
0000
0000
0000
0000
0003
0000
0000
,
0000
0000
0000
0000
0000
0000
0000
1000
,
0000
0000
1000
0000
0100
0000
0000
0001
,
0000
0000
0001
0000
0100
0000
0000
1000
,
0000
0000
0010
0000
0001
0000
0000
0100
,
0000
0010
0100
0010
,
0001
0000
0101
0000
,
1000
0000
0000
1100
0000
0000
0000
0010
,
0000
0000
1000
0000
0001
0000
0000
2000
,
0000
0000
0000
0000
3000
0000
0000
1001
,
0000
0000
0001
0000
0100
0000
0000
1000
,
0000
0000
1000
0000
0100
0000
0000
0001
,
0000
0000
1000
0000
0010
0000
0000
0100
,
0000
0001
1000
0001
,
0010
0000
1100
0000
,
0010
0000
0000
0101
0000
0000
0010
0000
,
0001
1000
0100
1000
,
0020
0000
0000
0030
,
1000
0000
0000
0000
,
0000
0000
0000
0000
,
0001
0000
0000
0000
,
0110
0000
0000
1000
0000
0000
0101
0000
,
0000
0010
0000
0000
1100
0000
0000
1001
;
