#TITLE:Snows;
#SUBTITLE:~Soshite Kiseki~;
#ARTIST:Jea;
#TITLETRANSLIT:;
#SUBTITLETRANSLIT:;
#ARTISTTRANSLIT:;
#CREDIT:T. Moore;
#BANNER:snows bn.png;
#BACKGROUND:snows bg.png;
#LYRICSPATH:;
#CDTITLE:;
#MUSIC:Snows.ogg;
#OFFSET:-0.359;
#SAMPLESTART:135.038;
#SAMPLELENGTH:20.618;
#SELECTABLE:YES;
#DISPLAYBPM:186.000;
#BPMS:0.000=186.233,224.000=46.558,225.000=93.117,289.000=186.233;
#STOPS:;
#BGCHANGES:;
// cache tags:
#FIRSTBEAT:24.000;
#LASTBEAT:915.000;
#SONGFILENAME:Songs/SHARPNELSTREAMZ v2/Snows/snows.sm;
#HASMUSIC:1;
#HASBANNER:1;
#MUSICLENGTH:319.503;
// end cache tags

//---------------dance-single - 17 (TYLR)----------------
#NOTES:
     dance-single:
     17 (TYLR):
     Challenge:
     17:
     1.000,1.000,0.156,0.516,1.000,3483.000,50.000,165.000,0.000,0.000:
0000
0000
0000
0000
,
0000
0000
0000
0000
,
0000
0000
0000
0000
,
0000
0000
0000
0000
,
0000
0000
0000
0000
,
0000
0000
0000
0000
,
2000
0000
0000
0000
,
0000
0000
0000
0000
0010
0010
3010
1000
,
0001
0010
0100
1000
0001
1000
0100
0010
0001
1000
0100
1000
0001
0010
0001
1000
,
0020
0030
0000
0100
0000
0000
0001
0000
0000
1000
0000
0000
0200
0300
0000
1000
0000
0000
0001
0000
0000
1000
0000
0000
0001
0000
0000
0010
0000
0000
0001
0000
0000
1000
0000
0000
0020
0030
0000
0100
0000
0000
0001
0000
0000
1000
0000
0000
,
0100
0000
0000
1000
0000
0000
0001
0000
0000
0010
0000
0000
0001
0000
0000
1000
0000
0000
0100
0000
0000
1000
0000
0000
0002
0003
0000
0100
0000
0000
0010
0000
0000
1000
0000
0000
0001
0000
0000
1000
0000
0000
0010
0000
0000
0100
0000
0000
,
0002
0003
0000
0000
1000
0000
0000
0000
0100
0000
0000
0000
0010
0000
0000
0000
0001
0000
0000
0000
0010
0000
0000
0000
0100
0000
0000
0000
1000
0000
0000
0000
0001
0000
0000
0000
0100
0000
0000
0000
0010
0000
0000
0000
1000
0000
0000
0000
0001
0000
0000
0000
1000
0000
0000
0000
0001
0000
0000
0000
1000
0000
0000
0000
,
0001
0010
0100
1000
0001
0010
0100
1000
0001
0010
0100
1000
0001
0010
0100
1000
,
0001
0100
0010
1000
0001
0100
0010
1000
0001
0100
0010
1000
0001
1000
0001
1000
,
0001
1000
0100
0010
0001
0010
0100
1000
0001
1000
0010
0100
0001
0100
0010
1000
,
0200
0300
0010
0000
0001
0000
0010
0000
0200
0300
1000
0000
0001
0000
0010
0000
0200
0300
0010
0000
0001
0000
1000
0000
0200
0300
0010
0000
0100
0000
1000
0000
,
0200
0300
0010
0000
0001
0000
1000
0000
0001
0000
0100
0000
0010
0000
1000
0000
0001
0000
1000
0000
0100
0000
0010
0000
0001
0000
1000
0000
0010
0000
0100
0000
,
0001
1000
0100
1000
0001
0100
0010
1000
0001
1000
0100
0010
0001
1000
0010
1000
,
0001
0010
0100
1000
0001
0100
0010
1000
0001
1000
0100
0010
0001
1000
0010
1000
,
0001
1000
0100
0010
0001
1000
0010
0100
0001
1000
0010
1000
0001
1000
0001
1000
,
0001
0010
0100
1000
0001
0100
0010
1000
0001
1000
0100
1000
0001
0100
0010
0100
,
0001
1000
0100
0010
0001
1000
0010
1000
0001
0010
0100
0010
0001
1000
0010
0100
,
0001
1000
0100
1000
0001
0100
0010
0100
0001
1000
0100
0010
0001
1000
0010
1000
,
0100
0000
0010
0000
0100
0000
0010
0000
0001
0000
0100
0000
0010
0000
0100
0000
0001
0000
0010
0000
0100
0000
0010
0000
0200
0300
1000
0000
0001
0000
0100
0000
,
0020
0030
1000
0000
0100
0000
0010
0000
0001
0000
0010
0000
0100
0000
1000
0000
0001
0000
1000
0000
0010
0000
0100
0000
0001
0000
0100
0000
0010
0000
1000
0000
,
0001
0010
0100
0010
0001
1000
0100
1000
0001
1000
0010
0100
0001
0100
0010
1000
,
0001
1000
0100
1000
0001
0010
0100
0010
0001
1000
0010
1000
0001
0100
0010
0100
,
0001
1000
0100
0010
0001
1000
0100
1000
0001
0010
0100
1000
0001
1000
0001
1000
,
0001
0100
0010
0100
0001
1000
0010
1000
0001
1000
0100
0010
0001
1000
0100
1000
,
0001
0100
0010
1000
0001
1000
0010
0100
0001
1000
0100
0010
0001
0010
0100
1000
,
0001
1000
0010
0100
0001
0100
0010
1000
0001
1000
0001
0010
0100
0010
0001
1000
,
0010
0000
0100
0000
0010
0000
0100
0000
0001
0000
1000
0000
0200
0300
0010
0000
0200
0300
1000
0000
0001
0000
1000
0000
0002
0003
0100
0000
0010
0000
1000
0000
,
0002
0003
0010
0000
0001
0000
1000
0000
0001
0000
0100
0000
0010
0000
1000
0000
0001
0000
1000
0000
0100
0000
0010
0000
0001
0000
1000
0000
0010
0000
0100
0000
,
0001
1000
0100
1000
0001
0100
0010
1000
0001
1000
0100
0010
0001
1000
0010
1000
,
0001
0010
0100
1000
0001
0100
0010
1000
0001
1000
0100
0010
0001
1000
0010
1000
,
0001
1000
0100
0010
0001
1000
0010
0100
0001
1000
0010
1000
0001
1000
0001
1000
,
0001
0010
0100
1000
0001
0100
0010
1000
0001
1000
0100
1000
0001
0100
0010
0100
,
0001
1000
0100
0010
0001
1000
0010
1000
0001
0010
0100
0010
0001
1000
0010
0100
,
0001
1000
0100
1000
0001
0100
0010
0100
0001
1000
0100
0010
0001
1000
0010
1000
,
0100
0000
0010
0000
0100
0000
0010
0000
0001
0000
1000
0000
0010
0000
0100
0000
0010
0000
0100
0000
0010
0000
0100
0000
0002
0003
0010
0000
0100
0000
1000
0000
,
0002
0003
1000
0000
0100
0000
0010
0000
0001
0000
1000
0000
0001
0000
0010
0000
0100
0000
1000
0000
0001
0000
1000
0000
0020
0030
0100
0000
0001
0000
0100
0000
,
0001
0000
1000
0000
0200
0300
0010
0000
0100
0000
0010
0000
0001
0000
1000
0000
0020
0030
0100
0000
0001
0000
0100
0000
0010
0000
1000
0000
0001
0000
1000
0000
,
0002
0003
0010
0000
0001
0000
0010
0000
0100
0000
1000
0000
0020
0030
0100
0000
0010
0000
0100
0000
0010
0000
1000
0000
0002
0003
0010
0000
0001
0000
0010
0000
,
0100
0000
1000
0000
0020
0030
0100
0000
0010
0000
0100
0000
0010
0000
1000
0000
0200
0300
0010
0000
0001
0000
0010
0000
0100
0000
1000
0000
0100
0000
1000
0000
,
0020
0030
1000
0000
0010
0000
1000
0000
0001
0000
0010
0000
0200
0300
1000
0000
0100
0000
1000
0000
0001
0000
0100
0000
0020
0030
1000
0000
0010
0000
1000
0000
,
0001
0000
0010
0000
0200
0300
1000
0000
0100
0000
1000
0000
0100
0000
0010
0000
0002
0003
1000
0000
0001
0000
1000
0000
0010
0000
0100
0000
0001
0000
1000
0000
,
0200
0300
0010
0000
0100
0000
0010
0000
0001
0000
1000
0000
0020
0030
0100
0000
0010
0000
0100
0000
0001
0000
1000
0000
0200
0300
0010
0000
0100
0000
0010
0000
,
0001
0000
1000
0000
0020
0030
1000
0000
0010
0000
0100
0000
0001
0000
1000
0000
0200
0300
0010
0000
0001
0000
1000
0000
0001
0000
1000
0000
0001
0000
1000
0000
,
0020
0030
1000
0000
0010
0000
1000
0000
0001
0000
0010
0000
0200
0300
1000
0000
0100
0000
1000
0000
0001
0000
0100
0000
0020
0030
1000
0000
0010
0000
1000
0000
,
0001
0000
0010
0000
0200
0300
0010
0000
0100
0000
0010
0000
0001
0000
1000
0000
0002
0003
0100
0000
0010
0000
1000
0000
0001
0000
1000
0000
0010
0000
0100
0000
,
0002
0003
0100
0000
0001
0000
0100
0000
0010
0000
1000
0000
0002
0003
0010
0000
0001
0000
0010
0000
0100
0000
1000
0000
0002
0003
0100
0000
0001
0000
0100
0000
,
0010
0000
1000
0000
0002
0003
0010
0000
0001
0000
0010
0000
0100
0000
1000
0000
0002
0003
1000
0000
0100
0000
0010
0000
0001
0000
0010
0000
0100
0000
1000
0000
,
0002
0003
0100
0000
0001
0000
0100
0000
0010
0000
1000
0000
0200
0300
0010
0000
0100
0000
0010
0000
0100
0000
1000
0000
0002
0003
0100
0000
0001
0000
0100
0000
,
0010
0000
1000
0000
0200
0300
0010
0000
0100
0000
0010
0000
0100
0000
1000
0000
0020
0030
0100
0000
0001
0000
0100
0000
0010
0000
1000
0000
0010
0000
1000
0000
,
0002
0003
0010
0000
0001
0000
0010
0000
0100
0000
1000
0000
0020
0030
0100
0000
0010
0000
0100
0000
0010
0000
1000
0000
0002
0003
0010
0000
0001
0000
0010
0000
,
0400
4000
0000
0000
0000
0000
0000
0000
0000
0000
0000
0000
0000
0000
0000
0000
0000
0000
0000
0000
0000
0000
0000
0000
,
3300
0000
0000
0000
0000
0000
0000
0000
1000
0100
0010
0001
1000
0001
0010
0001
1000
0100
0010
0001
1000
0001
0010
0001
1000
0100
0010
0001
1000
0001
0010
0001
,
1000
0000
0100
0000
0010
0000
0001
0000
1000
0000
0001
0000
0010
0000
0001
0000
2000
3000
0100
0000
0010
0000
0001
0000
0010
0000
0001
0000
2000
3000
0100
0000
0010
0000
0001
0000
0010
0000
0001
0000
2000
3000
0100
0000
0010
0000
0001
0000
2000
3000
0010
0000
0100
0000
0001
0000
1000
0000
0001
0000
0100
0000
0010
0000
,
1000
0000
0001
0000
0010
0000
0100
0000
1000
0000
0001
0000
0100
0000
0010
0000
2000
3000
0010
0000
0100
0000
0001
0000
0100
0000
0001
0000
2000
3000
0100
0000
0010
0000
0001
0000
0010
0000
0001
0000
2000
3000
0010
0000
0100
0000
0001
0000
0100
0000
0001
0000
1000
0000
0100
0000
0010
0000
0001
0000
1000
0000
0010
0000
,
0100
0000
0001
0000
1000
0000
0100
0000
0010
0000
0001
0000
1000
0000
0010
0000
0200
0300
0001
0000
1000
0000
0010
0000
1000
0000
0010
0000
0200
0300
0001
0000
1000
0000
0010
0000
1000
0000
0010
0000
0200
0300
0001
0000
1000
0000
0010
0000
0100
0000
0010
0000
1000
0000
0010
0000
1000
0000
0001
0000
0010
0000
0100
0000
,
1000
0000
0100
0000
0010
0000
0001
0000
1000
0000
0001
0000
0010
0000
0100
0000
2000
3000
0001
0000
1000
0000
0001
0000
1000
0000
0100
0000
0010
0000
0001
0000
0010
0000
0001
0000
0010
0000
0001
0000
1000
0000
0001
0000
1000
0000
0001
0000
1000
0000
0010
0000
0100
0000
0010
0000
1000
0000
0001
0000
0010
0000
0001
0000
,
1000
0000
0010
0000
0100
0000
0010
0000
1000
0000
0001
0000
0010
0000
0001
0000
2000
3000
0010
0000
1000
0000
0010
0000
0100
0000
0001
0000
2000
3000
0010
0000
1000
0000
0010
0000
0100
0000
0001
0000
2000
3000
0010
0000
1000
0000
0010
0000
0100
0000
0010
0000
1000
0000
0001
0000
0100
0000
0001
0000
1000
0000
0001
0000
,
0010
0000
0001
0000
1000
0000
0100
0000
0010
0000
0100
0000
1000
0000
0001
0000
0200
0300
0001
0000
0100
0000
0001
0000
0100
0000
0010
0000
2000
3000
0010
0000
1000
0000
0010
0000
1000
0000
0001
0000
2000
3000
0001
0000
1000
0000
0010
0000
0100
0000
0010
0000
1000
0000
0001
0000
0010
0000
0001
0000
1000
0000
0010
0000
,
0100
0000
0010
0000
1000
0000
0001
0000
0010
0000
0001
0000
1000
0000
0010
0000
0200
0300
0001
0000
1000
0000
0001
0000
1000
0000
0100
0000
0020
0030
0100
0000
1000
0000
0001
0000
0010
0000
0100
0000
2000
3000
0100
0000
0010
0000
0001
0000
1000
0000
0100
0000
0010
0000
0100
0000
1000
0000
0001
0000
0010
0000
0001
0000
,
1000
0000
0100
0000
0010
0000
0001
0000
1000
0000
0010
0000
0100
0000
0001
0000
2000
3000
0001
0000
0010
0000
0001
0000
0100
0000
0010
0000
1000
0000
0010
0000
0100
0000
0001
0000
1000
0000
0001
0000
0100
0000
0001
0000
1000
0000
0001
0000
1000
0000
0100
0000
0010
0000
0001
0000
0100
0000
0001
0000
1000
0000
0010
0000
,
1000
0000
0001
0000
0100
0000
0001
0000
1000
0000
0001
0000
0100
0000
0001
0000
2000
3000
0100
0000
0010
0000
0001
0000
1000
0000
0001
0000
0020
0030
0001
0000
1000
0000
0100
0000
0010
0000
0100
0000
2000
3000
0100
0000
0010
0000
0001
0000
0100
0000
0001
0000
1000
0000
0010
0000
0100
0000
0010
0000
1000
0000
0001
0000
,
0010
0000
0001
0000
1000
0000
0001
0000
0100
0000
0001
0000
1000
0000
0100
0000
0020
0030
0001
0000
1000
0000
0010
0000
0100
0000
0001
0000
2000
3000
0001
0000
0100
0000
0010
0000
1000
0000
0001
0000
0200
0300
0001
0000
1000
0000
0001
0000
1000
0000
0100
0000
0010
0000
0001
0000
0100
0000
0001
0000
1000
0000
0001
0000
,
0100
0000
0010
0000
1000
0000
0010
0000
0100
0000
0010
0000
1000
0000
0001
0000
0020
0030
0100
0000
1000
0000
0001
0000
1000
0000
0001
0000
0020
0030
0100
0000
1000
0000
0001
0000
1000
0000
0001
0000
0020
0030
0100
0000
1000
0000
0001
0000
1000
0000
0010
0000
0100
0000
0001
0000
1000
0000
0001
0000
0100
0000
0001
0000
,
0010
0000
0100
0000
1000
0000
0001
0000
0010
0000
0100
0000
0010
0000
0001
0000
0200
0300
0001
0000
1000
0000
0001
0000
1000
0000
0100
0000
0010
0000
0001
0000
0010
0000
0001
0000
0010
0000
0001
0000
1000
0000
0001
0000
1000
0000
0001
0000
1000
0000
0010
0000
0100
0000
0010
0000
1000
0000
0001
0000
0010
0000
0001
0000
,
1000
0000
0010
0000
0100
0000
0010
0000
1000
0000
0001
0000
0010
0000
0001
0000
2000
3000
0010
0000
1000
0000
0010
0000
0100
0000
0001
0000
2000
3000
0010
0000
1000
0000
0010
0000
0100
0000
0001
0000
2000
3000
0010
0000
1000
0000
0010
0000
0100
0000
0010
0000
1000
0000
0001
0000
0100
0000
0001
0000
1000
0000
0001
0000
,
0010
0000
0001
0000
1000
0000
0100
0000
0010
0000
0100
0000
1000
0000
0001
0000
0200
0300
0001
0000
0100
0000
0001
0000
0100
0000
0010
0000
2000
3000
0010
0000
1000
0000
0010
0000
1000
0000
0001
0000
2000
3000
0001
0000
1000
0000
0010
0000
0100
0000
0010
0000
1000
0000
0001
0000
0010
0000
0001
0000
1000
0000
0010
0000
,
0100
0000
0010
0000
1000
0000
0001
0000
0010
0000
0001
0000
1000
0000
0010
0000
0200
0300
0001
0000
1000
0000
0001
0000
1000
0000
0100
0000
0020
0030
0100
0000
1000
0000
0001
0000
0010
0000
0100
0000
2000
3000
0100
0000
0010
0000
0001
0000
1000
0000
0100
0000
0010
0000
0100
0000
1000
0000
0001
0000
0010
0000
0001
0000
,
1000
0100
0010
0001
1000
0010
0100
0001
1000
0000
0000
0000
0100
0000
0000
0000
0011
0000
0000
0000
1000
0000
0000
0000
0100
0000
0000
0000
0011
0000
0000
0000
,
1000
0001
1000
0001
0100
0000
0010
0000
1000
0000
1000
0000
0001
0010
0100
1000
,
0001
0000
1000
0000
0001
0000
1000
0000
0000
0001
0000
0000
0100
0000
0000
0000
0000
0000
0010
0000
0000
0000
0000
0000
1010
0000
0000
0000
0000
0000
1000
0000
0000
0000
0000
0000
0100
0000
0000
0000
0000
0000
0011
0000
0000
0000
0000
0000
,
0001
0000
1000
0001
0100
0000
0000
0000
0010
0000
0010
0000
1000
0010
0100
0001
,
1000
0000
0000
0000
0000
0000
0000
0000
0001
0000
0000
0000
0000
0000
0000
0000
1000
0000
0000
0000
0000
0000
0000
0000
0001
0000
0000
0000
0000
0000
0000
0000
0000
0000
0000
0000
1000
0000
0000
0000
0000
0000
0000
0000
0000
0000
0000
0000
0200
0000
0000
0000
0000
0000
0300
0000
0000
0000
0000
0000
0000
0000
0000
0000
0000
0000
0000
0000
0000
0000
0000
0000
0010
0000
0000
0000
0000
0000
0000
0000
0000
0000
0000
0000
0000
0000
0000
0000
0000
0000
0000
0000
0000
0000
0000
0000
1001
0000
0000
0000
0000
0000
0000
0000
0000
0000
0000
0000
0000
0000
0000
0000
0000
0000
0000
0000
0000
0000
0000
0000
0100
0000
0000
0000
0000
0000
0000
0000
0000
0000
0000
0000
0000
0000
0000
0000
0000
0000
0000
0000
0000
0000
0000
0000
0010
0000
0000
0000
0000
0000
0000
0000
0000
0000
0000
0000
0000
0000
0000
0000
0000
0000
0000
0000
0000
0000
0000
0000
1001
0000
0000
0000
0000
0000
0000
0000
0000
0000
0000
0000
0000
0000
0000
0000
0000
0000
0000
0000
0000
0000
0000
0000
,
0001
1000
0001
1000
0010
0000
0100
0000
0001
0000
0001
0000
1000
0001
0100
0000
,
0010
0000
1000
0000
0010
0000
1000
0000
0200
0300
0000
0000
0010
0000
0000
0000
0011
0000
0000
0000
0001
0000
0000
0000
0100
0000
0000
0000
0110
0000
0000
0000
,
0010
1000
0010
1000
0001
0000
0000
0000
1000
0000
1000
0000
0001
1000
0001
0000
,
1000
0000
0000
0000
0000
0000
0000
0000
0100
0000
0000
0000
0000
0000
0000
0000
1000
0000
0000
0000
0000
0000
0000
0000
0100
0000
0000
0000
0000
0000
0000
0000
1000
0000
0000
0000
0000
0000
0000
0000
0100
0000
0000
0000
0000
0000
0000
0000
2000
0000
0000
0000
0000
0000
3000
0000
0000
0000
0000
0000
0000
0000
0000
0000
0000
0000
0000
0000
0000
0000
0000
0000
0001
0000
0000
0000
0000
0000
0000
0000
0000
0000
0000
0000
0000
0000
0000
0000
0000
0000
0000
0000
0000
0000
0000
0000
0101
0000
0000
0000
0000
0000
0000
0000
0000
0000
0000
0000
0000
0000
0000
0000
0000
0000
0000
0000
0000
0000
0000
0000
0001
0000
0000
0000
0000
0000
0000
0000
0000
0000
0000
0000
0000
0000
0000
0000
0000
0000
0000
0000
0000
0000
0000
0000
1000
0000
0000
0000
0000
0000
0000
0000
0000
0000
0000
0000
0000
0000
0000
0000
0000
0000
0000
0000
0000
0000
0000
0000
1100
0000
0000
0000
0000
0000
0000
0000
0000
0000
0000
0000
0000
0000
0000
0000
0000
0000
0000
0000
0000
0000
0000
0000
,
0100
0010
0100
0010
0001
0000
0000
0000
1000
0000
1000
0000
0001
0100
0010
0000
,
1000
0000
0001
0000
1000
0000
0001
0000
0000
1000
0000
0000
0100
0000
0000
0000
0000
0000
0010
0000
0000
0000
0000
0000
0011
0000
0000
0000
0000
0000
0001
0000
0000
0000
0000
0000
1000
0000
0000
0000
0000
0000
1010
0000
0000
0000
0000
0000
,
0010
0100
0010
0100
0001
0000
0000
0000
1000
0000
1000
0000
0001
0010
0100
1000
,
0001
0000
0000
0000
1000
0000
0001
0000
0200
0300
0000
0000
0010
0000
0000
0000
1010
0000
0000
0000
1000
0000
0000
0000
0100
0000
0000
0000
0110
0000
0000
0000
,
0010
0000
0001
0010
0100
0000
1000
0000
0001
0000
0001
0000
0100
0010
1000
0001
,
1000
0000
0000
0000
0000
0000
0000
0000
0100
0000
0000
0000
0000
0000
0000
0000
1000
0000
0000
0000
0000
0000
0000
0000
0100
0000
0000
0000
0000
0000
0000
0000
1000
0000
0000
0000
0000
0000
0000
0000
0100
0000
0000
0000
0000
0000
0000
0000
2000
0000
0000
0000
0000
0000
3000
0000
0000
0000
0000
0000
0000
0000
0000
0000
0000
0000
0000
0000
0000
0000
0000
0000
0100
0000
0000
0000
0000
0000
0000
0000
0000
0000
0000
0000
0000
0000
0000
0000
0000
0000
0000
0000
0000
0000
0000
0000
0010
0000
0000
0000
0000
0000
0000
0000
0000
0000
0000
0000
0000
0000
0000
0000
0000
0000
0000
0000
0000
0000
0000
0000
0100
0000
0000
0000
0000
0000
0000
0000
0000
0000
0000
0000
0000
0000
0000
0000
0000
0000
0000
0000
0000
0000
0000
0000
1000
0000
0000
0000
0000
0000
0000
0000
0000
0000
0000
0000
0000
0000
0000
0000
0000
0000
0000
0000
0000
0000
0000
0000
0010
0000
0000
0000
0000
0000
0000
0000
0000
0000
0000
0000
0000
0000
0000
0000
0000
0000
0000
0000
0000
0000
0000
0000
,
0100
0001
0101
0000
0010
0010
2001
0000
,
3002
0000
0000
0000
0000
0000
0000
0003
0002
0000
0000
0000
0000
0000
0000
0000
1003
0000
0000
0000
0100
0000
0000
0000
0010
0000
0000
0000
0001
0000
0000
0000
1000
0000
0000
0000
0100
0000
0000
0000
0010
0000
0000
0000
0001
0000
0000
0000
1000
0000
0000
0000
0100
0000
0000
0000
0010
0000
0000
0000
0001
0000
0000
0000
,
1000
0001
0100
0010
1000
0010
0100
0001
1000
0001
0100
0001
1000
0010
0100
0001
,
1000
0001
0100
0001
0010
0100
1000
0001
0010
0001
1000
0001
0100
0010
1000
0010
,
0100
0001
1000
0001
1000
0100
0010
0001
1000
0001
0010
0100
1000
0010
0100
0001
,
1000
0010
0100
0001
0010
0100
1000
0001
0010
0100
1000
0001
0010
0100
1000
0001
,
0100
0010
1000
0001
0100
0010
1000
0001
1000
0010
0100
0001
1000
0001
1000
0010
,
1000
0001
0100
0001
0010
0100
1000
0001
0010
0001
1000
0001
0100
0010
1000
0010
,
0100
0001
0100
0001
1000
0100
0010
0001
1000
0001
0100
0001
1000
0100
0010
0001
,
1000
0010
1000
0010
1000
0010
0100
0001
1000
0010
0100
0001
1000
0010
1000
0001
,
0010
0100
1000
0001
0010
0001
1000
0100
0010
0001
1000
0001
1000
0100
0010
0100
,
1000
0001
0010
0001
0100
0010
1000
0010
0100
0010
1000
0001
1000
0010
0100
0010
,
1000
0001
1000
0010
0100
0001
1000
0001
1000
0010
1000
0001
0100
0001
1000
0010
,
0100
0010
0100
0001
0010
0100
1000
0001
0010
0001
1000
0100
0010
0001
1000
0001
,
0100
0010
1000
0010
0100
0001
1000
0001
0100
0010
1000
0001
1000
0010
1000
0001
,
0010
0100
0010
0001
1000
0001
0100
0010
1000
0001
1000
0001
0010
0001
1000
0010
,
0100
0001
1000
0001
1000
0100
0010
0001
1000
0001
1000
0100
0010
0001
1000
0001
,
0010
0001
1000
0001
0100
0010
1000
0010
1000
0001
0010
0100
0010
0100
1000
0001
,
0100
0001
0100
0010
1000
0010
0100
0001
1000
0001
0100
0010
1000
0001
0010
0001
,
1000
0100
0010
0100
1000
0001
0100
0001
1000
0010
0100
0001
1000
0001
0010
0100
,
1000
0100
0010
0001
1000
0001
0100
0010
1000
0010
0100
0001
0010
0001
0100
0001
,
0010
0001
0100
0010
1000
0001
0010
0100
1000
0001
0010
0100
1000
0001
0010
0100
,
1000
0001
0100
0010
1000
0001
0100
0010
1000
0010
0100
0001
0010
0100
0010
0001
,
1000
0001
0010
0100
1000
0001
0100
0001
1000
0010
1000
0001
1000
0001
0010
0100
,
1000
0100
0010
0001
1000
0001
1000
0010
0100
0001
1000
0001
1000
0001
0100
0001
,
1000
0001
0100
0001
0010
0100
1000
0001
0010
0100
1000
0001
0010
0100
1000
0001
,
0100
0001
1000
0001
0100
0001
1000
0010
0100
0010
1000
0001
1000
0010
1000
0001
,
1000
0010
0100
0001
0010
0100
1000
0001
0100
0001
1000
0100
0010
0001
1000
0001
,
0010
0100
1000
0001
0010
0001
1000
0001
1000
0010
0100
0001
1000
0001
0100
0001
,
1000
0001
1000
0100
0010
0001
1000
0010
1000
0001
0100
0001
0010
0001
1000
0010
,
1000
0001
0100
0001
0010
0100
1000
0001
0010
0001
1000
0001
0010
0100
1000
0001
,
0010
0100
0010
0001
0100
0010
1000
0001
0100
0001
1000
0010
0100
0001
1000
0001
,
0100
0010
1000
0001
1000
0100
1000
0100
0010
0001
0010
0001
0100
0001
0100
0001
,
0100
0001
0100
0001
1000
0100
0010
0001
1000
0001
0100
0010
1000
0001
1000
0100
,
0010
0100
1000
0001
0010
0001
1000
0100
0010
0100
1000
0001
0010
0100
0010
0001
,
1000
0001
0100
0001
0010
0100
1000
0001
1000
0100
0010
0001
0100
0001
0100
0010
,
1000
0001
1000
0010
0100
0001
1000
0100
0010
0100
1000
0001
0010
0001
1000
0001
,
1000
0010
0100
0001
0010
0100
1000
0001
1000
0100
0010
0001
1000
0001
0100
0001
,
1000
0010
0100
0001
1000
0001
0100
0010
1000
0010
0100
0001
1000
0001
0100
0001
,
1000
0001
0100
0010
1000
0001
0010
0001
1000
0100
0010
0100
1000
0001
0010
0001
,
1000
0100
1000
0001
1000
0100
0010
0001
0010
0100
1000
0001
1000
0100
0010
0001
,
1000
0001
1000
0001
1000
0010
0100
0001
0100
0001
1000
0100
0010
0001
0010
0001
,
0100
0010
1000
0010
0100
0010
1000
0010
0100
0001
1000
0001
1000
0100
0010
0001
,
1000
0001
0010
0100
1000
0001
1000
0001
0100
0010
1000
0001
1000
0001
0010
0100
,
1000
0001
1000
0100
0010
0001
1000
0001
0010
0100
1000
0001
0100
0010
1000
0010
,
0100
0001
1000
0001
1000
0100
0010
0001
0010
0001
0100
0010
1000
0010
0100
0001
,
1000
0001
0100
0010
1000
0001
1000
0010
1000
0001
0100
0010
1000
0001
1000
0010
,
0100
0001
1000
0001
1000
0100
0010
0001
1000
0001
0010
0100
1000
0001
0010
0001
,
1000
0100
1000
0001
0010
0001
1000
0001
1000
0100
1000
0001
0100
0001
0100
0010
,
1000
0010
0100
0001
0010
0100
1000
0001
1000
0100
0010
0001
1000
0010
0100
0001
,
1000
0001
0100
0010
1000
0001
1000
0100
0010
0100
1000
0001
0010
0001
1000
0100
,
0010
0100
1000
0001
0100
0010
1000
0001
0100
0001
0010
0100
1000
0100
0010
0001
,
1000
0001
0100
0010
1000
0010
0100
0001
1000
0001
0100
0010
1000
0001
1000
0010
,
0100
0001
0100
0010
1000
0001
1000
0001
0010
0100
1000
0010
0100
0001
1000
0001
,
0100
0010
1000
0001
1000
0100
0010
0100
1000
0001
0010
0001
1000
0001
1000
0100
,
0010
0100
1000
0001
1000
0010
0100
0010
1000
0001
0100
0001
1000
0010
0100
0010
,
1000
0001
1000
0001
0010
0100
1000
0100
0010
0001
1000
0001
0010
0001
1000
0100
,
0010
0001
0010
0001
1000
0010
0100
0001
1000
0001
0100
0010
1000
0010
0100
0001
,
1000
0001
0100
0010
1000
0001
1000
0010
1000
0001
0100
0001
1000
0001
0100
0001
,
0100
0010
1000
0010
1000
0001
1000
0100
0010
0100
1000
0001
0010
0001
1000
0001
,
0100
0010
1000
0001
1000
0100
0010
0001
0010
0001
0100
0010
1000
0001
1000
0010
,
0100
0001
0100
0001
1000
0010
0100
0001
0010
0001
1000
0001
0010
0100
1000
0001
,
0010
0001
1000
0001
1000
0010
0100
0001
0010
0001
1000
0001
0010
0100
1000
0001
,
0010
0001
1000
0001
1000
0010
0100
0001
0010
0001
1000
0001
0010
0100
1000
0001
,
0010
0001
1000
0001
1000
0001
0100
0001
1000
0001
0010
0001
0100
0001
0010
0100
,
1000
0001
0100
0001
1000
0100
0010
0001
0100
0001
1000
0001
0100
0010
1000
0001
,
0100
0001
1000
0001
1000
0100
0010
0001
0100
0001
1000
0001
0100
0010
1000
0001
,
0100
0001
1000
0001
1000
0100
0010
0001
0100
0001
1000
0001
0100
0010
1000
0001
,
0100
0001
1000
0001
1000
0001
0100
0001
1000
0001
0010
0100
1000
0100
0010
0001
,
1000
0001
0100
0001
1000
0010
0100
0001
0010
0001
1000
0001
0010
0100
1000
0001
,
0010
0001
1000
0001
1000
0010
0100
0001
0010
0001
1000
0001
0010
0100
1000
0001
,
0010
0001
1000
0001
1000
0010
0100
0001
0010
0001
1000
0001
0010
0100
1000
0001
,
0010
0001
1000
0001
1000
0001
0100
0001
1000
0001
0010
0001
0100
0001
0010
0100
,
1000
0001
0100
0001
1000
0100
0010
0001
0100
0001
1000
0001
0100
0010
1000
0001
,
0100
0001
1000
0001
1000
0100
0010
0001
0100
0001
1000
0001
0100
0010
1000
0001
,
0100
0001
1000
0001
1000
0100
0010
0001
0100
0001
1000
0001
0100
0010
1000
0001
,
0100
0001
1000
0001
1000
0001
0100
0001
1000
0001
0010
0100
1000
0100
0010
0001
,
1000
0000
0010
0000
0100
0000
0010
0000
2000
3000
0010
0000
0100
0000
0001
0000
0100
0000
0001
0000
0020
0030
0100
0000
1000
0000
0001
0000
1000
0000
0001
0000
,
0200
0300
0010
0000
1000
0000
0010
0000
0100
0000
0001
0000
1000
0000
0001
0000
0010
0000
0001
0000
1000
0000
0001
0000
0010
0000
0100
0000
1000
0000
0001
0000
,
0010
0001
1000
0001
1000
0010
0100
0001
0010
0001
1000
0001
0010
0100
1000
0001
,
0010
0000
0001
0000
1000
0000
0010
0000
0200
0300
0010
0000
1000
0000
0001
0000
1000
0000
0100
0000
0010
0000
0001
0000
0100
0000
0001
0000
0010
0000
0100
0000
,
1000
0000
0001
0000
0100
0000
0001
0000
2000
3000
0100
0000
0010
0000
0001
0000
0010
0000
0001
0000
0200
0300
0010
0000
1000
0000
0010
0000
1000
0000
0001
0000
,
0020
0030
0100
0000
1000
0000
0001
0000
1000
0000
0100
0000
0010
0000
0001
0000
0100
0000
0001
0000
1000
0000
0001
0000
0100
0000
0010
0000
1000
0000
0001
0000
,
0100
0000
0001
0000
1000
0000
0001
0000
0020
0030
0100
0000
0010
0000
0001
0000
1000
0000
0001
0000
0100
0000
0001
0000
1000
0000
0010
0000
0100
0000
0001
0000
,
1000
0000
0001
0000
0100
0000
0001
0000
0020
0030
0100
0000
1000
0000
0001
0000
0010
0000
0001
0000
1000
0000
0100
0000
0020
0030
0001
0000
0010
0000
0100
0000
,
1000
0000
0001
0000
0100
0000
0001
0000
2000
3000
0010
0000
0100
0000
0001
0000
0100
0000
0001
0000
0020
0030
0100
0000
1000
0000
0001
0000
1000
0000
0001
0000
,
0200
0300
0010
0000
1000
0000
0010
0000
0100
0000
0001
0000
1000
0000
0001
0000
0010
0000
0001
0000
1000
0000
0001
0000
0010
0000
0100
0000
1000
0000
0001
0000
,
0010
0001
1000
0001
1000
0010
0100
0001
0010
0001
1000
0001
0010
0100
1000
0001
,
0010
0000
0001
0000
1000
0000
0010
0000
0200
0300
0010
0000
1000
0000
0001
0000
1000
0000
0100
0000
0010
0000
0001
0000
0100
0000
0001
0000
0010
0000
0100
0000
,
1000
0000
0001
0000
0100
0000
0001
0000
2000
3000
0100
0000
0010
0000
0001
0000
0010
0000
0001
0000
0200
0300
0010
0000
1000
0000
0010
0000
1000
0000
0001
0000
,
0020
0030
0100
0000
1000
0000
0001
0000
1000
0000
0100
0000
0010
0000
0001
0000
0100
0000
0001
0000
1000
0000
0001
0000
0100
0000
0010
0000
1000
0000
0001
0000
,
0100
0000
0001
0000
1000
0000
0001
0000
0020
0030
0100
0000
0010
0000
0001
0000
1000
0000
0001
0000
0100
0000
0001
0000
1000
0000
0010
0000
0100
0000
0001
0000
,
1000
0000
0001
0000
0100
0000
0001
0000
0020
0030
0100
0000
1000
0000
0001
0000
0010
0000
0001
0000
1000
0000
0100
0000
0020
0030
0001
0000
0010
0000
0100
0000
,
1000
0000
0001
0000
0100
0000
0001
0000
2000
3000
0010
0000
0100
0000
0001
0000
0100
0000
0001
0000
2000
3000
0100
0000
0010
0000
0001
0000
0010
0000
0001
0000
,
0200
0300
0001
0000
0100
0000
0010
0000
1000
0000
0001
0000
1000
0000
0100
0000
0010
0000
0001
0000
0010
0000
0100
0000
0010
0000
0001
0000
0010
0000
0100
0000
,
1000
0001
1000
0100
1000
0001
1000
0100
0010
0001
0010
0100
0010
0001
0010
0100
,
1000
0000
0001
0000
1000
0000
0010
0000
0200
0300
0001
0000
0100
0000
0010
0000
1000
0000
0001
0000
1000
0000
0010
0000
1000
0000
0001
0000
1000
0000
0100
0000
,
0010
0000
0001
0000
0010
0000
0100
0000
2000
3000
0100
0000
0010
0000
0001
0000
0010
0000
0001
0000
2000
3000
0010
0000
0100
0000
0001
0000
0100
0000
0001
0000
,
0020
0030
0001
0000
0010
0000
0100
0000
1000
0000
0001
0000
1000
0000
0010
0000
0100
0000
0001
0000
0100
0000
0010
0000
0100
0000
0001
0000
0100
0000
0010
0000
,
1000
0000
0001
0000
1000
0000
0100
0000
0020
0030
0100
0000
1000
0000
0001
0000
0010
0000
0100
0000
0010
0000
0001
0000
1000
0000
0100
0000
1000
0000
0001
0000
,
1000
0000
0100
0000
1000
0000
0001
0000
0200
0300
0010
0000
1000
0000
0010
0000
0100
0000
0001
0000
1000
0000
0001
0000
0020
0030
0100
0000
0010
0000
0001
0000
,
1000
0000
0001
0000
1000
0000
0010
0000
2000
3000
0100
0000
0010
0000
0001
0000
0010
0000
0001
0000
2000
3000
0010
0000
0100
0000
0001
0000
0100
0000
0001
0000
,
0020
0030
0001
0000
0010
0000
0100
0000
1000
0000
0001
0000
1000
0000
0010
0000
0100
0000
0001
0000
0100
0000
0010
0000
0100
0000
0001
0000
0100
0000
0010
0000
,
1000
0001
1000
0010
1000
0001
1000
0010
0100
0001
0100
0010
0100
0001
0100
0010
,
1000
0000
0001
0000
1000
0000
0100
0000
0020
0030
0001
0000
0010
0000
0100
0000
1000
0000
0001
0000
1000
0000
0100
0000
1000
0000
0001
0000
1000
0000
0010
0000
,
0100
0000
0001
0000
0100
0000
0010
0000
2000
3000
0010
0000
0100
0000
0001
0000
0100
0000
0001
0000
2000
3000
0100
0000
0010
0000
0001
0000
0010
0000
0001
0000
,
0200
0300
0001
0000
0100
0000
0010
0000
1000
0000
0001
0000
1000
0000
0100
0000
0010
0000
0001
0000
0010
0000
0100
0000
0010
0000
0001
0000
0010
0000
0100
0000
,
1000
0000
0001
0000
1000
0000
0010
0000
0200
0300
0010
0000
1000
0000
0001
0000
0100
0000
0010
0000
0100
0000
0001
0000
1000
0000
0010
0000
1000
0000
0001
0000
,
1000
0000
0010
0000
1000
0000
0001
0000
0020
0030
0100
0000
1000
0000
0100
0000
0010
0000
0001
0000
1000
0000
0001
0000
0200
0300
0010
0000
0100
0000
0001
0000
,
1000
0000
0001
0000
1000
0000
0100
0000
0020
0030
0001
0000
0010
0000
0001
0000
1000
0000
0001
0000
0200
0300
0010
0000
0100
0000
0010
0000
1000
0000
0001
0000
,
2000
3000
0100
0000
1000
0000
0100
0000
0010
0000
0001
0000
1000
0000
0001
0000
0100
0000
0010
0000
0100
0000
0001
0000
0100
0000
0010
0000
0100
0000
0001
0000
,
1000
0100
1000
0001
1000
0100
1000
0001
0100
0010
0100
0001
0100
0010
0100
0001
,
1000
0000
0100
0000
1000
0000
0001
0000
0020
0030
0001
0000
1000
0000
0100
0000
1000
0000
0001
0000
1000
0000
0100
0000
1000
0000
0001
0000
1000
0000
0001
0000
,
0100
0000
0010
0000
0100
0000
0001
0000
2000
3000
0100
0000
1000
0000
0100
0000
0010
0000
0001
0000
2000
3000
0010
0000
1000
0000
0010
0000
0100
0000
0001
0000
,
0020
0030
0100
0000
0010
0000
0100
0000
1000
0000
0001
0000
1000
0000
0100
0000
0010
0000
0001
0000
0010
0000
0100
0000
0010
0000
0001
0000
0010
0000
0100
0000
,
1000
0000
0001
0000
1000
0000
0010
0000
0200
0300
0010
0000
1000
0000
0001
0000
0100
0000
0010
0000
0100
0000
0001
0000
0100
0000
0010
0000
0100
0000
0001
0000
,
0100
0000
0010
0000
0100
0000
0001
0000
2000
3000
0100
0000
1000
0000
0100
0000
0010
0000
0001
0000
0010
0000
0100
0000
2000
3000
0001
0000
1000
0000
0010
0000
,
1000
0000
0001
0000
1000
0000
0001
0000
0200
0300
0010
0000
1000
0000
0000
0000
0001
0000
0010
0000
0002
0003
0000
0000
0010
0000
0001
0000
0010
0000
0000
0000
,
0002
0003
0100
0000
0010
0000
0000
0000
1000
0000
0010
0000
0100
0000
0000
0000
0001
0000
1000
0000
0001
0000
0000
0000
1000
0000
0001
0000
1000
0000
0000
0000
,
0100
0010
0001
0000
1000
0001
0010
0000
0100
1000
0100
0000
1000
0100
1000
0000
,
0001
0000
0100
0000
0010
0000
0000
0000
2000
3000
0010
0000
0100
0000
0000
0000
0001
0000
0100
0000
0001
0000
0000
0000
0100
0000
0001
0000
0100
0000
0000
0000
,
0010
0000
1000
0000
0100
0000
0000
0000
0020
0030
0001
0000
1000
0000
0000
0000
0001
0000
0100
0000
0002
0003
0000
0000
0100
0000
0001
0000
0100
0000
0000
0000
,
0002
0003
1000
0000
0100
0000
0000
0000
0010
0000
0001
0000
1000
0000
0000
0000
0100
0000
0010
0000
0100
0000
0000
0000
0010
0000
0100
0000
0010
0000
0000
0000
,
0001
0000
1000
0000
0100
0000
0000
0000
2000
3000
0001
0000
0100
0000
0000
0000
0010
0000
1000
0000
0010
0000
0000
0000
1000
0000
0010
0000
1000
0000
0000
0000
,
0001
0000
0010
0000
0100
0000
0000
0000
2000
3000
0000
0000
1000
0000
0000
0000
0001
0000
0000
0000
0001
0000
0000
0000
0200
0300
0010
0000
0100
0000
0010
0000
,
1000
0001
1000
0001
0010
0000
0100
0000
1100
0000
1000
0000
0001
0000
0100
0000
,
0110
0010
1000
0001
0011
0010
0100
1000
,
1001
0001
0100
0010
1010
1000
0001
0010
,
0110
0100
1000
0001
0101
0100
0010
1000
,
1100
0100
0010
0001
1001
1000
0010
0100
,
0101
0001
0010
0100
1100
1000
0001
0100
,
0110
0010
1000
0001
0011
0010
0100
1000
,
1001
0001
0100
0010
1010
1000
0001
1000
,
1100
0100
0010
0000
0011
0000
0001
0000
,
0101
0100
0110
0010
,
1010
1000
1001
0001
,
0011
0010
0110
0100
,
1100
1000
1001
0001
,
0101
0100
0110
0010
,
1010
1000
1100
0100
,
0110
0010
0011
0001
,
1001
2002
0000
3003
;

//---------------dance-single - 15- (TYLR)----------------
#NOTES:
     dance-single:
     15- (TYLR):
     Hard:
     15:
     1.000,1.000,0.269,0.710,1.000,2443.000,86.000,227.000,54.000,0.000:
0000
0000
0000
0000
,
0000
0000
0000
0000
,
0000
0000
0000
0000
,
0000
0000
0000
0000
,
0000
0000
0000
0000
,
0000
0000
0000
0000
,
0002
0000
0000
0000
,
0000
0000
0000
0000
0100
0100
0103
0001
,
10M0
0001
0010
0001
1000
0001
0100
0010
,
1000
0100
0010
0100
1000
0010
0100
0001
,
1000
0100
0010
0001
1000
0001
0010
0100
,
1000
0001
0100
0001
1000
0100
0010
0010
,
0010
0100
1000
0001
0010
0001
0100
0010
,
1000
0010
0100
0001
1000
0100
0010
0010
,
0010
0100
1000
0001
0010
0001
1000
0010
,
M110
0000
0000
0000
01M1
0000
0000
0000
1M01
0000
0000
0001
M010
0000
0100
0000
,
11M0
1000
1001
0001
0100
0010
1010
1000
,
0001
0010
0110
0100
1000
0001
0101
0100
,
0010
1000
1100
0100
0010
0001
1001
1000
,
0010
0100
0110
0010
1000
0001
1001
1000
,
1000
0001
0101
0100
0010
1000
1001
0001
,
0010
0100
1100
1000
0001
0100
0110
0010
,
1000
0001
1001
1000
0100
0010
0011
0001
,
1000
0000
1000
0000
0110
0000
0001
0000
0000
0000
0001
0000
0110
0000
1000
0001
,
1000
0010
0101
0100
0010
1000
0101
0001
,
1000
0001
0110
1000
0001
0100
1010
0010
,
1000
0001
0011
0010
0100
1000
0011
0001
,
1000
0010
0101
0100
0010
1000
1100
0100
,
0100
0010
0011
0001
1000
0010
0101
0100
,
0010
1000
1001
0001
0010
0100
1001
0001
,
0100
0010
1001
1000
0001
0010
1100
1000
,
0001
0000
0001
0000
0110
0000
100M
0000
100M
0000
0000
0000
0001
0010
0100
1000
,
00M1
0100
1010
0010
0100
0001
1010
1000
,
0001
1000
0110
0001
1000
0010
0101
0100
,
0001
1000
1100
0100
0010
0001
1100
1000
,
0001
0100
1010
0010
0100
0001
0011
0010
,
0010
0100
1100
1000
0001
0100
1010
0010
,
0100
0001
1001
1000
0100
0010
1001
1000
,
0010
0100
1001
0001
1000
0100
0011
0001
,
1000
0000
1000
0000
0110
0000
0001
0000
0001
0000
0001
0000
1M01
0000
1000
0100
,
001M
0000
0000
0000
0000
0000
0000
0000
0001
0000
0000
0000
0000
0000
0000
0000
1001
0000
0000
0000
0000
0000
0000
0000
1000
0000
0000
0000
0000
0000
0000
0000
0010
0000
0000
0000
0000
0000
0000
0000
0100
0000
0000
0000
0000
0000
0000
0000
0201
0300
0000
0000
0000
0000
0000
0000
0001
0000
0000
0000
0000
0000
0000
0000
,
1000
0000
0000
0000
0000
0000
0000
0000
0200
0300
0000
0000
0000
0000
0000
0000
0011
0000
0000
0000
0000
0000
0000
0000
0010
0000
0000
0000
0000
0000
0000
0000
0002
0003
0000
0000
0000
0000
0000
0000
1000
0000
0000
0000
0000
0000
0000
0000
0110
0000
0000
0000
0000
0000
0000
0000
0001
0000
0000
0000
0000
0000
0000
0000
,
2000
0000
3000
0000
0000
0000
0000
0000
0000
0000
0000
0000
0000
0000
0000
0000
0000
0000
0000
0000
0000
0000
0000
0000
0001
0000
0000
0000
0000
0000
0000
0000
0000
0000
0000
0000
0000
0000
0000
0000
0000
0000
0000
0000
0000
0000
0000
0000
0011
0000
0000
0000
0000
0000
0000
0000
0000
0000
0000
0000
0000
0000
0000
0000
0000
0000
0000
0000
0000
0000
0000
0000
0020
0000
0000
0030
0000
0000
0000
0000
0000
0000
0000
0000
0000
0000
0000
0000
0000
0000
0000
0000
0000
0000
0000
0000
0100
0000
0000
0000
0000
0000
0000
0000
0000
0000
0000
0000
0000
0000
0000
0000
0000
0000
0000
0000
0000
0000
0000
0000
1000
0000
0000
0000
0000
0000
0000
0000
0000
0000
0000
0000
0000
0000
0000
0000
0000
0000
0000
0000
0000
0000
0000
0000
0012
0000
0000
0003
0000
0000
0000
0000
0000
0000
0000
0000
0000
0000
0000
0000
0000
0000
0000
0000
0000
0000
0000
0000
0001
0000
0000
0000
0000
0000
0000
0000
0000
0000
0000
0000
0000
0000
0000
0000
0000
0000
0000
0000
0000
0000
0000
0000
,
1000
0000
0000
0000
0000
0000
0000
0000
0020
0030
0000
0000
0000
0000
0000
0000
0101
0000
0000
0000
0000
0000
0000
0000
0100
0000
0000
0000
0000
0000
0000
0000
0020
0030
0000
0000
0000
0000
0000
0000
1000
0000
0000
0000
0000
0000
0000
0000
1001
0000
0000
0000
0000
0000
0000
0000
0001
0000
0000
0000
0000
0000
0000
0000
,
0002
0000
0000
0000
0003
0000
0000
0000
0000
0000
0000
0000
0000
0000
0000
0000
0000
0000
0000
0000
0000
0000
0000
0000
0010
0000
0000
0000
0000
0000
0000
0000
0000
0000
0000
0000
0000
0000
0000
0000
0000
0000
0000
0000
0000
0000
0000
0000
1100
0000
0000
0000
0000
0000
0000
0000
0000
0000
0000
0000
0000
0000
0000
0000
0000
0000
0000
0000
0000
0000
0000
0000
0200
0000
0000
0000
0000
0000
0000
0000
0300
0000
0000
0000
0000
0000
0000
0000
0000
0000
0000
0000
0000
0000
0000
0000
0010
0000
0000
0000
0000
0000
0000
0000
0000
0000
0000
0000
0000
0000
0000
0000
0000
0000
0000
0000
0000
0000
0000
0000
0001
0000
0000
0000
0000
0000
0000
0000
0000
0000
0000
0000
0000
0000
0000
0000
0000
0000
0000
0000
0000
0000
0000
0000
2001
0000
0000
0000
0000
0000
3000
0000
0000
0000
0000
0000
0000
0000
0000
0000
0000
0000
0000
0000
0000
0000
0000
0000
1000
0000
0000
0000
0000
0000
0000
0000
0000
0000
0000
0000
0000
0000
0000
0000
0000
0000
0000
0000
0000
0000
0000
0000
,
0010
0000
0000
0000
0200
0300
0000
0000
0101
0000
0000
0000
0001
0000
0000
0000
2000
3000
0000
0000
0100
0000
0000
0000
0011
0000
0000
0000
0001
0000
0000
0000
,
2000
0000
0000
0000
0000
0000
3000
0000
0000
0000
0000
0000
0000
0000
0000
0000
0000
0000
0000
0000
0000
0000
0000
0000
0010
0000
0000
0000
0000
0000
0000
0000
0000
0000
0000
0000
0000
0000
0000
0000
0000
0000
0000
0000
0000
0000
0000
0000
0101
0000
0000
0000
0000
0000
0000
0000
0000
0000
0000
0000
0000
0000
0000
0000
0000
0000
0000
0000
0000
0000
0000
0000
0002
0000
0000
0000
0000
0000
0000
0000
0003
0000
0000
0000
0000
0000
0000
0000
0000
0000
0000
0000
0000
0000
0000
0000
1000
0000
0000
0000
0000
0000
0000
0000
0000
0000
0000
0000
0000
0000
0000
0000
0000
0000
0000
0000
0000
0000
0000
0000
0100
0000
0000
0000
0000
0000
0000
0000
0000
0000
0000
0000
0000
0000
0000
0000
0000
0000
0000
0000
0000
0000
0000
0000
0021
0000
0000
0000
0000
0000
0000
0000
0030
0000
0000
0000
0000
0000
0000
0000
0000
0000
0000
0000
0000
0000
0000
0000
0001
0000
0000
0000
0000
0000
0000
0000
0000
0000
0000
0000
0000
0000
0000
0000
0000
0000
0000
0000
0000
0000
0000
0000
,
0100
0000
0000
0000
0000
0000
0200
0000
0300
0000
0000
0000
1010
0000
0000
0000
0000
0000
1000
0000
0000
0000
0000
0000
0002
0000
0003
0000
0000
0000
1000
0000
0000
0000
0000
0000
110M
0000
0000
0000
0000
0000
0100
0000
0000
0010
0000
0000
,
M002
0103
0001
0100
0001
0100
0020
1030
0010
1000
0010
1000
0002
0103
0001
0100
,
0001
0100
0020
1030
0010
1000
0010
1000
0200
0310
0001
0010
0100
1000
0001
1000
,
0002
0013
0001
0010
0001
0010
0200
1300
0100
1000
0100
1000
0002
0013
0001
0010
,
0001
0010
0200
1300
0100
1000
0100
1000
0002
1003
0100
0010
0001
0010
0100
1000
,
0002
0103
0001
0100
0001
0100
0020
1030
0010
1000
0010
1000
0002
0103
0001
0100
,
0001
0100
0020
1030
0010
1000
0010
1000
0200
0310
0001
1000
0100
1000
0001
0010
,
0002
1003
0001
1000
0001
1000
0020
0130
0010
0100
0010
0100
0002
1003
0001
1000
,
0004
0003
0000
0000
0040
0030
0000
0000
0004
0003
0000
0000
0400
0300
0000
0000
0040
0030
0000
0000
4000
3000
0000
0000
0400
0300
0000
0000
4000
3000
0000
0000
0040
0030
0000
0000
0400
0300
0000
0000
0004
0003
0000
0000
0040
0030
0000
0000
0400
0300
0000
0000
4000
3000
0000
0000
0040
0030
0000
0000
0400
0300
0000
0000
,
0004
0003
0000
0000
0000
0000
0000
0000
0000
0000
0000
0000
0000
0000
0000
0000
2MM1
0000
0000
0000
0000
0000
0000
0000
3000
0000
0000
0000
0020
0000
0000
0000
0000
0000
0000
0000
0030
0000
0000
0000
0200
0000
0000
0000
0000
0000
0000
0000
0000
0000
0000
0000
0000
0000
0000
0000
0000
0000
0000
0000
0000
0000
0000
0000
,
0000
0000
0000
0000
0301
0000
0000
0001
0000
0000
0001
0000
2000
0000
0000
0000
,
0000
0000
3000
0000
02M0
0000
0300
002M
0000
0030
M002
0000
0000
0000
0000
0000
,
0003
0000
0000
0000
2M00
0000
3000
1000
0000
0000
1000
0000
0020
0000
0030
0000
,
0200
0000
0300
0000
00M2
0000
0003
2000
0000
3000
0200
0000
0000
0000
0000
0000
,
0000
0000
0000
0000
0310
0000
0000
0010
0000
0000
0010
0000
0002
0000
0000
0000
,
0000
0000
0003
0000
2M00
0000
3000
002M
0000
0030
M200
0000
0000
0000
0000
0000
,
0300
0000
0000
0000
00M2
0000
0003
0001
0000
0000
0001
0000
0020
0000
0000
0030
,
0200
0000
0000
0000
0000
0000
0300
0000
20M0
3000
0100
0000
0010
0000
0000
0000
0010
0000
0001
0000
0000
0000
0001
0000
0000
0000
0001
0000
0100
0000
0000
0000
,
0100
0010
0000
0010
0M00
0010
1000
0M00
1000
0001
0M00
0001
2000
0000
0000
0000
,
0000
0000
0000
0000
0000
0000
0000
0000
3M02
0003
0010
0000
0100
0000
0000
0000
0100
0000
1000
0000
0000
0000
1000
0000
0000
0000
1000
0000
0001
0000
0000
0000
,
0001
0100
0000
0100
000M
0100
0010
000M
0010
1000
000M
1000
0200
0000
0000
0300
,
0020
0000
0000
0000
0000
0000
0030
0000
M002
0003
0010
0000
0100
0000
0000
0000
0100
0000
1000
0000
0000
0000
1000
0000
0000
0000
1000
0000
0010
0000
0000
0000
,
0010
0100
0000
0100
00M0
0100
0001
00M0
0001
1000
00M0
1000
0002
0000
0000
0000
,
0000
0000
0000
0000
0000
0000
0000
0000
20M3
3000
0100
0000
0010
0000
0000
0000
0010
0000
0001
0000
0000
0000
0001
0000
0000
0000
0001
0000
1000
0000
0000
0000
,
1000
0000
0010
0000
0000
0000
0010
0000
020M
0300
0010
0000
1000
0000
000M
0000
1000
0000
0100
0000
000M
0000
0100
0000
0020
0000
0000
0000
0000
0000
0030
0000
,
0002
0000
0000
0003
1000
0000
0100
0000
0010
0000
10M0
0000
0100
0000
0010
0000
,
10M0
0001
1000
0001
0100
0000
0010
0000
1000
0000
1000
0000
0001
0010
0100
0000
,
1000
0000
0001
0000
1000
0000
0001
0000
0000
1000
0000
0000
0001
0000
0000
0000
0000
0000
0010
0000
0000
0000
0000
0000
0100
0000
0000
0000
0000
0000
0001
0000
0000
0000
0000
0000
0M10
0000
0000
0000
0000
0000
0100
0000
0000
0000
0000
0000
,
0000
0000
1000
0001
0200
0000
0300
0000
0010
0000
0010
0000
1000
0010
0100
0000
,
0001
0000
0100
0000
0001
0000
0100
0000
0000
0010
0000
0000
2000
0000
0000
3000
0000
0000
0100
0000
0000
0000
0000
0000
0010
0000
0000
0000
0000
0000
10M0
0000
0000
0000
0000
0000
0100
0000
0000
0000
0000
0000
0010
0000
0000
0000
0000
0000
,
0001
1000
0001
1000
0001
0000
0000
0000
0100
0000
0100
0000
0010
1000
0001
0000
,
0010
0100
0010
0100
2000
3000
0001
0000
0010
0000
10M0
0000
0001
0000
0010
0000
,
0100
1000
0100
1000
0001
0000
0000
0000
0100
0000
0100
0000
0010
1000
0010
0000
,
1000
0000
0001
0000
1000
0000
0001
0000
1000
0000
0001
0000
2000
0000
0000
3000
0000
0000
0100
0000
0000
0000
0000
0000
0010
0000
0000
0000
0000
0000
10M0
0000
0000
0000
0000
0000
0100
0000
0000
0000
0000
0000
0010
0000
0000
0000
0000
0000
,
0001
1000
0001
1000
0001
0000
0000
0000
0100
0000
0100
0000
0010
1000
0001
0000
,
0010
0000
0001
0000
0010
0000
0001
0000
0000
1000
0000
0000
0001
0000
0000
0000
0000
0000
1000
0000
0000
0000
0000
0000
0010
0000
0000
0000
0000
0000
00M1
0000
0000
0000
0000
0000
1000
0000
0000
0000
0000
0000
0010
0000
0000
0000
0000
0000
,
0100
0001
0100
0001
1000
0000
0000
0000
0100
0000
0100
0000
1000
0001
0100
0010
,
1000
0000
0000
0000
1002
0003
1000
0000
0100
0000
0M01
0000
1000
0000
0100
0000
,
0010
0000
0001
0010
0100
0000
0000
0000
1000
0000
1000
0000
0001
0100
0010
1000
,
0001
0000
1000
0000
0001
0000
1000
0000
0001
0000
1000
0000
0002
0000
0000
0003
0000
0000
1000
0000
0000
0000
0000
0000
0100
0000
0000
0000
0000
0000
0M01
0000
0000
0000
0000
0000
1000
0000
0000
0000
0000
0000
0100
0000
0000
0000
0000
0000
,
0010
0001
0100
0000
0001
0001
200M
0000
,
3002
0000
0000
0000
10M3
0100
0010
0001
1000
0100
0010
0001
1000
0100
0010
0001
,
1000
0001
0100
0010
1000
0010
0100
0001
1000
0001
0100
0001
1000
0010
0100
0001
,
1000
0001
0100
0001
0010
0100
1000
0001
0010
0001
1000
0001
0100
0010
1000
0010
,
0100
0001
1000
0001
1000
0100
0010
0001
1000
0001
0010
0100
1000
0010
0100
0001
,
1000
0010
0100
0001
0010
0100
1000
0001
0010
0100
1000
0001
0010
0100
1000
0001
,
0100
0010
1000
0001
0100
0010
1000
0001
1000
0010
0100
0001
1000
0001
1000
0010
,
1000
0001
0100
0001
0010
0100
1000
0001
0010
0001
1000
0001
0100
0010
1000
0010
,
0100
0001
0100
0001
1000
0100
0010
0001
1000
0001
0100
0001
1000
0100
0010
0001
,
1000
0100
1000
0001
1000
0010
0100
0001
1000
0010
0100
0001
1000
0010
1000
0001
,
0010
0100
1000
0001
0010
0001
1000
0100
0010
0001
1000
0001
1000
0100
0010
0100
,
1000
0001
0010
0001
0100
0010
1000
0010
0100
0010
1000
0001
1000
0010
0100
0010
,
1000
0001
1000
0010
0100
0001
1000
0001
1000
0010
1000
0001
0100
0001
1000
0010
,
0100
0010
0100
0001
0010
0100
1000
0001
0010
0001
1000
0100
0010
0001
1000
0001
,
0100
0010
1000
0010
0100
0001
1000
0001
0100
0010
1000
0001
1000
0010
1000
0001
,
0010
0100
0010
0001
1000
0001
0100
0010
1000
0001
1000
0001
0010
0001
1000
0010
,
0100
0001
1000
0001
1000
0100
0010
0001
1000
0100
1000
0000
0001
0010
0100
1000
,
0001
0100
0001
1000
0100
0010
0001
0010
0001
1000
0010
0100
0010
0100
0001
1000
,
0100
1000
0100
0010
0001
0010
0100
1000
0001
1000
0100
0010
0001
1000
0010
1000
,
0001
0100
0010
0100
0001
1000
0100
1000
0001
0010
0100
1000
0001
1000
0010
0100
,
0001
0100
0010
1000
0001
1000
0100
0010
0001
0010
0100
1000
0001
1000
0100
1000
,
0001
1000
0100
0010
0001
1000
0010
0100
0001
1000
0010
0100
0001
1000
0010
0100
,
0001
1000
0100
0010
0001
1000
0100
0010
0001
0010
0100
1000
0010
0100
0010
1000
,
0001
1000
0010
0100
0001
1000
0100
1000
0001
0010
0001
1000
0001
1000
0010
0100
,
0001
0100
0010
1000
0001
1000
0001
0010
0100
1000
0001
1000
0001
0100
0010
1000
,
0001
1000
0010
0100
0001
0010
0001
1000
0100
0010
0001
1000
0100
0010
0001
1000
,
0010
1000
0001
1000
0010
1000
0001
0100
0010
0100
0001
1000
0001
0100
0001
1000
,
0001
0100
0010
1000
0100
0010
0001
1000
0010
1000
0001
0010
0100
1000
0001
1000
,
0100
0010
0001
1000
0100
1000
0001
1000
0001
0100
0010
1000
0001
0100
0001
1000
,
0100
0010
0001
0100
0010
0000
0000
0000
0000
0000
0000
0000
0000
0000
0000
0000
,
0000
2000
0000
0000
,
0000
3001
0010
0001
,
1000
0000
0000
0000
0001
0000
1000
0000
0001
0000
1000
0000
0001
0100
0001
0100
,
0001
0100
0001
0100
0010
1000
0001
0100
0010
1000
0100
0010
0001
1000
0100
1000
,
0001
1000
0001
0100
0010
0100
0001
1000
0010
1000
0001
0100
0010
0100
0001
1000
,
0100
0010
0100
1000
0001
1000
0010
0100
0010
1000
0100
0010
0001
0010
0100
1000
,
0001
0100
0001
1000
0010
1000
0001
0100
0010
0100
0001
1000
0010
1000
0001
1000
,
0100
0010
0100
1000
0001
1000
0001
0100
0010
1000
0100
1000
0001
1000
0100
0010
,
0001
1000
0010
1000
0001
0100
0010
1000
0001
1000
0010
0100
0001
1000
0010
1000
,
0001
1000
0001
1000
0100
0010
0001
0010
0100
1000
0001
1000
0100
0010
0100
1000
,
0001
0010
0001
1000
0001
1000
0100
1000
0001
0010
0100
1000
0001
1000
0100
0010
,
0001
1000
0001
1000
0001
0100
0010
1000
0010
1000
0001
1000
0100
0010
0100
0010
,
0001
1000
0001
1000
0001
0100
0010
1000
0001
1000
0010
0100
0001
0100
0001
1000
,
0100
0010
0100
1000
0100
0010
0100
0010
0001
1000
0001
0100
0001
0100
0010
1000
,
0001
0100
0001
0100
0010
1000
0001
1000
0010
1000
0001
1000
0010
0100
0010
0100
,
0001
0100
0010
1000
0001
0010
0001
0010
0100
1000
0010
0100
0010
0100
0001
0100
,
0010
1000
0001
1000
0010
0100
0001
0100
0010
1000
0001
1000
0010
0100
0001
0100
,
0010
1000
0010
1000
0001
0010
0001
1000
0100
0010
0100
1000
0001
0010
0001
1000
,
0100
0010
0100
1000
0001
0010
0001
1000
0100
0010
0100
1000
0001
0010
0001
1000
,
0001
0100
0001
1000
0001
0010
0001
0010
0100
1000
0010
0100
0010
0100
0001
1000
,
0100
1000
0100
0010
0001
0010
0100
1000
0001
1000
0100
0010
0001
0010
0100
1000
,
0001
1000
0001
0100
0010
1000
0010
1000
0001
0010
0100
1000
0100
1000
0001
1000
,
0100
0010
0100
0010
0001
0010
0100
1000
0001
1000
0100
0010
0001
0010
0100
1000
,
0001
1000
0001
1000
0001
0100
0001
0100
0010
1000
0100
1000
0100
1000
0001
0010
,
0100
1000
0001
1000
0001
1000
0001
0100
0010
0100
0001
1000
0010
1000
0001
0100
,
0001
1000
0010
1000
0001
1000
0001
1000
0100
1000
0100
0010
0001
0010
0100
1000
,
0001
1000
0001
0100
0010
0100
0001
1000
0010
1000
0001
1000
0010
0100
0001
1000
,
0010
0100
0010
1000
0001
1000
0010
0100
0001
1000
0010
0100
0001
1000
0010
0100
,
0001
1000
0010
0100
0001
1000
0010
1000
0001
1000
0010
1000
0001
0100
0010
0100
,
0001
1000
0001
1000
0100
0010
0001
1000
0100
1000
0001
0010
0100
0010
0001
1000
,
0100
1000
0100
1000
0010
0100
0001
0010
0001
0100
0010
1000
0100
0010
0100
1000
,
0010
0100
0010
0100
0001
0000
2000
3000
0200
0300
0010
0000
0200
0300
2000
3000
,
0001
0000
2000
3000
0010
0000
0200
0300
0002
0003
1000
0000
0002
0003
0200
0300
,
0010
0000
0200
0300
0001
0000
2000
3000
0200
0300
0010
0000
0200
0300
2000
3000
,
0001
0000
2000
3000
0010
0000
0200
0300
0002
0003
0020
0030
0200
0300
0020
0030
,
0002
0003
2000
3000
0010
0000
0200
0300
0002
0003
1000
0000
0002
0003
0200
0300
,
0010
0000
0200
0300
0001
0000
2000
3000
0200
0300
0010
0000
0200
0300
2000
3000
,
0001
0000
2000
3000
0100
0000
0020
0030
0002
0003
1000
0000
0002
0003
0020
0030
,
0100
0000
0020
0030
0001
0000
2000
3000
0002
0003
0200
0300
0020
0030
0200
0300
,
0002
0003
0020
0130
1000
0000
0002
0003
0200
0300
0001
0000
0200
0300
0010
0000
,
1000
0000
0020
0030
0100
0000
0002
0003
0020
0030
0100
0000
0020
0030
0002
0003
,
0100
0000
0002
0003
1000
0000
0200
0300
0020
0030
0001
0000
0020
0030
0200
0300
,
1000
0000
0200
0300
0010
0000
0002
0003
2000
3000
0020
0030
0200
0301
2000
3000
,
0200
0300
0020
0030
0001
0000
0020
0030
0200
0300
1000
0000
0200
0300
0020
0030
,
0001
0000
0020
0030
0100
0000
2000
3000
0020
0030
0100
0000
0020
0030
2000
3000
,
0001
0000
2000
3000
0010
0000
0200
0300
0002
0003
1000
0000
0002
0003
0200
0300
,
0010
0000
0200
0300
0001
0000
2000
3000
0200
0300
0020
0030
0002
0003
0020
0030
,
0200
0000
0300
0000
2000
3000
0001
0000
2000
3000
0010
0000
1000
0000
0010
0000
0100
0000
0001
0000
2000
3000
0100
0000
1000
0000
0100
0000
0010
0000
0001
0000
,
2000
3000
0010
0000
1000
0000
0010
0000
0100
0000
0001
0000
1000
0000
0001
0000
0100
0000
0010
0000
1000
0000
0001
0000
0100
0000
0001
0000
1000
0000
0001
0000
,
1000
0010
0100
0001
1000
0001
0010
0100
1000
0001
0010
0001
1000
0001
0010
0100
,
1000
0000
0001
0000
0010
0000
0001
0000
2000
3000
0001
0000
1000
0000
0010
0000
1000
0000
0001
0000
0100
0000
0001
0000
0010
0000
0100
0000
1000
0000
0001
0000
,
1000
0000
0010
0000
0100
0000
0001
0000
2000
3000
0100
0000
1000
0000
0100
0000
0010
0000
0001
0000
2000
3000
0010
0000
1000
0000
0010
0000
0100
0000
0001
0000
,
0020
0030
0001
0000
0010
0000
0001
0000
1000
0000
0001
0000
0010
0000
0100
0000
1000
0000
0001
0000
0100
0000
0001
0000
1000
0000
0001
0000
0100
0000
0010
0000
,
1000
0000
0010
0000
0100
0000
0001
0000
0020
0030
0001
0000
1000
0000
0100
0000
0010
0000
0100
0000
1000
0000
0100
0000
0010
0000
0001
0000
1000
0000
0001
0000
,
0010
0000
0100
0000
1000
0000
0001
0000
2000
3000
0010
0000
0100
0000
0001
0000
1000
0000
0010
0000
1000
0000
0001
0000
0020
0030
0100
0000
0010
0000
0001
0000
,
0100
0000
0001
0000
1000
0000
0100
0000
0020
0030
0001
0000
0010
0000
0001
0000
1000
0000
0010
0000
0200
0300
0001
0000
0100
0000
0001
0000
1000
0000
0001
0000
,
2000
3000
0100
0000
1000
0000
0100
0000
0010
0000
0001
0000
1000
0000
0001
0000
0010
0000
0100
0000
1000
0000
0001
0000
0010
0000
0001
0000
1000
0000
0001
0000
,
1000
0100
0010
0001
1000
0001
0100
0010
1000
0001
0100
0001
1000
0001
0100
0010
,
1000
0000
0001
0000
0100
0000
0001
0000
2000
3000
0001
0000
1000
0000
0100
0000
1000
0000
0001
0000
0010
0000
0001
0000
0100
0000
0010
0000
1000
0000
0001
0000
,
1000
0000
0010
0000
0100
0000
0001
0000
2000
3000
0100
0000
1000
0000
0100
0000
0010
0000
0001
0000
2000
3000
0010
0000
1000
0000
0010
0000
0100
0000
0001
0000
,
0020
0030
0001
0000
0010
0000
0001
0000
1000
0000
0001
0000
0010
0000
0100
0000
1000
0000
0001
0000
0100
0000
0001
0000
1000
0000
0001
0000
0100
0000
0010
0000
,
1000
0000
0010
0000
0100
0000
0001
0000
0020
0030
0001
0000
1000
0000
0100
0000
0010
0000
0100
0000
1000
0000
0100
0000
0010
0000
0001
0000
1000
0000
0001
0000
,
0010
0000
0100
0000
1000
0000
0001
0000
2000
3000
0010
0000
0100
0000
0001
0000
1000
0000
0001
0000
0100
0000
0010
0000
2000
3000
0100
0000
1000
0000
0001
0000
,
0100
0000
0010
0000
1000
0000
0001
0000
M020
0030
0000
0000
0100
0000
0000
0000
1000
0000
0001
0000
2000
3000
0000
0000
0001
0000
1000
0000
0001
0000
0000
0000
,
0020
0030
0100
0000
1000
0000
0000
0000
0001
0000
1000
0000
0100
0000
0000
0000
0010
0000
0001
0000
0010
0000
0000
0000
0001
0000
0010
0000
0001
0000
0000
0000
,
1000
0001
0100
0000
0010
1000
0001
0000
1000
0010
1000
0000
0010
1000
0010
0000
,
0100
0000
0001
0000
1000
0000
0000
0000
0002
0003
0100
0000
0010
0000
0000
0000
1000
0000
0001
0000
1000
0000
0000
0000
0001
0000
1000
0000
0001
0000
0000
0000
,
1000
0000
0100
0000
0010
0000
0000
0000
0002
0003
1000
0000
0010
0000
0000
0000
0100
0000
0001
0000
0200
0300
0000
0000
0001
0000
0100
0000
0001
0000
0000
0000
,
2000
3000
0001
0000
0010
0000
0000
0000
0100
0000
1000
0000
0001
0000
0000
0000
0010
0000
0100
0000
0010
0000
0000
0000
0100
0000
0010
0000
0100
0000
0000
0000
,
1000
0000
0001
0000
0010
0000
0000
0000
0002
0003
1000
0000
0100
0000
0000
0000
1000
0000
0001
0000
1000
0000
0000
0000
0001
0000
1000
0000
0001
0000
0000
0000
,
0100
0000
0001
0000
1000
0000
0000
0000
0002
0003
0100
0000
0010
0000
0000
0000
1000
0000
0001
0000
1000
0000
0000
0000
0002
0003
0000
0000
0010
0000
0000
0000
,
0100
0000
0000
0000
1000
0000
0100
0000
2000
3000
0000
0000
0001
0000
0000
0000
1000
0000
0010
0000
2000
3000
0000
0000
0010
0000
1000
0000
0010
0000
0000
0000
,
0200
0300
0001
0000
1000
0000
0000
0000
0001
0000
0100
0000
0010
0000
0000
0000
1000
0000
0001
0000
1000
0000
0000
0000
0001
0000
1000
0000
0001
0000
0000
0000
,
0010
0100
1000
0000
0001
1000
0100
0000
0010
0001
0010
0000
0001
0010
0001
0000
,
1000
0000
0100
0000
0010
0000
0000
0000
0002
0003
1000
0000
0010
0000
0000
0000
0100
0000
0001
0000
0100
0000
0000
0000
0001
0000
0100
0000
0001
0000
0000
0000
,
1000
0000
0000
0000
0100
0000
0010
0000
0002
0003
1000
0000
0001
0000
0000
0000
0010
0000
0100
0000
0020
0030
0000
0000
0100
0000
0010
0000
0100
0000
0000
0000
,
2000
3000
0001
0000
0010
0000
0000
0000
0001
0000
0010
0000
0100
0000
0000
0000
1000
0000
0100
0000
1000
0000
0000
0000
0100
0000
1000
0000
0100
0000
0000
0000
,
1000
0000
0001
0000
0100
0000
0000
0000
0020
0030
1000
0000
0001
0000
0000
0000
1000
0000
0100
0000
1000
0000
0000
0000
0100
0000
1000
0000
0100
0000
0000
0000
,
1000
0000
0001
0000
0100
0000
0000
0000
0020
0030
1000
0000
0001
0000
0000
0000
1000
0000
0001
0000
1000
0000
0000
0000
0002
0003
0000
0000
0010
0000
0000
0000
,
0100
0000
0000
0000
1000
0000
0001
0000
0200
0300
0000
0000
0001
0000
0000
0000
1000
0000
0001
0000
2000
3000
0000
0000
0001
0000
1000
0000
0001
0000
0000
0000
,
0020
0030
0000
0000
0100
0000
0000
0000
0010
0000
0000
0000
0100
0000
0000
0000
1000
0000
0100
0000
1000
0000
0000
0000
0100
0000
1000
0000
0100
0000
0000
0000
,
1000
0000
0010
0000
1000
0000
0010
0000
0100
0001
0100
0000
0001
0100
0001
0000
,
1000
0000
0000
0000
0001
0000
0000
0000
0020
0030
0000
0000
0001
0000
0000
0000
1000
0000
0100
0000
1000
0000
0000
0000
0001
0000
1000
0000
0001
0000
0000
0000
,
1000
0000
0000
0000
0001
0000
0000
0000
0200
0300
0000
0000
0010
0000
0000
0000
1000
0000
0010
0000
2000
3000
0000
0000
0010
0000
1000
0000
0010
0000
0000
0000
,
0200
0300
0000
0000
0001
0000
0000
0000
0100
0000
0000
0000
0001
0000
0000
0000
1000
0000
0001
0000
1000
0000
0000
0000
0001
0000
1000
0000
0001
0000
0000
0000
,
0010
0000
0000
0000
0100
0000
0000
0000
2000
3000
0000
0000
0100
0000
0000
0000
1000
0000
0001
0000
1000
0000
0000
0000
0001
0000
1000
0000
0001
0000
0000
0000
,
0010
0000
0000
0000
0001
0000
0000
0000
0200
0300
0000
0000
0001
0000
0000
0000
1000
0000
0010
0000
1000
0000
0000
0000
0002
0003
1000
0000
0001
0000
0000
0000
,
0010
0000
0000
0000
0100
0000
0000
0000
2000
3000
0000
0000
0001
0000
0000
0000
0100
0000
0010
0000
0200
0300
0000
0000
0010
0000
0100
0000
0010
0000
0000
0000
,
2000
3000
0000
0000
0001
0000
0000
0000
1000
0000
0000
0000
0001
0000
0000
0000
0010
0000
0001
0000
0010
0000
0000
0000
0001
0000
0010
0000
0001
0000
0000
0000
,
1000
0000
0100
0000
0010
0000
0100
0000
1000
0100
1000
0000
0100
1000
0100
0000
,
1000
0000
0000
0000
0001
0000
0000
0000
0200
0300
0000
0000
0001
0000
0000
0000
1000
0000
0001
0000
1000
0000
0000
0000
0001
0000
1000
0000
0001
0000
0000
0000
,
1000
0000
0000
0000
0100
0000
0000
0000
0020
0030
0000
0000
0100
0000
0000
0000
1000
0000
0100
0000
2000
3000
0000
0000
0100
0000
1000
0000
0100
0000
0000
0000
,
0020
0030
0000
0000
0001
0000
0000
0000
0010
0000
0000
0000
0001
0000
0000
0000
1000
0000
0001
0000
1000
0000
0000
0000
0001
0000
1000
0000
0001
0000
0000
0000
,
1000
0000
0000
0000
0010
0000
0000
0000
0200
0300
0000
0000
0001
0000
0000
0000
1000
0000
0001
0000
1000
0000
0000
0000
0001
0000
1000
0000
0001
0000
0000
0000
,
1000
0000
0000
0000
0001
0000
0000
0000
0020
0030
0000
0000
0100
0000
0000
0000
0010
0000
0000
0000
0001
0000
0000
0000
2000
3000
0001
0000
1000
0000
0001
0000
,
0100
0000
0010
0000
0100
0000
0010
0000
2000
3000
0000
0000
0001
0000
0000
0000
0010
0000
0000
0000
0001
0000
0000
0000
0100
0000
0000
0000
0010
0000
0000
0000
,
1000
0010
0100
0001
0010
0001
0100
0010
,
1000
0010
0100
0001
1000
0001
0010
0100
,
1000
0100
0010
0001
0100
0001
1000
0100
,
0010
0100
1000
0010
0100
0010
1000
0001
,
0100
0001
1000
0100
0010
0100
1000
0010
,
0100
0010
1000
0001
0010
0001
1000
0010
,
0100
0010
1000
0100
0010
0100
1000
0001
,
0100
0001
1000
0000
1100
0000
0100
0000
,
0110
0010
0011
0001
,
1001
1000
1010
0010
,
0110
0100
0101
0001
,
1001
1000
1100
0100
,
0110
0010
0011
0001
,
1001
1000
1010
0010
,
0110
0100
0101
0001
,
1001
2MM2
0000
3003
;

//---------------dance-single - 14+ (TYLR)----------------
#NOTES:
     dance-single:
     14+ (TYLR):
     Medium:
     14:
     1.000,1.000,0.332,0.707,1.000,2345.000,106.000,226.000,55.000,0.000:
0000
0000
0000
0000
,
0000
0000
0000
0000
,
0000
0000
0000
0000
,
0000
0000
0000
0000
,
0000
0000
0000
0000
,
0000
0000
0000
0000
,
0002
0000
0000
0000
,
0000
0000
0000
0000
0100
0100
0103
0001
,
10M0
0001
0010
0001
1000
0001
0100
0010
,
1000
0100
0010
0100
1000
0010
0100
0001
,
1000
0100
0010
0001
1000
0001
0010
0100
,
1000
0001
0100
0001
1000
0100
0010
0010
,
0010
0100
1000
0001
0010
0001
0100
0010
,
1000
0010
0100
0001
1000
0100
0010
0010
,
0010
0100
1000
0001
0010
0001
1000
0010
,
M110
0000
0000
0000
01M1
0000
0000
0000
1M01
0000
0000
0001
M010
0000
0100
0000
,
11M0
1000
1001
0001
0100
0010
1010
1000
,
0001
0010
0110
0100
1000
0001
0101
0100
,
0010
1000
1100
0100
0010
0001
1001
1000
,
0010
0100
0110
0010
1000
0001
1001
1000
,
1000
0001
0101
0100
0010
1000
1001
0001
,
0010
0100
1100
1000
0001
0100
0110
0010
,
1000
0001
1001
1000
0100
0010
0011
0001
,
1000
0000
1000
0000
0110
0000
0001
0000
0000
0000
0001
0000
0110
0000
1000
0001
,
1000
0010
0101
0100
0010
1000
0101
0001
,
1000
0001
0110
1000
0001
0100
1010
0010
,
1000
0001
0011
0010
0100
1000
0011
0001
,
1000
0010
0101
0100
0010
1000
1100
0100
,
0100
0010
0011
0001
1000
0010
0101
0100
,
0010
1000
1001
0001
0010
0100
1001
0001
,
0100
0010
1001
1000
0001
0010
1100
1000
,
0001
0000
0001
0000
0110
0000
100M
0000
100M
0000
0000
0000
0001
0010
0100
1000
,
00M1
0100
1010
0010
0100
0001
1010
1000
,
0001
1000
0110
0001
1000
0010
0101
0100
,
0001
1000
1100
0100
0010
0001
1100
1000
,
0001
0100
1010
0010
0100
0001
0011
0010
,
0010
0100
1100
1000
0001
0100
1010
0010
,
0100
0001
1001
1000
0100
0010
1001
1000
,
0010
0100
1001
0001
1000
0100
0011
0001
,
1000
0000
1000
0000
0110
0000
0001
0000
0001
0000
0001
0000
1M01
0000
1000
0100
,
001M
0000
0000
0000
0000
0000
0000
0000
0001
0000
0000
0000
0000
0000
0000
0000
1001
0000
0000
0000
0000
0000
0000
0000
1000
0000
0000
0000
0000
0000
0000
0000
0010
0000
0000
0000
0000
0000
0000
0000
0100
0000
0000
0000
0000
0000
0000
0000
0201
0300
0000
0000
0000
0000
0000
0000
0001
0000
0000
0000
0000
0000
0000
0000
,
1000
0000
0000
0000
0000
0000
0000
0000
0200
0300
0000
0000
0000
0000
0000
0000
0011
0000
0000
0000
0000
0000
0000
0000
0010
0000
0000
0000
0000
0000
0000
0000
0002
0003
0000
0000
0000
0000
0000
0000
1000
0000
0000
0000
0000
0000
0000
0000
0110
0000
0000
0000
0000
0000
0000
0000
0001
0000
0000
0000
0000
0000
0000
0000
,
2000
0000
3000
0000
0000
0000
0000
0000
0000
0000
0000
0000
0000
0000
0000
0000
0000
0000
0000
0000
0000
0000
0000
0000
0001
0000
0000
0000
0000
0000
0000
0000
0000
0000
0000
0000
0000
0000
0000
0000
0000
0000
0000
0000
0000
0000
0000
0000
0011
0000
0000
0000
0000
0000
0000
0000
0000
0000
0000
0000
0000
0000
0000
0000
0000
0000
0000
0000
0000
0000
0000
0000
0020
0000
0000
0030
0000
0000
0000
0000
0000
0000
0000
0000
0000
0000
0000
0000
0000
0000
0000
0000
0000
0000
0000
0000
0100
0000
0000
0000
0000
0000
0000
0000
0000
0000
0000
0000
0000
0000
0000
0000
0000
0000
0000
0000
0000
0000
0000
0000
1000
0000
0000
0000
0000
0000
0000
0000
0000
0000
0000
0000
0000
0000
0000
0000
0000
0000
0000
0000
0000
0000
0000
0000
0012
0000
0000
0003
0000
0000
0000
0000
0000
0000
0000
0000
0000
0000
0000
0000
0000
0000
0000
0000
0000
0000
0000
0000
0001
0000
0000
0000
0000
0000
0000
0000
0000
0000
0000
0000
0000
0000
0000
0000
0000
0000
0000
0000
0000
0000
0000
0000
,
1000
0000
0000
0000
0000
0000
0000
0000
0020
0030
0000
0000
0000
0000
0000
0000
0101
0000
0000
0000
0000
0000
0000
0000
0100
0000
0000
0000
0000
0000
0000
0000
0020
0030
0000
0000
0000
0000
0000
0000
1000
0000
0000
0000
0000
0000
0000
0000
1001
0000
0000
0000
0000
0000
0000
0000
0001
0000
0000
0000
0000
0000
0000
0000
,
0002
0000
0000
0000
0003
0000
0000
0000
0000
0000
0000
0000
0000
0000
0000
0000
0000
0000
0000
0000
0000
0000
0000
0000
0010
0000
0000
0000
0000
0000
0000
0000
0000
0000
0000
0000
0000
0000
0000
0000
0000
0000
0000
0000
0000
0000
0000
0000
1100
0000
0000
0000
0000
0000
0000
0000
0000
0000
0000
0000
0000
0000
0000
0000
0000
0000
0000
0000
0000
0000
0000
0000
0200
0000
0000
0000
0000
0000
0000
0000
0300
0000
0000
0000
0000
0000
0000
0000
0000
0000
0000
0000
0000
0000
0000
0000
0010
0000
0000
0000
0000
0000
0000
0000
0000
0000
0000
0000
0000
0000
0000
0000
0000
0000
0000
0000
0000
0000
0000
0000
0001
0000
0000
0000
0000
0000
0000
0000
0000
0000
0000
0000
0000
0000
0000
0000
0000
0000
0000
0000
0000
0000
0000
0000
2001
0000
0000
0000
0000
0000
3000
0000
0000
0000
0000
0000
0000
0000
0000
0000
0000
0000
0000
0000
0000
0000
0000
0000
1000
0000
0000
0000
0000
0000
0000
0000
0000
0000
0000
0000
0000
0000
0000
0000
0000
0000
0000
0000
0000
0000
0000
0000
,
0010
0000
0000
0000
0200
0300
0000
0000
0101
0000
0000
0000
0001
0000
0000
0000
2000
3000
0000
0000
0100
0000
0000
0000
0011
0000
0000
0000
0001
0000
0000
0000
,
2000
0000
0000
0000
0000
0000
3000
0000
0000
0000
0000
0000
0000
0000
0000
0000
0000
0000
0000
0000
0000
0000
0000
0000
0010
0000
0000
0000
0000
0000
0000
0000
0000
0000
0000
0000
0000
0000
0000
0000
0000
0000
0000
0000
0000
0000
0000
0000
0101
0000
0000
0000
0000
0000
0000
0000
0000
0000
0000
0000
0000
0000
0000
0000
0000
0000
0000
0000
0000
0000
0000
0000
0002
0000
0000
0000
0000
0000
0000
0000
0003
0000
0000
0000
0000
0000
0000
0000
0000
0000
0000
0000
0000
0000
0000
0000
1000
0000
0000
0000
0000
0000
0000
0000
0000
0000
0000
0000
0000
0000
0000
0000
0000
0000
0000
0000
0000
0000
0000
0000
0100
0000
0000
0000
0000
0000
0000
0000
0000
0000
0000
0000
0000
0000
0000
0000
0000
0000
0000
0000
0000
0000
0000
0000
0021
0000
0000
0000
0000
0000
0000
0000
0030
0000
0000
0000
0000
0000
0000
0000
0000
0000
0000
0000
0000
0000
0000
0000
0001
0000
0000
0000
0000
0000
0000
0000
0000
0000
0000
0000
0000
0000
0000
0000
0000
0000
0000
0000
0000
0000
0000
0000
,
0100
0000
0000
0000
0000
0000
0200
0000
0300
0000
0000
0000
1010
0000
0000
0000
0000
0000
1000
0000
0000
0000
0000
0000
0002
0000
0003
0000
0000
0000
1000
0000
0000
0000
0000
0000
110M
0000
0000
0000
0000
0000
0100
0000
0000
0010
0000
0000
,
M002
0103
0001
0100
0001
0100
0020
1030
0010
1000
0010
1000
0002
0103
0001
0100
,
0001
0100
0020
1030
0010
1000
0010
1000
0200
0310
0001
0010
0100
1000
0001
1000
,
0002
0013
0001
0010
0001
0010
0200
1300
0100
1000
0100
1000
0002
0013
0001
0010
,
0001
0010
0200
1300
0100
1000
0100
1000
0002
1003
0100
0010
0001
0010
0100
1000
,
0002
0103
0001
0100
0001
0100
0020
1030
0010
1000
0010
1000
0002
0103
0001
0100
,
0001
0100
0020
1030
0010
1000
0010
1000
0200
0310
0001
1000
0100
1000
0001
0010
,
0002
1003
0001
1000
0001
1000
0020
0130
0010
0100
0010
0100
0002
1003
0001
1000
,
0004
0400
0000
0000
0000
0000
0000
0000
0000
0000
0000
0000
0000
0000
0000
0000
0000
0000
0000
0000
0000
0000
0000
0000
,
0303
0000
0000
0000
2MM1
0000
3000
0020
0000
0030
0200
0000
0000
0000
0000
0000
,
0000
0000
0000
0000
0301
0000
0000
0001
0000
0000
0001
0000
2000
0000
0000
0000
,
0000
0000
3000
0000
02M0
0000
0300
002M
0000
0030
M002
0000
0000
0000
0000
0000
,
0003
0000
0000
0000
2M00
0000
3000
1000
0000
0000
1000
0000
0020
0000
0030
0000
,
0200
0000
0300
0000
00M2
0000
0003
2000
0000
3000
0200
0000
0000
0000
0000
0000
,
0000
0000
0000
0000
0310
0000
0000
0010
0000
0000
0010
0000
0002
0000
0000
0000
,
0000
0000
0003
0000
2M00
0000
3000
002M
0000
0030
M200
0000
0000
0000
0000
0000
,
0300
0000
0000
0000
00M2
0000
0003
0001
0000
0000
0001
0000
0020
0000
0000
0030
,
0200
0000
0000
0000
0000
0000
0300
0000
20M0
3000
0100
0000
0010
0000
0000
0000
0010
0000
0001
0000
0000
0000
0001
0000
0000
0000
0001
0000
0100
0000
0000
0000
,
0100
0010
0000
0010
0M00
0010
1000
0M00
1000
0001
0M00
0001
2000
0000
0000
0000
,
0000
0000
0000
0000
0000
0000
0000
0000
3M02
0003
0010
0000
0100
0000
0000
0000
0100
0000
1000
0000
0000
0000
1000
0000
0000
0000
1000
0000
0001
0000
0000
0000
,
0001
0100
0000
0100
000M
0100
0010
000M
0010
1000
000M
1000
0200
0000
0000
0300
,
0020
0000
0000
0000
0000
0000
0030
0000
M002
0003
0010
0000
0100
0000
0000
0000
0100
0000
1000
0000
0000
0000
1000
0000
0000
0000
1000
0000
0010
0000
0000
0000
,
0010
0100
0000
0100
00M0
0100
0001
00M0
0001
1000
00M0
1000
0002
0000
0000
0000
,
0000
0000
0000
0000
0000
0000
0000
0000
20M3
3000
0100
0000
0010
0000
0000
0000
0010
0000
0001
0000
0000
0000
0001
0000
0000
0000
0001
0000
1000
0000
0000
0000
,
1000
0000
0010
0000
0000
0000
0010
0000
020M
0300
0010
0000
1000
0000
000M
0000
1000
0000
0100
0000
000M
0000
0100
0000
0020
0000
0000
0000
0000
0000
0030
0000
,
0002
0000
0000
0003
1000
0000
0100
0000
0010
0000
10M0
0000
0100
0000
0010
0000
,
10M0
0001
1000
0001
0100
0000
0010
0000
1000
0000
1000
0000
0001
0010
0100
0000
,
4000
0000
3100
0010
0001
0000
1000
0000
0010
0000
00M1
0000
1000
0000
0010
0000
,
0100
0001
0100
0001
2000
0000
3000
0000
0100
0000
0100
0000
0010
0001
1000
0000
,
0004
0000
0103
0010
2000
3000
0001
0000
0010
0000
10M0
0000
0001
0000
0010
0000
,
0100
1000
0100
1000
0001
0000
0000
0000
0100
0000
0100
0000
0010
1000
0001
0000
,
1000
0100
1000
0100
0020
0030
0001
0000
1000
0000
M010
0000
0001
0000
1000
0000
,
0001
0100
0001
0100
0010
0000
0000
0000
1000
0000
1000
0000
0001
1000
0001
0000
,
0040
0004
0000
0030
0003
0000
2000
0000
0000
3001
0000
0000
0100
0000
0000
1M00
0000
0000
0001
0000
0000
0100
0000
0000
,
0010
1000
0010
1000
0001
0000
0000
0000
1000
0000
1000
0000
0001
0010
0100
0000
,
4000
0000
3010
0100
0001
0000
1000
0000
0100
0000
0M01
0000
1000
0000
0100
0000
,
0010
0001
0010
0001
1000
0000
0000
0000
0010
0000
0010
0000
1000
0010
0100
0001
,
1000
0000
0000
0000
1002
0003
1000
0000
0100
0000
0M01
0000
1000
0000
0100
0000
,
0010
0000
0001
0010
0100
0000
0000
0000
1000
0000
1000
0000
0001
0100
0010
1000
,
0004
0000
4000
0000
0000
0000
0003
0000
3000
0000
0000
0000
0002
0000
0000
0003
0000
0000
1000
0000
0000
0000
0000
0000
0100
0000
0000
0000
0000
0000
0M01
0000
0000
0000
0000
0000
1000
0000
0000
0000
0000
0000
0100
0000
0000
0000
0000
0000
,
0010
0001
0100
0000
0001
0001
200M
0000
,
3002
0000
0000
0000
10M3
0100
0010
0001
1000
0100
0010
0001
1000
0100
0010
0001
,
1000
0001
0100
0010
1000
0010
0100
0001
1000
0001
0100
0001
1000
0010
0100
0001
,
1000
0001
0100
0001
0010
0100
1000
0001
0010
0001
1000
0001
0100
0010
1000
0010
,
0100
0001
1000
0001
1000
0100
0010
0001
1000
0001
0010
0100
1000
0010
0100
0001
,
1000
0010
0100
0001
0010
0100
1000
0001
0010
0100
1000
0001
0010
0100
1000
0001
,
0100
0010
1000
0001
0100
0010
1000
0001
1000
0010
0100
0001
1000
0001
1000
0010
,
1000
0001
0100
0001
0010
0100
1000
0001
0010
0001
1000
0001
0100
0010
1000
0010
,
0100
0001
0100
0001
1000
0100
0010
0001
1000
0001
0100
0001
1000
0100
0010
0001
,
1000
0000
0001
0000
1000
0010
0100
0001
1000
0010
0100
0001
1000
0010
1000
0001
,
0010
0100
1000
0001
0010
0001
1000
0100
0010
0001
1000
0001
1000
0100
0010
0100
,
1000
0001
0010
0001
0100
0010
1000
0010
0100
0010
1000
0001
1000
0010
0100
0010
,
1000
0001
1000
0010
0100
0001
1000
0001
1000
0010
1000
0001
0100
0001
1000
0010
,
0100
0010
0100
0001
0010
0100
1000
0001
0010
0001
1000
0100
0010
0001
1000
0001
,
0100
0010
1000
0010
0100
0001
1000
0001
0100
0010
1000
0001
1000
0010
1000
0001
,
0010
0100
0010
0001
1000
0001
0100
0010
1000
0001
1000
0001
0010
0001
1000
0010
,
0100
0001
1000
0001
1000
0000
0000
0000
0000
0000
0000
0000
0000
0000
0000
0000
,
0000
0000
0001
0000
0010
0100
1000
0100
1000
0001
0100
0010
0100
0010
1000
0001
,
0010
0001
0010
0100
1000
0100
0010
0001
1000
0001
0010
0100
1000
0001
0100
0001
,
1000
0010
0100
0010
1000
0001
0010
0001
1000
0100
0010
0001
1000
0001
0100
0010
,
1000
0010
0100
0001
1000
0001
0010
0100
1000
0100
0010
0001
1000
0001
0010
0001
,
1000
0001
0010
0100
1000
0001
0100
0010
1000
0001
0100
0010
1000
0001
0100
0010
,
1000
0001
0010
0100
1000
0001
0010
0100
1000
0100
0010
0001
0100
0010
0100
0001
,
1000
0001
0100
0010
1000
0001
0010
0001
1000
0100
1000
0001
1000
0001
0100
0010
,
1000
0010
0100
0001
1000
0001
1000
0100
0010
0001
1000
0001
1000
0001
0010
0001
,
1000
0000
0001
0000
0100
0010
1000
0001
0100
0010
1000
0001
0100
0010
1000
0001
,
0010
0001
1000
0001
0010
0001
1000
0100
0010
0100
1000
0001
1000
0100
1000
0001
,
1000
0100
0010
0001
0100
0010
1000
0001
0010
0001
1000
0010
0100
0001
1000
0001
,
0100
0010
1000
0001
0100
0001
1000
0001
1000
0100
0010
0001
1000
0000
0001
0000
,
1000
0000
0000
0001
0000
0000
1000
0000
0100
0000
0010
0000
0001
0000
0000
0000
0000
0000
0000
0000
0000
0000
0000
0000
0000
0000
0000
0000
0000
0000
0000
0000
0000
0000
0000
0000
0000
0000
0000
0000
0000
0000
0000
0000
0000
0000
0000
0000
,
0000
0020
0000
0000
,
0000
0031
0010
0001
,
1000
0000
0000
0000
0001
0000
1000
0000
0001
0000
1000
0000
0001
0100
0001
0100
,
0001
0100
0001
0100
0010
1000
0001
0100
0010
1000
0100
0010
0001
1000
0100
1000
,
0001
1000
0001
0100
0010
0100
0001
1000
0010
1000
0001
0100
0010
0100
0001
1000
,
0100
0010
0100
1000
0001
1000
0010
0100
0010
1000
0100
0010
0001
0010
0100
1000
,
0001
0100
0001
1000
0010
1000
0001
0100
0010
0100
0001
1000
0010
1000
0001
1000
,
0100
0010
0100
1000
0001
1000
0001
0100
0010
1000
0100
1000
0001
1000
0100
0010
,
0001
1000
0010
1000
0001
0100
0010
1000
0001
1000
0010
0100
0001
1000
0010
1000
,
0001
1000
0001
1000
0100
0010
0001
0010
0100
1000
0001
1000
0100
0010
0100
1000
,
0001
0010
0001
1000
0001
1000
0100
1000
0001
0010
0100
1000
0001
1000
0100
0010
,
0001
0000
1000
0000
0001
0100
0010
1000
0010
1000
0001
1000
0100
0010
0100
0010
,
0001
1000
0001
1000
0001
0100
0010
1000
0001
1000
0010
0100
0001
0100
0001
1000
,
0100
0010
0100
1000
0100
0010
0100
0010
0001
1000
0001
0100
0001
0100
0010
1000
,
0001
0100
0001
0100
0010
1000
0001
1000
0010
1000
0001
1000
0010
0100
0010
0100
,
0001
0100
0010
1000
0001
0010
0001
0010
0100
1000
0010
0100
0010
0100
0001
0100
,
0010
1000
0001
1000
0010
0100
0001
0100
0010
1000
0001
1000
0010
0100
0001
0100
,
0010
1000
0010
1000
0001
0010
0001
1000
0100
0010
0100
1000
0001
0010
0001
1000
,
0100
0010
0100
1000
0001
0010
0001
1000
0100
0010
0100
1000
0001
0010
0001
0000
,
1000
0000
0001
0000
1000
0010
1000
0010
0100
0001
0010
0100
0010
0100
1000
0001
,
0100
0001
0100
0010
1000
0010
0100
0001
1000
0001
0100
0010
1000
0010
0100
0001
,
1000
0001
1000
0100
0010
0001
0010
0001
1000
0010
0100
0001
0100
0001
1000
0001
,
0100
0010
0100
0010
1000
0010
0100
0001
1000
0001
0100
0010
1000
0010
0100
0001
,
1000
0001
1000
0001
1000
0100
1000
0100
0010
0001
0100
0001
0100
0001
1000
0010
,
0100
0001
1000
0001
1000
0001
1000
0100
0010
0100
1000
0001
0010
0001
1000
0100
,
1000
0001
0010
0001
1000
0001
1000
0001
0100
0001
0100
0010
1000
0010
0100
0001
,
1000
0001
1000
0100
0010
0100
1000
0001
0010
0001
1000
0001
0010
0100
1000
0001
,
0010
0000
0001
0000
1000
0001
0100
0010
1000
0001
0100
0010
1000
0001
0100
0010
,
1000
0001
0100
0010
1000
0001
0100
0001
1000
0001
0100
0001
1000
0010
0100
0010
,
1000
0001
1000
0001
0010
0100
1000
0001
0010
0001
1000
0100
0010
0100
1000
0001
,
0010
0001
0010
0001
0100
0000
0000
0001
0000
0000
0010
0000
0000
0100
0000
0000
,
1000
0001
1000
0001
0100
0000
0002
0003
0020
0000
0130
0000
0020
0000
0032
0003
,
1000
0000
0002
0003
0100
0000
0020
0030
2000
0000
3001
0000
2000
0000
3020
0030
,
0100
0000
0020
0030
1000
0000
0002
0003
0020
0000
0130
0000
0020
0000
0032
0003
,
1000
0000
0002
0003
0100
0000
0020
0030
2000
3000
0200
0300
0002
0003
0200
0300
,
0020
0030
0002
0003
1000
0000
0020
0030
0200
0000
0301
0000
0200
0000
0320
0030
,
1000
0000
0020
0030
0100
0000
0002
0003
0020
0000
0130
0000
0020
0000
0032
0003
,
1000
0000
0002
0003
0010
0000
0200
0300
2000
0000
3001
0000
2000
0000
3200
0300
,
0010
0000
0200
0300
1000
0000
0002
0003
0200
0300
0020
0030
0002
0003
0020
0030
,
0200
0300
0002
1003
0100
0000
0020
0030
0002
0000
1003
0000
0002
0000
0023
0030
,
0100
0000
0020
0030
0001
0000
0200
0300
0020
0000
1030
0000
0020
0000
0230
0300
,
0001
0000
0200
0300
0010
0000
2000
3000
0200
0000
0310
0000
0200
0000
2300
3000
,
0001
0000
2000
3000
0100
0000
0020
0030
0002
0003
0200
0300
2000
3100
0020
0030
,
0200
0300
0002
0003
1000
0000
0200
0300
0020
0000
0031
0000
0020
0000
0230
0300
,
1000
0000
0200
0300
0010
0000
0002
0003
0200
0000
0310
0000
0200
0000
0302
0003
,
1000
0000
0002
0003
0100
0000
0020
0030
2000
0000
3001
0000
2000
0000
3020
0030
,
0100
0000
0020
0030
1000
0000
0002
0003
0020
0030
0200
0300
0002
0003
0200
0300
,
0020
0030
0002
1003
00M2
0103
0001
0100
0010
1000
0002
0013
0001
0010
0100
1000
,
0002
0103
0001
0100
0010
1000
0001
1000
0010
0100
0001
1000
0010
1000
0001
1000
,
0001
0100
0010
1000
0001
1000
0100
0010
0001
1000
0100
1000
0001
1000
0100
0010
,
0001
1000
0100
1000
0002
1003
0001
0100
0001
1000
0010
1000
0100
0010
0001
0000
,
1000
0000
0001
0000
2000
3010
1000
0010
0100
0001
2000
3100
1000
0100
0010
0001
,
0200
0301
0100
0001
1000
0001
0100
0010
1000
0001
0010
0001
1000
0001
0010
0100
,
1000
0100
0010
0001
0200
0301
1000
0010
0100
0010
1000
0010
0100
0001
1000
0001
,
0100
0010
1000
0001
2000
3100
0010
0001
1000
0000
0001
0000
1000
0100
1000
0000
,
0001
0000
1000
0100
0020
0031
0010
0001
1000
0010
0200
0301
0100
0001
1000
0001
,
2000
3100
1000
0100
0010
0001
1000
0001
0010
0100
1000
0001
0010
0001
1000
0001
,
1000
0100
0010
0001
1000
0001
0100
0010
1000
0001
0100
0001
1000
0001
0100
0010
,
1000
0001
0100
0001
2000
3001
1000
0100
1000
0001
0010
0001
0100
0010
1000
0000
,
0001
0000
1000
0000
0002
0013
0001
0010
0100
1000
0002
0103
0001
0100
0010
1000
,
0200
1300
0100
1000
0001
1000
0100
0010
0001
1000
0010
1000
0001
1000
0010
0100
,
0001
0100
0010
1000
0200
1300
0001
0010
0100
0010
0001
0010
0100
1000
0001
1000
,
0100
0010
0001
1000
0002
0103
0010
1000
0001
0000
1000
0000
0001
0100
0001
0000
,
1000
0000
0001
0100
M020
0000
1030
0000
0001
1000
0002
0003
1000
0001
1000
0000
,
0200
0310
0001
0000
1000
0001
0010
0000
0100
1000
0100
0000
1000
0100
1000
0000
,
0001
1000
0010
0000
0100
0001
1000
0000
0001
0100
0001
0000
0100
0001
0100
0000
,
0010
1000
0001
0000
2000
3010
0100
0000
0001
1000
0001
0000
1000
0001
1000
0000
,
0001
0010
0100
0000
2000
3001
0100
0000
0010
1000
0020
0030
1000
0010
1000
0000
,
0002
1003
0100
0000
0010
0001
1000
0000
0100
0010
0100
0000
0010
0100
0010
0000
,
0001
1000
0100
0000
2000
3001
0010
0000
0001
1000
0001
0000
1000
0001
1000
0000
,
0010
1000
0001
0000
2000
3010
0100
0000
0001
1000
0001
0000
2000
3000
0100
0000
,
0010
0000
0001
0010
0002
0000
1003
0000
0001
0100
0002
0003
0100
0001
0100
0000
,
0020
1030
0001
0000
1000
0010
0100
0000
0001
1000
0001
0000
1000
0001
1000
0000
,
0100
0010
0001
0000
1000
0000
0001
0010
0100
1000
0100
0000
1000
0100
1000
0000
,
0001
0010
0100
0000
2000
3001
0100
0000
0010
1000
0010
0000
1000
0010
1000
0000
,
0001
1000
0100
0000
0020
0031
1000
0000
0100
0010
0200
0300
0010
0100
0010
0000
,
0002
1003
0100
0000
1000
0100
0010
0000
0001
0010
0001
0000
0010
0001
0010
0000
,
0001
1000
0010
0000
0200
0301
1000
0000
0001
0010
0001
0000
0010
0001
0010
0000
,
0001
1000
0010
0000
0200
0301
1000
0000
0001
1000
0001
0000
2000
3000
0100
0000
,
0010
0000
0001
1000
0020
0030
1000
0000
0001
1000
0002
0003
1000
0001
1000
0000
,
0200
0300
0010
0000
0100
0000
0010
0000
0001
0010
0001
0000
0010
0001
0010
0000
,
0001
0000
0100
0000
0001
0000
0100
0000
0010
1000
0010
0000
1000
0010
1000
0000
,
0001
0000
1000
0000
0200
0300
1000
0000
0001
0010
0001
0000
1000
0001
1000
0000
,
0001
0000
1000
0000
0020
0030
0100
0000
0001
0100
0002
0003
0100
0001
0100
0000
,
0020
0030
1000
0000
0010
0000
1000
0000
0001
1000
0001
0000
1000
0001
1000
0000
,
0100
0000
0010
0000
0002
0003
0010
0000
0001
1000
0001
0000
1000
0001
1000
0000
,
0100
0000
1000
0000
0020
0030
1000
0000
0001
0100
0001
0000
2000
3001
1000
0000
,
0100
0000
0010
0000
0002
0003
1000
0000
0010
0100
0020
0030
0100
0010
0100
0000
,
0002
0003
1000
0000
0001
0000
1000
0000
0100
1000
0100
0000
1000
0100
1000
0000
,
0001
0000
0010
0000
0200
0300
0010
0000
0001
0010
0001
0000
0010
0001
0010
0000
,
0001
0000
1000
0000
0020
0030
1000
0000
0001
1000
0001
0000
1000
0001
1000
0000
,
0001
0000
0010
0000
0200
0300
0010
0000
0001
0010
0002
0003
0010
0001
0010
0000
,
0200
0300
1000
0000
0100
0000
1000
0000
0001
1000
0001
0000
1000
0001
1000
0000
,
0001
0000
0100
0000
0020
0030
1000
0000
0001
1000
0001
0000
1000
0001
1000
0000
,
0001
0000
1000
0000
0200
0300
0010
0000
0100
0000
1000
0000
0002
1003
0001
1000
,
0010
0100
0010
0100
0001
0000
0000
0000
1001
0000
0000
0000
0100
0000
0000
0000
,
0011
0100
1001
0100
,
1010
0001
0110
1000
,
0011
0100
1001
0100
,
1010
0001
0110
1000
,
0011
1000
0110
0001
,
1010
0001
0110
1000
,
0101
0010
1001
0100
,
0011
1000
1010
0010
,
0110
0100
0101
0001
,
1001
1000
1100
0100
,
0110
0010
0011
0001
,
1001
1000
1010
0010
,
0110
0100
0101
0001
,
1001
1000
1100
0100
,
0110
0010
0011
0001
,
1001
2MM2
0000
3003
;
