#TITLE:Marine Snow;
#SUBTITLE:;
#ARTIST:OutPhase;
#TITLETRANSLIT:;
#SUBTITLETRANSLIT:;
#ARTISTTRANSLIT:;
#CREDIT:;
#BANNER:marine snow-bn.png;
#BACKGROUND:marine snow.png;
#LYRICSPATH:;
#CDTITLE:renb.png;
#MUSIC:Marine Snow (DWI Edit).mp3;
#OFFSET:-0.095;
#SAMPLESTART:139.450;
#SAMPLELENGTH:28.000;
#SELECTABLE:YES;
#BPMS:0.000=74.005,32.000=148.010,144.000=74.005,176.000=148.010,240.000=74.005,242.000=148.010,244.000=296.020,248.000=148.010,472.000=74.005;
#STOPS:;
#BGCHANGES:;
// cache tags:
#FIRSTBEAT:4.500;
#LASTBEAT:508.000;
#SONGFILENAME:Songs/Ace Megapack/Marine Snow/marine snow.sm;
#HASMUSIC:1;
#HASBANNER:1;
#MUSICLENGTH:253.080;
// end cache tags

//---------------dance-single - ----------------
#NOTES:
     dance-single:
     :
     Hard:
     11:
     0.816,0.979,0.332,0.142,1.000,1325.000,84.000,36.000,0.000,0.000:  // measure 1
0000
0000
0000
0000
,  // measure 2
0000
0000
0100
0000
0100
0000
0000
1000
0000
0000
0010
0000
0000
1000
0000
0000
,  // measure 3
0000
0000
0001
0000
0001
0000
0000
0100
0000
0000
0010
0000
0000
1000
0000
0000
,  // measure 4
0000
0000
0010
0000
1000
0001
0000
0010
0000
0010
0001
0000
1000
0001
0000
0000
,  // measure 5
0000
0000
0000
0000
1000
0000
0100
1000
0100
0000
1000
0001
0000
0000
0100
0000
0001
0100
0000
0000
0001
0000
1000
0001
0000
0000
1000
0000
0001
1000
0000
0000
,  // measure 6
0000
0000
0000
0000
0001
0000
0100
0001
0100
0000
0001
1000
0000
0000
0100
0000
1000
0100
0000
0000
1000
0000
0001
1000
0000
0000
0001
0000
1000
0001
0000
0000
,  // measure 7
0000
0000
0000
0000
0001
0000
0100
0010
0000
0010
1000
0000
1000
0000
0100
0010
0000
0010
0001
0000
1000
0000
0010
1000
0000
0001
0100
0000
0001
0000
0010
0001
,  // measure 8
0000
1000
0100
0000
1000
0000
0001
1000
0000
1000
0001
0000
0100
0000
0010
0100
0000
0100
0010
0000
1000
0000
0001
1000
0000
0001
0100
0000
0010
0000
1000
0001
,  // measure 9
1000
0000
0100
0000
1000
0100
0000
1000
0100
1000
0000
1000
0100
1000
0000
0000
,  // measure 10
0001
0000
0100
0000
0001
0100
0000
0001
0100
0001
0000
0001
0100
0001
0000
0000
,  // measure 11
0010
0000
0001
0000
1000
0010
0000
0100
0001
0100
0000
0100
0001
0100
0000
0000
,  // measure 12
0010
0000
1000
0000
0001
0010
0000
0100
1000
0100
0000
0100
1000
0100
0000
0000
,  // measure 13
1000
0000
0001
0000
0100
0010
0000
1000
0010
1000
0000
1000
0010
2000
0000
0000
,  // measure 14
3001
0000
1000
0000
0100
0010
0000
0001
0010
0001
0000
0001
0010
0002
0000
0000
,  // measure 15
1003
0000
0010
0000
0100
0010
0000
0010
0100
0010
0000
0010
0100
0020
0000
0000
,  // measure 16
1030
0000
0110
0000
0010
0001
0000
1001
0000
0100
0000
0010
0000
1000
0001
0000
,  // measure 17
1001
0000
0100
0000
1000
0001
0000
1000
0001
0010
0000
1000
0001
0010
0001
0000
,  // measure 18
1001
0000
0100
0000
0001
1000
0000
0001
1000
0010
0000
0001
1000
0010
1000
0000
,  // measure 19
0110
0000
0001
0000
0100
0010
0000
1000
0010
0100
0000
1000
0010
0100
0010
0000
,  // measure 20
0110
0000
1000
0000
0100
0010
0000
0001
0010
0100
0000
0001
0010
0100
0010
0000
,  // measure 21
0012
0000
0013
0000
0001
0100
0000
0100
0001
0100
0000
0001
0100
0001
0100
0000
,  // measure 22
2010
0000
3010
0000
1000
0100
0000
0100
1000
0100
0000
1000
0100
1000
0100
0000
,  // measure 23
0201
0000
0301
0000
1000
0001
0000
0001
1000
0001
0000
1000
0001
1000
0001
0000
,  // measure 24
1001
0000
0110
0000
0010
0100
0000
0110
0000
1001
0000
0100
0000
0010
0001
1000
,  // measure 25
0110
1000
0100
1000
0100
0000
1000
0000
0001
0100
0000
0010
0000
1000
0001
1000
,  // measure 26
0000
1001
0000
0001
0010
0000
0100
0000
1000
0100
0000
0100
1000
0000
1001
0000
,  // measure 27
0100
0001
0100
0001
0100
0000
0001
0000
1000
0100
0000
0010
0000
0001
1000
0001
,  // measure 28
0000
1001
0000
1000
0010
0000
0100
0000
0001
0100
0000
0100
0001
0000
0110
0000
,  // measure 29
1001
0100
0001
0000
1000
0100
0000
1000
0001
1000
0000
0001
1000
0002
0000
0000
,  // measure 30
1003
0010
0001
0000
0010
0100
0000
0001
0100
0010
0000
0100
0010
2000
0000
0000
,  // measure 31
3001
0100
1000
0000
0100
0001
0000
1000
0010
0100
0000
0100
0010
2000
0000
0000
,  // measure 32
3001
0010
1000
0000
0010
0100
0000
1000
0001
0010
0000
1000
0001
0010
0001
0000
,  // measure 33
0001
0100
1000
0100
0001
1000
0000
0001
1000
0010
1000
0010
0100
0001
0100
0001
,  // measure 34
1000
0100
0001
0100
1000
0001
0000
1000
0001
0010
0001
0010
0100
1000
0100
1000
,  // measure 35
0001
0010
0100
0010
0001
0010
0100
1000
0010
1000
0001
1000
0010
1000
0001
1000
,  // measure 36
0100
0010
0001
0100
0010
1000
0100
0010
0001
1000
0010
0100
0001
0010
0100
2000
,  // measure 37
0002
3000
1000
0000
0010
0000
0100
0000
1000
0000
0100
0000
0010
0000
1000
1000
0000
0100
0000
0000
0010
0000
1000
0000
0010
0000
0100
0000
0010
0000
1000
0203
,  // measure 38
0000
0010
0000
0000
0001
0000
1000
0000
0010
0000
0001
0000
0010
0000
1000
0302
0000
1000
0000
0000
0100
0000
0010
0000
0100
0000
1000
0000
0010
0000
0100
2003
,  // measure 39
0000
0001
0000
0000
0010
0000
0100
0000
0001
0000
0100
0000
0010
0000
0001
0001
0000
0010
0000
0000
0100
0000
0010
0000
0001
0000
0100
0000
0010
0000
0001
3020
,  // measure 40
0000
0100
0000
0000
1000
0000
0001
0000
0100
0000
1000
0000
0100
0000
0001
0001
0000
1000
0000
0000
0100
0000
1000
0000
0001
0000
0100
0000
0001
0000
1000
0032
,  // measure 41
0000
0000
0000
0000
,  // measure 42
2003
0000
3200
0000
,  // measure 43
0320
0000
0000
0000
,  // measure 44
0032
0000
0000
0000
0000
0000
0000
0000
2000
0000
0000
0000
3003
0000
0000
0110
,  // measure 45
1001
0000
0100
0000
0001
0100
0000
0001
1000
0001
0100
0001
1000
0001
0100
0001
,  // measure 46
1000
0000
0100
0000
1000
0100
0000
1000
0001
1000
0100
1000
0001
1000
0100
1000
,  // measure 47
0001
0000
1000
0000
1000
0001
0000
0001
0100
1000
0100
0001
0100
1000
0100
0001
,  // measure 48
1000
0000
0001
0000
0001
1000
0000
1000
0100
0001
0100
1000
0100
0001
0100
1000
,  // measure 49
0011
0000
0010
0000
0100
0010
0000
0001
0010
1000
0010
0001
1000
0010
0001
0010
,  // measure 50
1010
0000
0010
0000
0100
0010
0000
1000
0010
0001
0010
1000
0001
0010
1000
0010
,  // measure 51
1001
0000
0110
0000
0001
1000
0000
0001
0100
0010
1000
0100
0010
0001
1000
0010
,  // measure 52
1001
0000
0110
0000
1000
0001
0000
1000
0100
0010
0001
0100
0010
1000
0001
0010
,  // measure 53
1100
0000
1100
0000
1000
0100
0000
1000
0100
1000
0000
1000
0001
0100
0001
0010
,  // measure 54
0101
0000
0101
0000
0001
0100
0000
0001
0100
0001
0000
0001
1000
0100
1000
0010
,  // measure 55
0101
0000
1100
0000
0100
0010
0000
0010
1000
0001
0000
0010
0001
1000
0001
0010
,  // measure 56
1100
0000
0101
0000
0100
0010
0000
0010
0001
1000
0000
0010
1000
0001
1000
0010
,  // measure 57
1001
0000
0110
0000
0100
0010
0000
0100
0010
0100
0010
0100
0001
0010
0001
0010
,  // measure 58
1001
0000
0110
0000
0100
0010
0000
0100
0010
0100
0010
0100
1000
0010
1000
0010
,  // measure 59
1000
0100
0010
0001
0100
0010
1000
0100
0010
0001
0100
0010
1000
0100
0010
0001
,  // measure 60
1000
0010
1000
0010
0100
0001
0100
0001
0010
0001
0010
0001
1000
0100
1000
0002
,  // measure 61
2000
0000
0000
0000
,  // measure 62
0000
0000
0000
3003
,  // measure 63
1001
0100
0010
0100
0001
0010
0100
1000
,  // measure 64
1000
0000
0100
0000
0010
0000
0100
0000
1000
0000
0010
0000
0100
0001
0000
0001
,  // measure 65
1000
0001
0010
0100
1000
0100
0001
1000
,  // measure 66
0001
0000
1000
0000
0010
0000
0100
0000
0001
0000
0100
0000
0001
1000
0000
1000
,  // measure 67
0001
0000
1000
0100
0010
0001
1000
0010
0000
0100
0001
0000
0001
1000
0000
0001
,  // measure 68
1000
0000
0001
0100
0010
1000
0001
0010
0000
0100
1000
0000
1000
0001
0000
1000
,  // measure 69
0100
0000
0010
0001
0100
0010
1000
0001
0000
0010
0100
0000
1000
0100
0000
1000
,  // measure 70
0010
0100
0001
1000
0100
0001
1000
0010
0001
1000
0010
0100
0001
0010
0100
1000
,  // measure 71
0001
1000
0000
1000
0001
0000
0001
0000
0001
1000
0000
0001
0000
1000
0001
1000
,  // measure 72
0000
0001
0000
0001
1000
0000
1000
0000
1000
0001
0000
1000
0000
0001
1000
0001
,  // measure 73
0000
0100
0000
0001
1000
0000
0100
0000
0010
0100
0000
1000
0000
1000
0001
0100
,  // measure 74
0000
0010
0000
1000
0001
0000
0010
0000
0100
0010
0000
0001
0000
0001
1000
0010
,  // measure 75
0000
1000
0100
1000
0100
0000
1000
0000
0001
1000
0000
0100
0000
1000
0100
1000
,  // measure 76
0000
1000
0100
1000
0100
0000
1000
0000
0001
1000
0000
0100
0000
1000
0100
1000
,  // measure 77
0000
0010
0000
0010
0010
0000
0010
0000
1000
0010
0000
0010
0000
1000
0010
1000
,  // measure 78
0000
0010
0010
0010
0010
0000
0010
0000
1000
0010
0000
0100
0000
0100
0001
0010
,  // measure 79
0000
0001
0010
0001
0010
0000
0001
0000
1000
0010
0000
0100
0000
0010
0100
0001
,  // measure 80
0000
1000
0010
1000
0010
0000
1000
0000
0001
0010
0000
0100
0000
0010
0100
1000
,  // measure 81
0000
0010
1000
0001
0100
0000
0100
0000
0010
1000
0000
0001
0000
1000
0001
0100
,  // measure 82
0000
0010
1000
0001
0100
0000
0100
0000
0010
1000
0000
0001
0000
1000
0001
0100
,  // measure 83
0000
0100
0010
0100
0010
0000
0001
0000
0010
0100
0000
0010
0000
0010
0100
1000
,  // measure 84
0000
0010
0100
0010
0100
0000
0001
0000
0100
0010
0000
0100
0000
0100
0010
1000
,  // measure 85
0000
1001
0000
0100
0010
0000
1001
0000
0010
0100
0000
0110
0000
1000
0001
1000
,  // measure 86
0000
1001
0000
0010
0100
0000
1001
0000
0100
0010
0000
0110
0000
0001
1000
0001
,  // measure 87
0110
0000
1001
0000
0001
1000
0000
0100
0010
0100
0000
0010
0100
0010
0001
1000
,  // measure 88
0110
0000
1001
0000
1000
0001
0000
0100
0010
0100
0000
0010
0100
0010
1000
0001
,  // measure 89
1100
0000
0011
0000
1000
0100
0000
0001
0100
0010
0000
0100
0010
1000
0001
1000
,  // measure 90
0101
0000
1010
0000
0001
0100
0000
1000
0100
0010
0000
0100
0010
0001
1000
0001
,  // measure 91
1000
0010
0100
0010
0100
0000
0100
0000
0001
1000
0000
0100
0000
0010
0001
1000
,  // measure 92
0001
0010
0100
0010
0100
0000
0100
0000
1000
0001
0000
0100
0000
0010
1000
0001
,  // measure 93
0000
0010
0000
0010
0010
0000
0010
0000
0001
0010
0000
0010
0000
0001
0010
0001
,  // measure 94
0000
0010
0010
0010
0010
0000
0010
0000
0001
0010
0000
0100
0000
0100
1000
0010
,  // measure 95
0000
1000
0010
1000
0010
0000
1000
0000
0001
0010
0000
0100
0000
0010
0100
1000
,  // measure 96
0000
0001
0010
0001
0010
0000
0001
0000
1000
0010
0000
0100
0000
0010
0100
0001
,  // measure 97
0000
0010
0001
1000
0100
0000
0100
0000
0010
0001
0000
1000
0000
0001
1000
0100
,  // measure 98
0000
0010
0001
1000
0100
0000
0100
0000
0010
0001
0000
1000
0000
0001
1000
0100
,  // measure 99
0000
0100
0010
0100
0010
0000
1000
0000
0010
0100
0000
0010
0000
0010
0100
0001
,  // measure 100
0000
0010
0100
0010
0100
0000
1000
0000
0100
0010
0000
0100
0000
0100
0010
0001
,  // measure 101
0000
1001
0000
0100
0010
0000
1001
0000
0010
0100
0000
0110
0000
0001
1000
0001
,  // measure 102
0000
1001
0000
0010
0100
0000
1001
0000
0100
0010
0000
0110
0000
1000
0001
1000
,  // measure 103
0011
0000
0100
0000
1010
0000
0100
0000
0001
0100
0010
1000
0001
0000
1001
0000
,  // measure 104
1010
0000
0100
0000
0011
0000
0100
0000
1000
0100
0010
0001
1000
0000
1001
0000
,  // measure 105
1100
0000
0001
0000
1100
0000
0001
0000
1000
0010
0001
0010
1000
0000
1001
0000
,  // measure 106
0101
0000
1000
0000
0101
0000
1000
0000
0001
0010
1000
0010
0001
0000
1001
0000
,  // measure 107
0000
1000
0001
1000
0001
0000
0100
0000
0010
0100
0000
0001
0000
1000
0001
1000
,  // measure 108
0000
0001
1000
0001
1000
0000
0100
0000
0010
0100
0000
1000
0000
0001
1000
0001
,  // measure 109
0000
0010
0000
0010
0010
0000
0010
0000
0100
0010
0000
0010
0000
0100
0010
0100
,  // measure 110
0000
0010
0010
0010
0010
0000
0010
0000
0010
0100
0000
0100
0000
0010
0100
0010
,  // measure 111
0011
0000
1000
0000
0101
0000
1000
0000
0010
0100
1000
0100
0010
0000
0110
0000
,  // measure 112
1010
0000
0001
0000
1100
0000
0001
0000
0010
0100
0001
0100
0010
0000
0110
0000
,  // measure 113
1001
0000
0010
0000
1001
0000
0010
0000
0100
0001
1000
0001
0010
0000
1100
0000
,  // measure 114
1001
0000
0010
0000
1001
0000
0010
0000
0100
1000
0001
1000
0010
0000
0101
0000
,  // measure 115
0000
0010
0001
0010
0001
0000
1000
0000
0010
1000
0000
0001
0000
0001
0100
1000
,  // measure 116
0000
0010
1000
0010
1000
0000
0001
0000
0010
0001
0000
1000
0000
0001
1000
0001
,  // measure 117
0000
0100
1000
0100
0001
1000
0010
0001
0010
1000
0001
1000
0100
0001
0100
1000
,  // measure 118
0001
0010
1000
0010
0001
1000
0010
0100
0001
0010
0100
1000
0001
0100
0010
2000
,  // measure 119
0002
3000
1000
0000
1000
0000
0000
0010
0000
0000
1000
0000
0000
0100
0000
0000
,  // measure 120
0203
0000
0001
0000
0001
0000
0000
0302
0000
0000
0100
0000
0000
1000
0000
0000
,  // measure 121
2003
0000
0100
0000
0100
0000
0000
0001
0000
0000
0010
0000
0000
0001
0000
0000
,  // measure 122
3020
0000
1000
0000
1000
0000
0000
0100
0000
0000
0001
0000
0000
0100
0000
0000
,  // measure 123
0200
0000
0000
0030
,  // measure 124
0002
0300
2000
0003
,  // measure 125
0200
0000
0000
3000
,  // measure 126
0020
0300
0002
0030
,  // measure 127
2000
0000
0000
0000
,  // measure 128
3003
0000
0000
0000
;
