#TITLE:Grindbreaking;
#SUBTITLE:;
#ARTIST:odaxelagnia (Feat. NeroshaTE);
#TITLETRANSLIT:;
#SUBTITLETRANSLIT:;
#ARTISTTRANSLIT:;
#CREDIT:The Cosmic Pope;
#BANNER:grindbreaking speedcore bn.png;
#BACKGROUND:grindbreaking speedcore bg.png;
#LYRICSPATH:;
#CDTITLE:;
#MUSIC:Grindbreaking.ogg;
#OFFSET:-0.066;
#SAMPLESTART:60.600;
#SAMPLELENGTH:12.000;
#SELECTABLE:YES;
#DISPLAYBPM:220.000;
#BPMS:0.000=220.000;
#STOPS:;
#BGCHANGES:;
// cache tags:
#FIRSTBEAT:32.000;
#LASTBEAT:439.000;
#SONGFILENAME:Songs/SPEEEDCOOOORE 2/Grindbreaking - [CosmicPope]/grindbreaking.sm;
#HASMUSIC:1;
#HASBANNER:1;
#MUSICLENGTH:121.088;
// end cache tags

//---------------dance-single - B. Abear----------------
#NOTES:
     dance-single:
     B. Abear:
     Challenge:
     15:
     1.000,1.000,0.446,0.215,0.937,856.000,54.000,26.000,44.000,1.000:

0000
0000
0000
0000
,
0000
0000
0000
0000
,
0000
0000
0000
0000
,
0000
0000
0000
0000
,
0000
0000
0000
0000
,
0000
0000
0000
0000
,
0000
0000
0000
0000
,
0000
0000
0000
0000
,
0001
0000
1000
0001
0100
0000
0010
0000
,
0100
0000
0001
0000
1000
1000
0001
0010
,
0100
0000
0100
0100
1000
0000
0001
0000
,
0100
0000
0000
0000
0001
1000
0001
1000
0001
0000
0010
0000
0001
0000
0000
0000
,
1001
1000
0010
0100
0001
1000
0100
1000
,
0001
0100
0001
0100
0001
0000
0000
0000
1000
0000
0001
0000
0010
0000
0010
0000
,
0100
0000
0000
0000
0000
0000
1000
0000
0000
0001
0100
0001
0100
0000
0000
0000
0000
0000
0001
0000
0000
0000
0000
0000
,
1001
0000
0000
0000
1000
0100
1000
0100
1000
0000
0001
0000
0200
0000
0000
0000
,
0310
0000
1000
0000
0001
0000
1000
0001
0100
0001
1000
0000
0100
0000
0010
0000
,
0010
0000
0001
0000
1000
0000
0001
0100
0001
1000
0100
0000
0M00
0000
0000
0000
,
0001
0000
0000
0010
0000
0000
0100
0000
0000
0100
0000
0000
1000
0000
0000
0000
0000
0000
0001
0000
0000
1000
0001
1000
,
0001
0000
0000
0000
1000
0100
1000
0100
1000
0000
0001
0000
0000
0000
0000
0000
,
1000
0000
0001
0000
0010
0001
1000
0001
1000
0000
0001
0100
0001
0000
1000
0100
,
4000
0000
0000
0000
0000
0000
0000
0000
0000
0000
0000
0000
3001
0000
0000
0000
0100
0000
0000
0000
0010
0000
0000
0000
1000
0000
0000
0000
0000
0000
0001
0000
0000
0100
0000
0000
0000
0000
0000
0001
0000
0000
1000
0000
0000
0000
0000
0000
,
0400
0000
1300
0000
0002
0000
0103
0000
0002
0000
0103
0000
0010
1000
0001
1000
,
0100
0000
0010
0000
0001
0010
0100
1000
0010
0100
0001
1000
0004
0000
0000
0003
,
0400
0000
0000
0300
0040
0000
4030
0000
3004
0000
0000
0003
0040
0000
0430
0000
,
1300
0000
0000
0000
0000
0000
0000
0000
0000
0000
0000
0000
0000
0000
0000
0000
0001
0000
0000
0000
0000
0000
0000
0000
0100
0000
0000
0000
0001
0000
0000
0000
1000
0000
0000
0000
0000
0000
0000
0000
0100
0000
0000
0000
0000
0000
0000
0000
0040
0000
0000
0000
0000
0000
0000
0000
0000
0000
0000
0000
0000
0000
0000
0030
,
0011
0000
1001
1000
1010
0000
1010
0000
,
0010
0000
0100
0000
0010
1000
0001
0000
0000
0000
1000
0010
0100
0001
0100
0001
,
1000
1000
0100
0100
0010
0010
0001
0001
,
1000
0000
0400
0000
1300
0000
0010
0100
0001
0100
0010
0000
1000
0000
0004
0000
,
1003
0000
0000
0100
1000
0100
1000
0000
0000
0001
0000
0000
0100
0000
0000
0100
0000
0000
0040
0000
0000
4030
0000
0000
,
3004
0000
0043
0000
0130
0000
1000
0000
0001
0000
0001
0000
0100
0001
0100
0001
,
1000
0100
1000
0001
0100
0010
1000
0001
,
0010
0000
0010
0001
0000
1000
0001
1000
0000
0000
0001
0000
1000
0000
0001
0000
,
1000
0000
1000
0010
0100
0000
0001
0000
1002
0000
0000
0000
2003
0000
0000
0000
,
3001
0000
0000
0000
0000
0000
0100
0000
0001
0000
0100
0000
0001
0000
0000
0000
0000
0000
1000
0000
0000
0100
0000
0000
1000
0000
0000
0000
0000
0000
0001
0000
0000
0000
0000
0000
0100
0000
0000
0010
0000
0000
0100
0000
0000
0010
0000
0000
,
0100
0010
0100
0010
0100
0010
1000
0100
,
0010
0000
0000
0000
0100
0000
1000
0000
0001
0100
0001
0100
0004
0000
0000
0000
,
1003
1100
0001
0101
1000
1100
0001
0101
,
1000
0100
0010
0001
1000
0001
0200
0000
,
0301
0000
1000
0000
0001
0000
0001
0000
0010
0000
0010
0000
0001
0000
0001
1000
,
0100
1000
0100
0100
0010
0001
0010
0001
,
2000
3010
1000
0001
0200
0310
4000
3001
,
0010
0010
0100
1000
0001
0000
0100
0000
,
0001
1000
0001
0010
0100
1000
0001
0100
0001
0000
1000
0000
0010
0000
0100
0000
,
0001
1000
0100
1000
0001
0010
0100
1000
0001
0000
0100
0000
0001
0000
0100
0000
,
0010
0000
4000
0000
3001
0000
0001
0000
0010
0000
0100
0000
1000
0010
0100
0001
,
1000
0000
0100
0000
1000
0000
0001
0100
0001
0000
1000
0100
1000
0000
0001
0000
,
0010
0000
0001
0000
1000
0001
0100
0001
1000
0000
0001
0000
1000
0100
1000
0000
,
0010
0000
0400
0000
0304
0000
0000
0000
1003
0100
1000
0100
0010
0000
0000
0000
,
0011
0000
0000
0000
1001
0000
0001
1000
0010
0000
0000
0000
0100
0000
0100
0000
,
0101
0000
0001
0000
1001
0000
1000
0000
1001
0000
0001
0000
1000
0100
0010
0001
,
1000
0000
0010
0000
1000
0000
0100
0000
0010
0000
0001
0000
0100
0000
0010
1000
,
0001
0100
0010
0010
1000
0100
1000
0001
,
1001
1000
1010
0010
0110
0100
0101
0001
,
1000
0004
0103
0004
0013
0004
2003
0000
,
3001
0100
0010
1000
0001
0100
0001
1000
0001
0010
0100
1000
0100
1000
0001
0100
,
0010
1000
0010
0100
0001
1000
0100
1000
0001
0010
0100
1000
0001
0010
0001
1000
,
0001
0100
0010
0100
0001
1000
0100
1000
0001
0010
0100
0010
0001
1000
0001
1000
,
0010
0100
0001
1000
0010
0100
0001
1000
0001
0010
0001
1000
0100
1000
0001
0100
,
0010
1000
0001
0100
0001
0100
0010
1000
0001
0010
0001
0010
0100
1000
0001
0100
,
0010
0100
0001
1000
0100
0010
0001
1000
0010
1000
0001
0010
0100
1000
0001
1000
,
0010
0100
0100
0101
0001
1000
1100
0100
,
1000
1000
0001
0001
0100
0100
0010
0100
,
0001
0010
0100
1000
0001
1000
0100
0010
0001
1000
0010
1000
0001
0100
0001
1000
,
0010
0100
0001
1000
0100
1000
0001
1000
0100
0010
0001
1000
0010
1000
0001
0100
,
0001
1000
0100
0010
0001
0010
0100
1000
0001
0010
0001
1000
0010
0100
0001
1000
,
0001
0100
0001
1000
0100
0010
0001
1000
0100
1000
0010
0100
0010
1000
0001
1000
,
0100
0010
0001
1000
0001
0010
0100
1000
0001
0100
0010
0100
0001
1000
0010
0100
,
0010
1000
0001
1000
0100
0010
0001
1000
0010
0100
0010
0100
0001
0010
0100
1000
,
0001
0000
0001
0000
1000
0100
1000
0000
0010
0000
0100
0000
0001
0010
0100
0000
,
1100
0000
1000
0000
1001
0000
0001
0000
2000
3020
0230
0302
0023
0230
2300
3000
,
0001
0000
0100
0000
0010
0000
0400
0000
0301
0000
1000
0000
0100
0010
0001
1000
,
0001
0000
0100
0000
0001
0000
0001
1000
0400
0300
0000
4000
3000
0000
0004
0003
,
0100
0000
0001
0000
1000
0000
0001
0010
0100
1000
0001
0000
1000
0000
1000
0010
,
0100
0000
0001
0000
0010
0000
0001
1000
0100
1000
0001
0000
0100
0010
1000
0001
,
1000
0040
0130
0100
00M1
0M10
M100
1000
,
1001
0000
0001
0101
0000
1000
0101
0000
,
0001
0000
0000
0000
0000
0000
1000
0000
0001
0000
1000
0000
0001
0000
0000
0000
0000
0000
0100
0000
0000
0000
0000
0000
0001
0000
0000
1000
0000
0000
0001
0000
0000
1000
0000
0000
0001
0000
0000
0000
0000
0000
0000
0000
0000
0000
0000
0000
,
1000
0100
1000
0010
0100
0100
0002
1000
,
0000
0000
0000
0000
0000
0000
0000
0000
0000
0000
0000
0000
0000
0000
0000
0000
0000
0000
0000
0000
0000
0000
0000
0000
0000
0000
0000
0000
0000
0000
0000
0003
,
1001
0000
1001
0000
1001
1000
0100
0000
,
0110
0000
0010
0000
0001
0000
1001
0000
1000
0000
0010
0000
0100
0010
1000
0001
,
1000
0000
1000
0000
0004
0000
0103
0000
0010
1000
0001
0000
4000
0000
0000
0000
,
3100
0010
0001
4000
3020
0000
0130
0001
,
1000
0100
1000
0001
0100
0000
0000
0000
0001
0000
1000
0000
0100
0000
0010
0000
,
0004
1003
0100
4000
3010
0010
0010
0010
,
0100
0000
0000
0001
0000
0000
1000
0010
0100
0001
0100
0001
4000
0000
0000
0000
,
3001
0010
0100
1000
0002
0000
0000
0000
1003
0000
1000
0000
1000
0000
1000
0000
,
0001
0000
0010
0100
1000
0000
0001
0000
,
0100
0000
0010
0000
1000
1000
0001
0001
,
0010
0000
0100
1000
0001
0000
0100
0000
,
0001
0000
0000
0000
1000
0100
1000
0100
1000
0000
0001
0000
0100
0000
0000
0000
,
0001
0000
1000
0100
0010
0000
0001
0000
,
1000
0010
1000
0010
1000
0000
0001
0000
0010
0000
0010
0000
0100
0000
0100
0000
,
1000
0000
0000
0000
0000
0000
0001
0000
0000
1000
0001
1000
0001
0000
0000
0000
0000
0000
0100
0000
0000
0000
0000
0000
,
0001
0000
0000
0000
1000
0100
1000
0100
1000
0000
0001
0000
0010
0000
0000
0000
,
0100
0000
1000
0000
1000
0000
0001
0000
0100
0000
0010
0000
0100
0000
0100
0001
,
1000
0000
0100
0000
0100
0000
0010
0000
0001
1000
0001
1000
0200
0000
0000
0000
,
1300
0000
0020
0030
0100
0000
0100
0000
0001
0000
1000
0000
0100
0000
0020
0030
,
0001
0100
0100
0001
1000
0100
0010
0001
,
1000
0000
0000
0000
0000
0000
0010
0000
0000
1000
0000
0000
0000
0000
0000
0010
0000
0000
1000
0000
0000
0000
0000
0000
0001
0000
0000
0000
0000
0000
1000
0000
0000
0000
0000
0000
0100
0000
0000
0000
0000
0000
1000
0000
0000
0000
0001
0000
,
0000
0010
0000
0100
0000
0000
2000
0000
0000
0000
0000
0000
3020
0000
0000
0000
0000
0000
0230
0000
0000
0000
0000
0000
,
0301
0001
0010
0010
,
0100
1000
1000
1000
0001
0000
0200
0000
,
0300
0000
0000
0000
,
0000
0000
0000
0000
,
0000
0000
0000
0000
,
0000
0000
0000
0000
,
0000
0000
0000
0000
0000
0000
MMMM
MMMM
MMMM
MMMM
MMMM
MMMM
MMMM
MMMM
MMMM
MMMM
0000
0000
1111
0000
0000
0000
0000
0000
;
