#TITLE:Valley Of The Damned;
#SUBTITLE:Valley Of The Damned;
#ARTIST:Dragonforce;
#TITLETRANSLIT:;
#SUBTITLETRANSLIT:;
#ARTISTTRANSLIT:;
#CREDIT:;
#BANNER:valley.PNG;
#BACKGROUND:valley-bg.PNG;
#LYRICSPATH:;
#CDTITLE:;
#MUSIC:DragonForce-Valley_of_the_Damned(DEMO).mp3;
#OFFSET:2.550;
#SAMPLESTART:96.290;
#SAMPLELENGTH:24.640;
#SELECTABLE:YES;
#BPMS:0.000=200.000,1178.500=140.000,1299.500=100.000;
#STOPS:;
#BGCHANGES:;
// cache tags:
#FIRSTBEAT:8.500;
#LASTBEAT:1313.000;
#SONGFILENAME:Songs/CMDKDF Pack/Valley Of The Damned/valey of the damned.sm;
#HASMUSIC:1;
#HASBANNER:1;
#MUSICLENGTH:415.600;
// end cache tags

//---------------dance-single - ----------------
#NOTES:
     dance-single:
     :
     Challenge:
     13:
     1.000,1.000,0.965,0.693,0.813,2266.000,401.000,288.000,0.000,6.000:

0000
0000
0000
0000
,
0000
0000
0000
0000
,
0000
1000
0001
1000
0010
0100
0010
0100
,
1000
0010
0001
0010
0001
0100
1000
0010
,
0001
0100
0010
0100
0010
0001
1000
0001
,
0100
0010
0001
1000
0100
0010
0100
0001
,
1000
0100
0001
0010
1000
0100
0010
1000
,
0001
1000
0001
0100
0010
0100
0001
0010
,
0100
0010
1000
1000
0100
1000
0001
0010
,
0100
0001
0100
0010
1000
1000
0010
0100
,
0010
0001
1000
0100
0010
0100
1000
0001
,
0010
0100
0010
0001
1000
0100
1000
0010
,
1000
0001
1000
0010
1000
0100
0010
0001
,
0010
0100
0001
0010
0001
0100
0001
1000
,
0001
0100
0001
0010
0100
1000
0100
0010
,
0100
0010
0100
1000
0001
0100
0010
0100
,
1000
0001
0100
0010
0100
0001
1000
0001
,
0100
0010
0001
0010
0100
1000
0100
0010
,
0100
0010
0100
1000
0010
2002
0000
0000
,
3003
0220
0000
0000
0330
0022
0000
0000
,
0000
0000
0000
0000
0000
2233
0000
0000
,
3300
0202
0000
0000
0303
0220
0000
0000
,
0000
0000
0000
0000
0330
2200
0000
0000
,
3300
0202
0000
0000
0303
2020
0000
0000
,
3030
0220
0000
0000
0000
1330
0001
0100
,
0010
0100
0010
0100
0010
0001
1000
0001
,
1000
0001
1001
0000
0000
0202
0000
0000
,
0303
0220
0000
0000
0330
2002
0000
0000
,
3003
2200
0000
0000
3300
0022
0000
0000
,
0033
2002
0000
0000
3003
0220
0000
0000
,
0330
0022
0000
0000
0033
2200
0000
0000
,
3300
0202
0000
0000
0303
2002
0000
0000
,
3003
0220
0000
0000
0330
2002
0000
0000
,
3003
0000
0001
0010
0100
1000
0010
0100
,
0010
1000
1000
1000
1000
0001
0001
0001
,
1000
1000
1000
0100
0100
0100
0100
0100
,
0100
0100
0100
0100
0100
0100
0100
0100
,
0100
0100
0100
0100
0100
0100
0100
0100
,
0100
0100
0100
0100
0100
0100
0100
0100
,
0100
0100
0010
0010
0010
0010
0010
0010
,
0010
0010
0010
0010
0010
0010
0010
0010
,
0010
0010
0010
2002
0000
0000
0000
0000
,
0000
0000
3003
2002
0000
0000
0000
0000
,
0000
0000
3003
0101
0010
0010
0101
1000
,
1000
0011
0100
0010
0010
0001
0001
0100
,
0100
1000
1000
0101
0010
0010
0101
0010
,
0010
0101
1000
0100
0100
0010
0010
0001
,
0001
1000
1000
0110
0001
0001
0110
1000
,
1000
0110
0001
0010
0100
1000
0100
0010
,
0001
0010
0100
1000
0220
0000
0000
0000
,
0000
0000
0000
0330
0220
0000
0000
0000
,
0000
0000
0000
0000
0000
0000
0330
0000
1001
0000
0010
0100
0010
0100
1000
0000
,
0001
0010
0100
1000
0100
0000
0010
0100
0010
0000
1000
0100
0010
0001
0010
0000
,
0001
0000
1000
0000
0100
0010
0100
0010
0001
0000
0100
1000
0100
0010
0001
0000
,
0100
1000
0100
0000
0010
0001
0010
0001
0100
0000
0010
0100
1000
0001
0010
0000
,
0100
0000
0001
0000
0001
0010
0100
1000
0001
0000
0100
0010
0100
0010
1000
0000
,
0100
0010
0001
0000
0100
1000
0100
0010
0001
0000
0100
1000
0100
1000
0100
0000
,
0010
0000
0001
0000
0100
1000
0010
0001
0100
0000
0010
0001
0010
0001
0100
0000
,
0010
1001
0000
0000
0000
1001
0000
0000
,
0000
0000
0110
0000
,
0000
0000
0220
0000
,
0000
0000
0000
0000
,
0000
0000
0000
0001
0330
0000
1000
0000
,
0000
0010
0000
0100
0000
0000
0000
0000
,
0001
1000
0001
0000
0000
0101
0000
0000
,
1001
0000
0010
0100
0010
0000
0000
0000
0000
0000
0000
0000
0000
0000
0000
0000
,
0000
0110
0000
0000
0000
0000
0000
1010
,
0000
0101
0000
2020
0000
0000
0000
0000
,
3030
0110
0000
2002
0000
0000
3003
0110
,
0000
0101
0000
2020
0000
0000
0000
3030
,
0110
0000
2002
0000
0000
3003
0011
0000
,
1100
0000
2002
0000
0000
0000
0000
3003
,
0110
0000
2002
0000
0000
3003
0110
0000
,
0101
0000
2020
0000
0000
0000
0000
3030
,
0110
0000
2002
0000
0000
3003
0011
0000
,
1100
0000
0220
0000
0000
0000
0000
0330
,
0110
0000
2002
0000
0000
3003
0011
0000
,
1100
0220
0000
0330
,
0110
0000
2002
0000
0000
3003
1010
0000
,
0101
0000
2002
0000
0000
0000
0000
3003
,
0110
0000
0110
0000
0220
0000
0000
0330
,
1001
0000
2002
0000
0000
0000
3003
0001
,
1000
0001
2000
0000
0000
3000
0110
0000
,
0110
0000
1001
0000
1001
0000
0000
0110
,
0000
1001
0000
0000
1001
0000
0110
0000
,
0000
0110
0000
0000
0110
0000
1001
0000
,
0110
0000
0000
1010
0000
0000
0101
0000
,
1001
0000
0000
1001
0000
0110
0000
0000
,
0110
0000
0000
1001
0000
0000
0110
0000
,
1010
0000
0101
0000
0000
1010
0000
0110
,
0000
0000
0110
1001
,
0110
0000
0001
0010
0100
1000
0100
0000
1000
0100
0010
0001
0010
0000
0100
0010
,
0100
0000
0001
0010
0001
0010
0001
0000
1000
0100
1000
0100
1000
0000
0010
0100
,
0010
0000
0001
0010
0100
1000
0100
0000
0010
0001
0010
0100
1000
0000
0010
0100
,
0010
0000
0001
0010
0100
1000
0100
0000
0100
0010
0001
0010
0100
0000
1000
0100
,
0010
0000
1000
0100
0010
0001
0010
0000
0001
0010
0100
1000
0100
0000
0001
0010
,
0001
0000
0100
1000
0100
0010
0100
0000
0001
0010
0001
0100
0001
0000
1000
0100
,
1000
0000
0010
0100
0010
0100
0010
0000
0001
0010
0100
1000
0100
0000
1000
0100
,
0010
0001
0010
0000
0100
1000
0100
0000
0010
0100
0010
0100
0000
0000
0100
0000
,
0010
0001
1000
0022
0000
0000
0033
0220
,
0000
0000
0330
2002
0000
0000
0000
0000
,
0000
0000
3003
0022
0000
0000
0033
2200
,
0000
0000
3300
0220
0000
0000
0000
0000
,
0000
0000
0330
0220
0000
0000
0330
0022
,
0000
0000
0033
2200
0000
3300
0000
0220
,
0000
0000
0330
0010
0000
0001
0000
0010
,
0010
0100
0100
1000
1000
0010
0001
0000
,
1000
0000
0000
2200
0000
0000
3300
0022
,
0000
0000
0033
2200
0000
0000
0000
0000
,
0000
0000
3300
0220
0000
0000
0330
2002
,
0000
0000
3003
0220
0000
0000
0000
0000
,
0000
0000
0330
0220
0000
0000
0330
0202
,
0000
0000
0303
2020
0000
0000
3030
0110
,
0000
0011
0000
0110
0000
1000
1000
0100
,
0100
0010
0010
0001
0000
0000
0000
0000
,
1001
0010
0100
1001
0100
0010
1001
0010
,
1000
0001
0001
1000
1000
0001
0001
1000
,
0010
0001
1100
0001
0010
1100
0010
0001
,
0001
0010
0010
0100
0100
1000
1000
0011
,
1000
0100
0011
0100
1000
0011
1000
0010
,
0010
0100
0100
0010
0010
0100
0100
2002
,
0000
0000
0000
0000
0000
0000
3003
2002
,
0000
0000
0000
0000
0000
0000
3003
0110
,
1000
0001
0110
0001
1000
0110
0001
1000
,
1000
0100
0100
0010
0010
0001
0001
1100
,
0010
0001
1100
0001
0010
1100
0010
0100
,
1000
0010
0001
0100
1000
0010
0001
0110
,
1000
0100
0110
0001
0010
0110
1000
0001
,
0010
0100
1000
0100
0010
0202
0000
0000
,
0000
0000
0000
0000
0303
0220
0000
0000
,
0000
0000
0000
0000
0330
0022
0000
0000
,
0000
0000
0000
0000
0033
1100
0000
0000
,
0000
0000
0000
0000
0000
0000
0000
0000
0000
0000
0001
0010
0100
1000
0100
0000
,
0010
0100
0010
0100
0010
0000
1000
0100
0010
0000
0001
0010
0100
1000
0100
0000
,
0010
0001
0010
0100
1000
0000
0010
0001
0010
0000
2002
0000
0000
0000
0000
0000
,
0000
0000
0000
0000
3003
2002
0000
0000
,
0000
0000
0000
0000
0000
0000
0000
0000
3003
0000
0001
0010
0100
1000
0100
0010
,
0001
0010
0100
1000
0100
0010
0001
0010
0100
1000
0100
0010
0001
0010
0100
0000
,
1000
0110
2002
0000
,
0000
3003
0110
0000
0220
0000
0000
0330
,
1001
0110
0022
0000
,
0000
0033
1100
0000
0022
0000
0000
0033
,
0110
1001
0220
0000
,
0000
0330
0011
0000
2200
0000
0000
3300
,
0011
0110
2200
0000
,
0000
3300
0101
0000
2020
0000
0000
3030
,
1001
0110
2002
0000
,
3003
0110
0000
0022
0000
0000
0033
1100
,
0000
0011
0000
2200
0000
0000
0000
0000
,
3300
0110
0000
2002
0000
0000
3003
1001
,
0000
0101
0000
2020
0000
0000
0000
0000
,
3030
2002
3003
2002
3003
2002
3003
0000
,
0000
0110
0000
2002
0000
0000
0000
3003
,
0001
1000
0001
0100
0000
0000
1001
0000
,
0110
0000
1001
0000
0000
0110
0000
0000
,
0011
0000
1100
0000
0000
0110
0000
0000
,
0011
0000
1100
0000
0000
0101
0000
0101
,
0000
1001
0000
0000
0110
0000
0000
1001
,
0000
0110
0000
0000
0011
0000
1100
0000
,
0000
0011
0000
1100
0000
0000
0011
0000
,
0101
0000
1010
0000
0000
0101
0000
0000
,
1010
0000
0101
1010
,
0011
0000
0000
0110
0000
0000
0110
0000
,
1001
0000
0000
0110
0000
0000
1001
0000
,
0011
0000
0000
1100
0000
0000
0011
0000
,
1100
0000
0000
0110
0000
0000
0011
0000
,
1100
0000
0000
0110
0000
0000
1001
0000
,
1001
0000
0000
0110
0000
1001
0000
0110
,
0000
0000
1001
0000
0000
0011
0000
1100
,
0000
0000
0011
0000
0000
0000
0000
0000
1100
0000
0000
0000
0000
0000
0001
0010
,
0100
1000
0100
0010
0001
0010
0100
1000
0100
0010
0001
0010
0100
1000
0100
0010
,
0001
0010
0100
1000
0200
0300
0002
0003
2000
3000
0002
0003
0200
0310
0001
0010
,
0100
0010
0001
0010
0100
1000
0100
0010
0001
0010
0100
1000
0100
0001
0010
0001
,
1000
0100
1000
0001
0010
0100
0010
0001
1000
0100
0010
0100
1000
0010
0001
0010
,
0100
0010
0100
1000
0100
0001
0010
0001
0100
0010
0100
0001
0010
0001
0100
0010
,
0100
1000
0100
0010
0002
0003
2000
3000
0200
0300
0020
0030
0002
0013
0001
0010
,
0001
0100
0010
0100
0010
0100
1000
0100
1000
0100
1000
0010
0001
0010
0100
1000
,
0100
0010
0001
0010
0100
1000
0100
0010
0001
0010
0100
0010
0001
1000
0100
0010
,
0100
1000
0010
0100
0010
1000
0100
1000
0010
0100
0010
1000
0100
0010
0001
0010
,
0100
1000
0200
0300
0020
0030
0002
0003
2000
3000
0010
0100
0010
0100
0010
1000
,
0100
0010
0001
0010
0100
1000
0100
0010
0001
0010
0100
1000
0100
0010
0001
0010
,
0100
0010
0001
0010
0100
1000
0100
0010
0001
0100
0010
0100
0001
0010
0001
0100
,
0010
0100
0001
0010
0001
1000
0100
1000
0010
0100
0010
1000
0100
1000
0010
0100
,
0010
0001
0010
0100
1000
0100
0010
1000
0100
0010
0001
0010
0001
0010
0001
1000
,
0100
1000
0100
1000
0010
0100
0010
0100
0010
1000
0100
0010
0001
0010
0100
1000
,
0001
0010
0100
1000
0001
0010
0100
1000
0100
0010
0001
0010
0100
1000
0100
0010
,
0001
0010
0100
1000
0100
0010
0001
0010
0100
1000
0100
0010
0001
0010
0100
1000
,
0200
0300
0002
0003
2000
3000
0002
0003
0200
0310
0001
0010
0100
0010
0001
0010
,
0100
1000
0100
0010
0001
0010
0100
1000
0100
0001
0010
0001
1000
0100
1000
0001
,
0010
0100
0010
0001
1000
0100
0010
0100
1000
0010
0001
0010
0100
0010
0100
1000
,
0100
0001
0010
0001
0100
0010
0100
0001
0010
0001
0100
1000
0100
0010
0001
1000
,
0100
0010
0001
1000
0100
0010
0001
1000
0100
0010
0001
0010
0100
1000
0001
0010
,
0100
1000
0001
0010
0100
1000
0001
0010
0100
1000
0001
0010
1000
0100
0001
0010
,
1000
0100
0001
0010
1000
0100
0001
0010
0100
0010
0100
0001
0010
0001
1000
0100
,
1000
0010
0100
0010
0001
0010
0100
1000
0100
0010
0001
0010
0100
1000
0100
0010
,
0001
0010
0100
1000
0100
0010
0001
0010
0100
1000
0100
0010
0001
1000
0100
1000
,
0010
1000
0001
1000
0100
1000
0010
1000
0001
1000
0010
1000
0100
1000
0010
1000
,
0001
0010
0100
1000
0100
0010
0001
0010
0100
1000
0100
0010
0001
0010
1000
0100
,
1000
0010
0001
0010
0100
1000
0100
0001
0010
0001
1000
0100
1000
0001
0010
0001
,
1000
0100
1000
0001
0010
0100
1000
0100
0010
0001
0010
0100
1000
0001
0010
0100
,
0010
0001
1000
0100
0010
0100
1000
0001
0010
0100
1000
0001
0010
0100
1000
0010
,
0101
0000
0000
1010
0000
0101
0000
0000
,
1010
0000
0000
0000
0000
0000
0101
0000
0000
0000
1010
0000
0000
0000
0000
0001
,
0010
0100
1000
0100
0010
0001
0010
0100
1000
0001
0010
0100
1000
0100
0010
0001
,
1000
0100
0010
0001
0100
0010
0100
1000
0100
0010
0001
0010
0100
0001
0010
0100
,
0010
1010
0101
1010
,
0001
0000
0001
0000
1000
0000
0001
0000
1000
0000
0000
0000
1000
1000
1000
1000
,
1000
0001
0100
0100
0100
0100
0100
1000
0010
0010
0010
0010
0010
0100
0001
0001
,
0001
0001
0001
0010
1000
1000
1000
1000
1000
0010
0001
0001
0001
0001
0001
0010
,
0100
1000
0100
0010
0001
0010
0100
1000
0001
0010
0100
0010
0001
1000
0100
0010
,
0100
1000
0010
0100
0010
1000
0100
1000
0001
0010
0001
0100
1000
0100
0010
0001
,
0010
0100
1000
0002
0203
0320
2030
3200
0302
0023
2030
3100
0010
0001
0010
0100
,
1000
0100
0010
0100
0010
0100
0010
0001
0000
0000
0000
1000
0100
0010
0001
0010
,
0100
0010
0001
0010
0100
1000
0100
0010
0001
0010
0100
1000
0100
0010
0100
1000
,
0100
0010
0001
0010
0100
1000
0100
0001
0000
0000
1000
0100
0010
0001
0010
0100
,
1000
0001
0010
0100
1000
0100
0010
0001
0100
0020
0030
0200
0300
0002
0003
2000
,
3000
0020
0030
0200
0000
0000
0300
1000
0100
0010
0001
0010
0100
0010
0001
0010
,
0100
1000
0100
0010
0001
0010
0100
1000
0100
0010
0100
1000
0100
0010
0001
0010
,
0100
1000
0100
0001
0000
0000
1000
0100
0010
0001
0010
0100
1000
0001
0010
0100
,
1000
0100
0010
0001
0100
0020
0030
0200
0300
0002
0003
2000
3000
0020
0030
0200
,
0000
0000
0300
1000
0100
0010
0001
0010
0100
0010
0001
0010
0100
1000
0100
0010
,
0001
0010
0100
1000
0100
0010
0100
1000
0100
0010
0001
0010
0100
1000
0100
0001
,
0010
0100
1000
0100
0010
0001
0010
0100
1000
0001
0010
0100
1000
0100
0010
0001
,
0100
0010
1000
0100
0010
0001
0010
0100
1000
0100
0010
0001
0010
0001
0010
0100
,
1000
0100
1000
0100
0010
0001
0010
0000
0000
0000
0000
0000
0110
0000
0000
0000
,
0011
0000
0000
0000
0000
1100
0000
0000
0000
0000
0000
0011
0000
0000
0000
0000
,
1100
0000
0000
0000
0011
0000
0000
1000
0010
0001
0010
0100
1000
0010
0100
0001
,
0010
0100
1000
0010
0100
0001
0010
0100
1000
0100
0010
0001
0100
0010
0000
0000
,
0000
0000
0000
0010
0100
1000
0100
0010
0001
0010
0100
0010
0001
1000
0100
0010
,
0100
1000
0001
0010
0100
0010
0001
1000
0100
0010
0001
0010
0100
1000
0100
0010
,
0001
0010
0100
0000
0000
0000
0000
0000
0010
0000
0000
0000
1000
0000
0001
0000
,
1000
0000
0001
0000
0200
0000
0000
0300
0020
0000
0000
0000
0032
0000
0000
0003
,
2000
0000
0000
3100
0010
0001
0010
0100
0010
0100
0010
1000
0100
0010
0001
0010
,
0100
1000
0100
1000
0100
0010
0001
0010
0001
0010
0100
1000
0100
1000
0100
0001
,
0010
0002
2003
3200
0302
0203
0320
2030
,
3002
0023
2030
3002
0203
0320
0000
0030
,
0002
2003
3200
0302
2003
3200
0302
0023
,
2030
0000
3200
0000
0320
0000
0032
0000
0000
0000
0003
0000
0000
0000
0010
1000
,
0100
0010
0100
0001
0010
0001
1000
0100
1000
0001
0010
0100
1000
0100
0010
0001
,
1000
0100
1000
0010
0001
0010
0100
1000
0010
0000
0000
0000
0000
0001
0010
0100
,
0010
0001
1000
0100
0010
0100
1000
0001
0010
0001
1000
0100
1000
0001
0010
0001
,
1000
0100
0010
0001
0010
0100
1000
0000
0000
0000
0001
0010
0100
1000
0100
0010
,
0001
1000
0020
0000
0032
0000
2003
0000
3200
0000
0320
0000
0032
0000
0203
0000
,
0320
0000
0230
0000
2300
0000
3001
0000
0000
0000
1000
0100
0010
0001
0010
0100
,
1000
0001
0010
0100
1000
0100
0010
0001
1000
0100
0010
0001
0010
0100
1000
0001
,
0010
0100
1000
0100
0010
0001
1000
0010
0100
0010
2002
0000
0000
0000
0000
0000
,
0000
3003
0220
0000
0000
0000
0330
2000
,
0000
3002
0000
0203
0000
0322
0000
0000
,
0133
0000
0001
0000
1000
0100
0000
0001
,
0000
1000
0100
0010
1001
0000
0000
0010
,
0000
0000
0100
0000
0000
0000
0001
0000
0010
0000
1000
0100
1000
0000
0000
0000
,
0002
0023
0230
2300
3000
0002
2003
3000
,
2000
3002
0023
0030
0200
0300
0002
0003
,
2000
3000
0020
0032
2003
3000
0002
0003
,
2000
3200
0300
0022
0033
0000
0011
0000
,
1000
0000
0001
0000
1000
0000
1000
0001
1000
0001
1000
0001
1000
0010
1000
0010
,
1000
0010
1000
0100
1000
0100
1000
0100
1000
0010
1000
0010
1000
0010
1000
0001
,
1000
0001
1000
0001
1000
0100
0010
0000
0000
0000
0001
0000
0000
0000
1000
0000
,
0000
0001
0010
0100
1000
0010
0000
0100
,
0010
0000
0000
0000
0001
0010
0100
1000
0001
0010
0100
1000
0010
0100
0001
0010
,
0100
1000
0001
0010
0100
1000
0010
0100
0010
1000
0100
0010
0001
1000
0100
0010
,
0001
1000
0100
0010
0100
0000
0000
0000
0022
0000
0000
0000
2033
0000
3000
0000
,
0020
0230
0300
0000
0000
1001
0000
0110
,
0000
0000
1001
0000
0000
0000
0000
0110
0000
0000
0000
0000
0000
0011
0000
0000
,
0000
1100
0000
0000
0000
0000
0000
0110
0000
0000
0000
0000
0000
0000
0011
0000
,
0000
1100
0000
0000
0101
0000
0101
0000
,
1001
0000
0000
0110
0000
0000
1001
0000
,
0110
0000
0000
0011
0000
0000
1100
0000
,
0011
0000
0000
1010
0000
0000
0011
0000
,
0101
0000
0000
1010
0000
0101
0000
0000
,
1010
0000
0101
1010
,
0011
0000
0000
0110
0000
0000
0110
0000
,
1001
0000
0000
0110
0000
0000
1001
0000
,
0011
0000
0000
1100
0000
0000
0011
0000
,
1100
0000
0000
0110
0000
0000
0011
0000
,
1100
0000
0110
0000
0000
1001
0000
1001
,
0000
0000
0110
0000
0000
1001
0000
0110
,
0000
0000
0000
1001
0000
0000
0000
0000
0000
0011
0000
0000
0000
0000
1100
0000
,
0000
0000
0000
0011
0000
0000
0000
0000
0000
0110
0000
0000
0000
0000
1001
0000
,
0000
0011
0000
0000
1100
0000
0011
0000
,
0000
1100
0000
0011
0000
1100
0000
0000
,
1001
0000
0000
0110
0000
0011
0000
0000
,
1100
0000
0000
0011
0000
1100
0000
0000
,
0011
0000
0000
1100
0000
0110
0000
0000
,
0011
0000
0000
1100
0000
0110
0000
0011
,
0000
1100
0011
0000
,
1100
0000
0110
0000
1010
0000
0000
0011
,
0000
0000
0110
0000
0101
0000
0000
1100
,
0000
0000
0011
0000
0110
0000
0000
1001
,
0000
0000
0110
0000
1100
0000
0000
0101
,
0000
0000
0000
0000
1010
0000
0000
0000
0110
0000
0000
0000
0000
0011
0000
0000
,
0000
0000
0000
1100
0000
0000
0000
0000
0110
0000
0000
0000
0000
1001
0000
0000
,
0000
0000
0000
0000
1001
0000
0000
0000
0110
0000
0000
0000
0000
1001
0000
0000
,
0000
0000
0000
0011
0000
0000
0000
0000
1100
0000
0000
0000
0000
0000
0011
0000
,
0000
0000
0000
0000
0110
0000
0000
0000
0000
1001
0000
0000
0000
0000
0000
0000
,
0000
1001
0000
0000
0000
0000
0010
0000
1000
0010
0000
0000
0000
0000
0000
0001
,
0000
0001
0000
0000
0000
0000
0000
2000
0000
3200
0000
0320
0000
0030
0000
0000
,
0000
0001
0000
0000
0000
0000
1000
0000
0000
0000
0010
0000
0000
0000
0000
0000
,
1001
0000
0000
1000
0001
0110
0000
0000
,
1001
0000
0000
0000
0000
0001
0000
0000
0100
0000
0010
0000
0000
0000
0000
0000
,
1001
0000
0000
1000
0110
0001
0000
0000
,
1000
0000
0000
0101
0000
0101
0000
0000
,
1010
0101
0110
0000
,
0000
0000
1000
0000
0000
0000
0001
0000
1000
0100
0010
0000
0001
0000
0000
0000
,
1000
0000
0010
0000
0000
0000
0001
0000
0010
0000
0100
0000
0000
0000
0000
1001
,
0000
0000
0000
0000
0101
0000
0000
0000
0000
0000
1001
0000
0000
0000
0000
0101
,
0000
0000
1000
0000
0000
0000
0100
0000
0001
0000
0010
0000
0100
0000
0010
1000
,
0000
0010
0000
0000
0100
0000
0001
0000
1000
0000
0000
0000
0000
0000
0000
0001
,
0010
0100
0000
1000
0000
0000
0000
0000
0000
0000
0001
0000
0010
0000
0100
0000
,
1000
0000
0000
0000
0000
0000
0010
0100
0000
0010
0000
0000
0010
0000
0000
0000
,
0000
1001
0110
0101
,
0000
0000
1010
0000
0000
0000
0000
0010
0000
0001
0010
0100
0000
1000
0000
0000
,
0000
0001
0000
0001
0000
0010
0000
0100
0000
0010
0000
0000
0000
1010
0000
0000
,
0000
0000
0000
0000
1001
0000
0000
0000
0000
0110
0000
0000
0000
1001
0000
0000
,
0000
0000
1010
0000
0000
0101
0000
0000
0000
0000
1000
0000
0100
0000
0010
0000
,
0000
0000
0000
1001
0000
0000
0000
0000
0000
0011
0000
0000
0000
1010
0000
0000
,
0000
0000
0000
0010
0001
0010
0000
0000
0000
0000
0100
0000
0010
0000
0001
0000
,
0010
0100
1000
0100
0010
0100
0001
1000
,
0000
0010
0101
0011
,
0110
0000
0000
0000
0000
0000
0000
0000
0010
0000
0001
0100
0010
0001
0000
0000
,
0000
0000
0000
0000
0001
0000
1000
0000
0001
0000
0100
0000
0001
0000
0000
0100
,
0000
0000
0000
0000
0000
0000
0001
0000
0000
0000
0001
1000
0100
0000
0010
0000
,
0100
0010
0100
0010
0100
0010
0100
0010
0100
0010
0100
0000
1000
0000
0001
0000
,
1000
0010
1000
0001
0010
1000
0100
0010
,
0001
0000
0100
0000
0000
0110
0000
0000
0000
0000
0000
1001
0000
0000
1001
0000
,
0000
0000
0000
0000
0000
0010
0000
0100
0000
0010
0000
0000
0001
0000
0000
0000
,
0000
0000
0000
0010
0000
0000
0100
0001
1000
0100
0001
0000
0000
0000
1000
0001
,
1000
0001
1000
0001
1000
0001
1000
0001
1000
0001
1000
0001
1000
0001
1000
0001
,
1000
0110
1001
0000
0000
0000
0000
0000
;
