#TITLE:Guitar Fiend;
#SUBTITLE:Ontamarama;
#ARTIST:T. Tanaka;
#TITLETRANSLIT:;
#SUBTITLETRANSLIT:;
#ARTISTTRANSLIT:;
#CREDIT:SulferDragon;
#BANNER:Guitar Fiend-banner.png;
#BACKGROUND:Guitar Fiend-bg.png;
#LYRICSPATH:;
#CDTITLE:!SulferDragon.png;
#MUSIC:11 - Guitar Fiend.mp3;
#OFFSET:1.005;
#SAMPLESTART:17.247;
#SAMPLELENGTH:12.840;
#SELECTABLE:YES;
#BPMS:0.000=143.970;
#STOPS:;
#BGCHANGES:;
// cache tags:
#FIRSTBEAT:4.000;
#LASTBEAT:275.000;
#SONGFILENAME:Songs/Astronomic Metal Collection 2/(SulferDragon) Guitar Fiend/11 - Guitar Fiend.sm;
#HASMUSIC:1;
#HASBANNER:1;
#MUSICLENGTH:115.155;
// end cache tags

//---------------dance-single - ----------------
#NOTES:
     dance-single:
     :
     Challenge:
     13:
     1.000,1.000,1.000,0.556,1.000,763.000,324.000,64.000,0.000,52.000:
0000
0000
0000
0000
,
0210
0000
0000
0000
0000
0000
1000
0010
1000
0010
2300
0000
3200
0001
2300
0000
,
3021
0000
0000
0000
0000
0000
1100
1100
1100
1100
0000
0000
0230
0000
0302
0000
,
0213
0000
0000
0000
0000
0000
0000
0000
0000
0000
0000
0000
0010
0000
0001
0000
0000
0000
1000
0000
0001
0000
0000
0300
0200
0000
0010
0000
0302
0000
0000
0000
,
0213
0000
0000
0000
0000
0000
1000
1000
0321
0000
0000
0000
2031
0000
0000
0000
,
3201
0000
0000
0000
0010
0001
0000
1000
0001
0000
2300
0000
3201
0001
2300
0000
,
3021
0000
0000
0000
0000
0000
0000
0000
0101
0000
1000
0000
0231
0000
0320
0100
,
1032
0000
0000
0000
0000
0000
0000
0000
0000
0000
0000
0000
0000
0000
0000
0000
0000
0000
0000
0000
0000
0000
0010
0000
0100
0000
0010
0000
1000
0000
0100
0000
0000
0010
0000
0000
0203
0000
0000
1000
0000
0000
0302
0000
0000
0100
0000
0000
,
1023
0000
1032
0000
,
0200
0300
0000
0000
0000
0000
0000
0000
0000
0000
0000
0000
0000
0000
0000
0000
0200
0300
0000
0000
0000
0000
0000
0000
0000
0000
0000
0000
0000
0000
0000
0000
0200
0300
0000
0000
0000
0000
0000
0000
0000
0000
0000
0000
0000
0000
0000
0000
0200
0300
0000
0000
0000
0000
0000
0000
0000
0000
0000
0000
0000
0000
0000
0000
,
1000
0010
1000
0010
0100
0010
0103
0010
1000
0100
1000
0100
0011
0011
0011
0011
,
1100
0010
0101
1000
0000
0001
1010
0000
0101
0010
1100
0001
1010
0100
1001
0100
,
0011
0000
1100
0001
0000
0010
1100
0000
0011
1000
0101
0010
0000
0001
1100
0000
,
1001
0100
1010
0001
0000
1000
0101
0000
1010
0001
1100
0010
0000
0010
0101
0000
,
1001
0010
0100
0000
0011
0000
1000
0000
0000
0000
0010
0000
1100
0000
0000
0000
0011
0000
0011
0000
0011
0000
0011
0000
0011
0000
0011
0000
1000
0000
0000
0000
,
1100
0010
0101
1000
0000
0001
1010
0000
0101
0010
1100
0001
1010
0100
1001
0100
,
0011
0000
1100
0001
0000
0010
1100
0000
0011
1000
0101
0010
0000
0001
1100
0000
,
1001
0010
0101
1000
0000
0001
1010
0000
1100
0010
0101
1000
0000
0100
1001
0010
,
0101
2000
0011
0000
0011
0000
0100
0000
0010
0000
0001
0000
0100
0000
0001
0000
0100
0000
0010
0000
0001
0000
0000
0000
0011
0000
0011
0000
3100
0000
0000
0000
,
1100
0001
1000
0001
1100
0001
0100
1001
0010
1001
0100
0011
1100
0001
0100
0001
,
1100
0001
1000
0001
1100
0001
0100
1001
0010
1001
0100
0011
1100
0001
0100
0000
,
1100
0001
1000
0001
1100
0001
0100
1001
0010
1001
0100
0011
1100
0001
0100
0001
,
1100
0001
0100
1001
0010
0001
1100
0010
0100
1001
0000
0000
1001
0000
1001
0000
,
1100
0001
1000
0001
1100
0001
0100
1001
0010
1001
0100
0011
1100
0001
0100
0001
,
1100
0001
1000
0001
1100
0001
0100
1001
0010
1001
0100
0011
1100
0001
0100
0000
,
1100
0001
1000
0001
1100
0001
0100
1001
0010
1001
0100
0011
1100
0001
0100
0001
,
1100
0001
0100
1001
0010
0001
1100
0010
0100
1001
0000
0000
1001
0000
1001
1010
,
0000
0000
0001
0000
1100
0000
0000
0000
0101
0000
0010
0000
1100
0000
0001
0000
0010
0000
0100
0000
1001
0000
0000
0000
1100
0000
0010
0000
1001
0000
0101
0010
,
1000
0001
1010
0000
0100
0001
1100
0000
0001
0000
1100
0000
0011
1000
0101
0011
,
0000
0001
1100
0000
0001
0100
1010
0001
0000
0100
1001
0000
0100
0000
1001
0101
,
0010
1001
0100
1000
0001
0010
0100
1000
0100
1000
0011
0101
1000
0000
1001
0101
,
0000
0000
0000
0000
0000
0000
0000
0000
0000
0000
0000
0000
0001
0000
0000
0000
0000
0000
0000
0000
0000
0000
0000
0000
1100
0000
0000
0000
0000
0000
0000
0000
0000
0000
0000
0000
0000
0000
0000
0000
0000
0000
0000
0000
0000
0000
0000
0000
0001
0000
0000
0000
0000
0000
0000
0000
0000
0000
0000
0000
0100
0000
0000
0000
0000
0000
0000
0000
0000
0000
0000
0000
1010
0000
0000
0000
0000
0000
0000
0000
0000
0000
0000
0000
0001
0000
0000
0000
0000
0000
0000
0000
0000
0000
0000
0000
0000
0000
0000
0000
0000
0000
0000
0000
0000
0000
0000
0000
0100
0000
0000
0000
0000
0000
0000
0000
0000
0000
0000
0000
1001
0000
0000
0000
0000
0000
0000
0000
0000
0000
0000
0000
0000
0000
0000
0000
0100
0000
0000
0000
0000
0000
0000
0000
0010
0000
0000
0000
0000
0000
0000
0000
1000
0000
0000
0000
0100
0000
0000
0000
0000
0000
0000
0000
0000
0000
0000
0000
0011
0000
0000
0000
0000
0000
0000
0000
0000
0000
0000
0000
0101
0000
0000
0000
0000
0000
1000
0000
0000
0000
0000
0000
,
0010
0001
1100
0000
0010
0000
1100
0100
0001
0000
1010
0100
1001
0010
1001
1100
,
0000
0001
1100
0000
1001
0010
0101
1000
0000
1000
0101
1000
1000
0000
1010
1001
,
0010
0001
0100
0010
0100
0001
1000
0010
0100
0001
0010
0001
1000
0100
1000
0010
0001
1000
0100
1000
0001
0100
0010
1000
,
0011
0000
0011
2000
0011
0000
0011
0000
0011
0000
0011
0000
0011
0000
0011
0000
0011
0000
0000
0000
0000
0000
0000
0000
3000
0000
0000
0000
0000
0000
0000
0000
,
0000
0000
0000
0000
2000
0000
0000
0000
3200
0000
0000
0320
0000
0000
0230
0000
,
0302
0000
0000
0000
0000
0000
0203
0302
,
0000
0000
0000
0000
0000
0000
0203
0320
,
0000
0000
0000
0000
0000
0000
0000
0000
0230
0000
0000
0000
0302
0000
0000
0000
0000
0000
0000
0000
1100
0000
0000
0000
1203
0001
1000
0000
0320
0000
0000
0000
,
1001
0000
0000
0000
0001
0000
0000
0001
0230
0001
0000
0000
2301
0000
3200
0000
,
0011
0000
0000
0000
0010
0000
0000
0010
0302
0010
0000
0000
0010
0000
0000
0000
,
1023
0000
0000
0000
1000
0000
0000
1000
0000
1000
0000
0000
1230
0000
0320
0000
,
0001
0000
0000
0000
1000
0000
0000
0000
0230
0000
1000
0000
0302
0000
0000
0000
1000
0000
0000
0000
0010
1000
0100
0000
2003
0000
0010
0000
0001
0000
0100
0000
,
3011
0011
0011
0011
0000
0000
0011
0011
0011
0011
0000
0000
0011
0011
0011
0011
,
0011
0000
0000
1010
0000
0000
0011
0000
0000
1010
0000
0000
0011
0000
1100
0000
,
1001
1001
1001
1001
0000
0000
1001
1001
1001
1001
0000
0000
1001
1001
1001
1001
,
0100
0000
1001
0000
0000
0101
0000
0000
0011
0000
0000
0101
0000
0000
1000
0000
,
0011
0011
0011
0011
0000
0000
0011
0011
0011
0011
0000
0000
0011
0011
0011
0011
,
0011
0000
0000
1010
0000
0000
0011
0000
0000
1010
0000
0000
0011
0000
1100
0000
,
1001
1001
1001
1001
0000
0000
1001
1001
1001
1001
0000
0000
1001
1001
1001
1001
,
1002
0000
0000
1100
0000
0000
1010
0000
0000
0000
0000
0000
0000
0000
0000
0000
,
0000
0000
0000
0000
0000
0000
0000
0000
1103
0010
0101
1000
0000
0001
1010
0000
,
0101
0010
1100
0001
1010
0100
1001
0100
0011
0000
1100
0001
0000
0010
1100
0000
,
0011
1000
0101
0010
0000
0001
1100
0000
1001
0100
1010
0001
0000
1000
0101
0000
,
1010
0000
0001
0000
1100
0000
0010
0000
0000
0000
0010
0000
0101
0000
0000
0000
1001
0010
0100
0000
0011
0000
1000
0000
0000
0000
0010
0000
1100
0000
0000
0000
,
0001
0000
1100
0000
0001
1000
0010
0000
1100
0000
1100
0000
0001
0000
0000
0000
1100
0000
0010
0000
0101
0000
1000
0000
0000
0000
0001
0000
1010
0000
0000
0000
,
0101
0010
1100
0001
1010
0100
1001
0100
0011
0000
1100
0001
0000
0010
1100
0000
,
0011
1000
0101
0010
0000
0001
1100
0000
1001
0010
0101
1000
0000
0001
1010
0000
,
1100
0000
0010
0000
0101
0000
1000
0000
0000
0000
0100
0000
1001
0000
0010
0000
0101
2000
0011
0000
0011
0000
0100
0000
0010
0000
0001
0000
0100
0000
0001
0000
,
0100
0010
0001
0000
0011
0011
3011
0011
1100
0001
1000
0010
1100
0001
0100
1001
,
0010
1001
0100
0011
1100
0001
1000
0010
1100
0000
0010
0001
0010
0100
1000
0100
,
0010
0100
1000
0001
0010
0000
0100
0000
0001
2000
0000
0000
0000
0000
0000
0000
0011
0000
0100
0000
3001
0000
1000
0000
0011
0000
1000
0000
0010
0000
1001
0000
,
0100
0000
1001
0000
0010
0000
1100
0000
0011
0000
0100
0000
0001
0000
1000
0000
0011
0000
0000
0000
0000
0200
0000
0000
0000
0000
0000
0000
0000
0300
0000
0000
,
0000
0100
0010
0100
0010
0100
0000
0000
0002
0000
0003
0000
0000
0000
0200
0000
1310
0000
0001
0000
0010
0000
0100
0000
1010
0000
0001
0000
0010
0000
1001
0000
,
0100
0000
1001
0000
0100
0010
2000
0000
0000
0000
0000
3010
2000
0000
0000
0000
0000
0000
0000
0000
0000
0000
0000
0000
0000
0000
0000
0000
0000
0000
0000
0000
,
3100
0010
0001
1000
0100
0010
1000
0001
0100
1000
0100
0010
0001
0000
0000
0000
1100
0000
0001
0000
1000
0000
0010
0000
1100
0000
0001
0000
0100
0000
1001
0000
,
0010
0001
0010
0100
0001
1000
0100
0010
0001
1000
0100
0010
1000
0001
0010
0100
1011
0000
0000
0000
0000
0000
1011
0000
0000
0000
0000
0000
1011
0000
0000
0000
,
0000
1011
0000
0000
1011
0000
2012
0000
0000
0000
0000
0000
3003
0000
0000
0000
;

//---------------dance-single - ----------------
#NOTES:
     dance-single:
     :
     Hard:
     10:
     1.000,1.000,0.929,1.000,0.994,591.000,107.000,122.000,0.000,36.000:
0000
0000
0000
0000
,
0210
0000
0000
0000
0000
2300
3200
2300
,
3021
0000
0000
0000
0000
0000
0230
0302
,
0213
0000
0000
0000
0000
0000
0000
0000
0000
0000
0000
0000
0000
0000
0000
0000
0000
0000
0000
0000
0000
0000
0000
0300
0200
0000
0000
0000
0302
0000
0000
0000
,
0213
0000
0321
2031
,
3201
0000
0000
0000
0000
2300
3200
2300
,
3021
0000
0000
0000
0000
0000
0230
0320
,
1032
0000
0000
0000
0000
0000
0203
0302
,
1023
0000
1032
0000
,
0100
0100
0100
0100
,
0103
0010
0100
0010
1000
0010
1000
0010
0100
0001
0100
0001
1000
0001
1000
0001
,
1200
0000
0001
0320
0000
0000
0231
0000
0302
0000
0100
0000
0023
0000
0100
0000
,
1032
0000
0100
0000
0000
0000
0103
0000
2000
0000
0001
3200
0000
0000
2301
0000
,
3020
0000
0001
0000
0000
0000
0031
0000
0010
2000
0001
3200
0000
0000
2301
0000
,
3110
0002
0000
0000
0100
0000
0000
0000
0000
0000
0000
0000
0103
0000
0000
0000
0001
0000
0010
0000
0001
0000
0010
0000
0001
0000
0010
0000
1000
0000
0000
0000
,
1200
0000
0001
0320
0000
0000
0231
0000
0302
0000
0100
0000
0023
0000
0100
0000
,
1032
0000
0100
0000
0000
0000
0103
0000
2000
0000
0001
3200
0000
0000
2301
0000
,
3020
0000
0100
0000
0000
0000
0130
0000
0002
0000
0100
0000
0000
0000
1013
0100
,
0010
0100
1000
0000
0001
0000
1000
0000
0100
0000
0010
0000
0001
0000
0100
0000
0010
0000
1000
0000
0001
0000
0100
0000
0010
0000
0100
0000
0000
0000
0000
0000
,
1010
0001
1000
0001
0100
0001
0100
0001
0010
0001
0100
0001
1000
0001
0100
0001
,
1010
0001
1000
0001
0100
0001
0100
0001
0010
0001
0100
0001
1000
0001
0100
0000
,
1010
0001
1000
0001
0100
0001
0100
0001
0010
0001
0100
0001
1000
0001
0100
0001
,
1010
0001
0100
0001
0010
0001
1010
0100
0010
0001
0000
0000
1001
0000
1000
0000
,
0001
1000
0001
1000
0010
1000
0010
1000
0100
1000
0010
1000
0001
1000
0010
1000
,
0101
1000
0001
1000
0010
1000
0010
1000
0100
1000
0010
1000
0001
1000
0010
0000
,
0001
1000
0001
1000
0010
1000
0010
1000
0100
1000
0010
1000
0001
1000
0010
1000
,
0101
1000
0010
1000
0100
1000
0101
0010
0100
1000
0000
0000
0010
0000
0010
1001
,
0000
0000
0000
0000
0000
0000
0000
0000
0000
0000
0000
0000
0000
0000
0000
0000
2000
0000
0000
0000
0000
0000
0000
0000
0001
0000
0000
0000
0000
0000
0000
0000
3200
0000
0000
0000
0000
0000
0000
0000
0001
0000
0000
0000
0000
0000
0000
0000
0320
0000
0000
0000
0000
0000
0000
0000
0001
0000
0000
0030
1100
0000
0010
0000
,
0002
0000
0100
0000
0000
0000
0100
0000
0003
0000
0120
0030
2000
3000
1010
0201
,
0000
0000
0001
0000
0000
0000
0001
0000
0000
0000
0001
0000
0300
0000
0101
1010
,
0001
0010
0001
1000
0100
0010
0100
1000
0100
0010
0001
1000
0001
0000
0100
1001
,
0000
0000
0000
0000
0000
0000
0000
0000
0000
0000
0000
0000
0000
0000
0000
0000
0000
0000
0000
0000
0000
0000
0000
0000
0001
0000
0000
0000
0000
0000
0000
0000
0000
0000
0000
0000
0000
0000
0000
0000
0000
0000
0000
0000
0000
0000
0000
0000
0000
0000
0000
0000
0000
0000
0000
0000
0000
0000
0000
0000
0000
0000
0000
0000
0000
0000
0000
0000
0000
0000
0000
0000
0001
0000
0000
0000
0000
0000
0000
0000
0000
0000
0000
0000
0000
0000
0000
0000
0000
0000
0000
0000
0000
0000
0000
0000
0000
0000
0000
0000
0000
0000
0000
0000
0000
0000
0000
0000
0000
0000
0000
0000
0000
0000
0000
0000
0000
0000
0000
0000
0001
0000
0000
0000
0000
0000
0000
0000
0000
0000
0000
0000
0000
0000
0000
0000
0010
0000
0000
0000
0000
0000
0000
0000
0000
0000
0000
0000
0000
0000
0000
0000
0100
0000
0000
0000
0000
0000
0000
0000
0000
0000
0000
0000
0000
0000
0000
0000
1010
0000
0000
0000
0000
0000
0000
0000
0000
0000
0000
0000
0101
0000
0000
0000
0000
0000
1000
0000
0000
0000
0000
0000
,
0020
0000
0001
0000
0000
0000
0131
0200
0000
0000
0321
0030
0001
0010
0101
2010
,
0000
0000
0000
3000
0000
0000
0010
0000
0000
0000
0000
0000
0200
0000
0000
0000
0000
0000
0310
0000
0000
2000
0000
0000
3000
0000
0000
2000
0000
0000
3010
0000
0000
1000
0000
0000
2000
0000
0000
0000
0000
0000
0010
0000
3000
0101
0000
0000
,
0010
0001
0010
0100
0010
0001
0100
0010
0100
0001
0010
0100
0010
0001
0100
0010
0100
0001
1000
0100
0010
0100
1000
0100
,
0010
0001
1000
0001
1000
0001
1000
0001
1100
0000
0000
0000
0000
0000
0000
0000
,
0000
0000
0000
0000
2000
0000
0000
0000
3200
0000
0000
0320
0000
0000
0230
0000
,
0302
0000
0000
0000
0000
0000
0203
0302
,
0000
0000
0000
0000
0000
0000
0203
0320
,
0000
0000
0000
0000
0230
0000
0302
0000
0000
0000
1000
0000
1203
1000
0320
0000
,
0001
0000
0000
0000
1000
0000
0000
1000
0230
1000
0000
0000
2310
0000
3200
0000
,
0001
0000
0000
0000
0010
0000
0000
0010
0302
0010
0000
0000
0010
0000
0000
0000
,
0123
0000
0000
0000
1000
0000
0000
1000
0000
1000
0000
0000
1230
0000
0320
0000
,
0001
0000
0000
0000
1000
0000
0000
0000
1230
0000
0010
0000
0302
0000
0000
0000
1000
0000
0000
0000
0103
0010
1000
0000
0100
0000
0010
0000
0001
0000
0010
0000
,
0100
1000
0100
1000
0000
0000
0100
1000
0100
1000
0000
0000
0100
1000
0100
1000
,
0101
0000
0000
0011
0000
0000
0101
0000
0000
0011
0000
0000
0101
0000
1010
0000
,
0100
0010
0100
0010
0000
0000
0100
0010
0100
0010
0000
0000
0100
0010
0100
0010
,
1000
0000
0101
0000
0000
1010
0000
0000
1100
0000
0000
1010
0000
0000
0100
0000
,
0001
0010
0001
0010
0000
0000
0001
0010
0001
0010
0000
0000
0001
0010
0001
0010
,
0101
0000
0000
1001
0000
0000
0101
0000
0000
1001
0000
0000
1010
0000
1100
0000
,
0001
1000
0001
1000
0000
0000
0001
1000
0001
1000
0000
0000
0001
1000
0001
1000
,
0022
0000
0000
0000
,
0000
0000
0000
0000
0000
0000
0000
0000
0000
0000
0000
0000
0000
0000
0000
0000
0000
0000
0000
0000
0000
0000
0000
0033
1200
0000
0000
0000
0000
0000
0001
0000
0000
0320
0000
0000
0000
0000
0000
0000
0000
0000
0231
0000
0000
0000
0000
0000
,
0302
0100
0023
0100
1032
0100
0000
0103
,
2000
0000
0001
3200
0000
0000
2301
0000
3020
0000
0001
0000
0000
0000
0031
0000
,
0010
0000
2000
0000
0001
0000
3200
0000
0000
0000
0000
0000
2301
0000
0000
0000
3110
0002
0000
0000
0100
0000
0000
0000
0000
0000
0000
0000
0103
0000
0000
0000
,
0010
0000
1000
0000
0010
0100
0001
0000
1000
0000
0001
0000
1000
0000
0000
0000
1200
0000
0000
0000
0001
0000
0320
0000
0000
0000
0000
0000
0231
0000
0000
0000
,
0302
0100
0023
0100
1032
0100
0000
0103
,
2000
0000
0001
3200
0000
0000
2301
0000
3020
0000
0100
0000
0000
0000
0130
0000
,
0002
0000
0000
0000
0100
0000
0000
0000
0000
0000
0000
0000
1013
0000
0100
0000
0010
0100
1000
0000
0001
0000
0010
0000
0100
0000
0010
0000
0001
0000
1000
0000
,
0100
0010
0100
0000
1000
0001
1000
0001
1100
0000
0000
0000
1100
0000
0000
1100
,
0000
1100
0000
1100
0011
0000
0000
0000
1001
0000
0010
0001
0010
0100
1000
0100
,
0010
0000
0000
0000
0000
0000
0000
0000
0100
0000
0000
0000
0000
0000
0000
0000
0010
0000
0000
0000
0000
0000
0000
0000
0001
0000
0000
0000
0000
0000
0000
0000
0000
0000
0000
0000
0100
0000
0000
0000
0000
0000
0000
0000
0000
0000
0000
0000
0001
0000
0000
0000
0000
0000
2000
0000
0000
0000
0000
0000
0000
0000
0000
0000
0000
0000
0000
0000
0000
0000
0000
0000
0000
0000
0000
0000
0000
0000
0000
0000
0000
0000
0000
0000
0000
0000
0000
0000
0000
0000
0000
0000
0000
0000
0000
0000
3011
0000
0000
0000
0000
0000
0000
0000
0000
0000
0000
0000
0000
0000
0000
0000
0000
0000
0000
0000
0000
0000
0000
0000
0000
0000
0000
0000
0000
0000
0000
0000
0000
0000
0000
0000
0000
0000
0000
0000
0000
0000
0000
0000
0000
0000
0000
0000
0011
0000
0000
0000
0000
0000
0000
0000
0000
0000
0000
0000
0000
0000
0000
0000
0000
0000
0000
0000
0000
0000
0000
0000
0000
0000
0000
0000
0000
0000
0000
0000
0000
0000
0000
0000
0011
0000
0000
0000
0000
0000
0000
0000
0000
0000
0000
0000
,
0000
0000
0011
0000
0000
0000
0011
0000
1100
0000
0000
0000
0000
0000
0000
0000
1001
0000
0000
0000
0000
0200
0000
0000
0000
0000
0000
0000
0000
0300
0000
0000
,
0000
0000
0000
0000
0000
0000
0000
0000
0100
0000
0000
0000
0000
0000
0000
0000
0010
0000
0000
0000
0000
0000
0000
0000
0100
0000
0000
0000
0000
0000
0000
0000
0010
0000
0000
0000
0000
0000
0000
0000
0000
0000
0000
0000
0000
0000
0000
0000
0002
0000
0000
0000
0000
0000
0000
0000
0000
0000
0000
0000
0003
0000
0000
0000
0000
0000
0000
0000
0000
0000
0000
0000
0000
0000
0000
0000
0000
0000
0000
0000
0000
0000
0000
0000
0200
0000
0000
0000
0000
0000
0000
0000
0000
0300
0000
0000
1001
0000
0000
0000
0000
0000
0000
0000
0000
0000
0000
0000
0000
0000
0000
0000
0000
0000
0000
0000
0000
0000
0000
0000
0000
0000
0000
0000
0000
0000
0000
0000
0000
0000
0000
0000
0000
0000
0000
0000
0000
0000
0000
0000
0000
0000
0000
0000
1001
0000
0000
0000
0000
0000
0000
0000
0000
0000
0000
0000
0000
0000
0000
0000
0000
0000
0000
0000
0000
0000
0000
0000
0000
0000
0000
0000
0000
0000
0000
0000
0000
0000
0000
0000
1001
0000
0000
0000
0000
0000
0000
0000
0000
0000
0000
0000
,
0000
0000
1001
0000
0000
0010
2000
0000
0000
0000
0000
3010
2000
0000
0000
0000
0001
0000
0000
0000
0000
0000
0000
0000
0000
0000
0000
0000
0000
0000
0000
0000
,
3100
0000
0010
0000
0001
0000
0100
0000
0010
0000
1000
0000
0100
0000
0010
0000
0001
0000
0010
0000
0000
0000
0000
0000
0101
0000
0000
0000
0000
0000
0000
0000
0000
0000
0000
0000
0101
0000
0000
0000
0000
0000
0000
0000
0000
0101
0000
0000
,
0010
0000
0100
0000
1000
0000
0100
0000
0010
0000
0001
0000
0100
0000
0010
0000
1000
0000
0100
0000
0010
0000
0100
0000
1001
0000
0000
0000
0000
0000
0000
0000
0000
1001
0000
0000
0000
0000
0000
0000
0000
0000
1001
0000
0000
0000
0000
0000
,
0000
1001
0000
0000
1001
0000
2002
0000
0000
0000
0000
0000
3003
0000
0000
0000
;
