#TITLE:この子の七つのお祝いに;
#SUBTITLE:;
#ARTIST:あさき;
#TITLETRANSLIT:konokononanatunooiwaini;
#SUBTITLETRANSLIT:;
#ARTISTTRANSLIT:asaki;
#CREDIT:;
#BANNER:q-j+-b.png;
#BACKGROUND:q-j+-bg.png;
#LYRICSPATH:;
#CDTITLE:cdtitle_gfdm.png;
#MUSIC:q-j+.ogg;
#OFFSET:-1.520;
#SAMPLESTART:69.420;
#SAMPLELENGTH:12.000;
#SELECTABLE:YES;
#BPMS:0.000=160.800;
#STOPS:;
#BGCHANGES:;
// cache tags:
#FIRSTBEAT:8.000;
#LASTBEAT:264.021;
#SONGFILENAME:Songs/new encore/q-j+/q-j+.sm;
#HASMUSIC:1;
#HASBANNER:1;
#MUSICLENGTH:103.000;
// end cache tags

//---------------dance-single - ----------------
#NOTES:
     dance-single:
     :
     Beginner:
     1:
     0.140,0.183,0.029,0.000,0.000,98.000,3.000,0.000,0.000,0.000:
0000
0000
0000
0000
,
0000
0000
0000
0000
,
0010
0000
1000
0000
,
0010
0000
0010
0010
,
0010
0000
0100
0000
,
0010
0000
0010
0010
,
0010
0000
0000
0000
,
1000
0000
0000
0000
,
0100
0000
0001
0000
,
0001
0001
0001
0000
,
0001
0000
0000
0000
,
1000
0000
0000
0000
,
0001
0000
0100
0000
,
0001
0000
0000
0000
,
1001
0000
0000
0000
,
0010
0000
1000
0000
,
0010
0000
0000
0000
,
0100
0000
0100
0000
,
0100
0000
0000
0000
,
0001
0000
0100
0000
,
0001
0000
0000
0000
,
1000
0000
0001
0000
,
1000
0000
0000
0000
,
0010
0000
0000
0000
,
0100
0000
0000
0000
,
0100
0100
0100
0100
,
0100
0000
0000
0000
,
0001
0000
0000
0000
,
1000
0000
0000
0000
,
0010
0010
0000
0000
,
1000
0000
0001
0000
,
1000
0000
0001
0000
,
1000
0000
0000
0000
,
0010
0000
0000
0000
,
0100
0000
0000
0000
,
0010
0000
0000
0000
,
0100
0000
0001
0000
,
1000
0000
0001
0000
,
0000
0000
1000
1000
,
1000
1000
0000
0010
,
0000
1000
0000
0010
,
0000
0000
0001
0000
,
0100
0000
0001
0000
,
0010
0000
0001
0000
,
1000
0000
0001
0000
,
0001
0001
0001
0000
,
0000
0000
1000
0000
,
0000
0000
0001
0000
,
0000
0000
0100
0000
,
0010
0000
0100
0000
,
0000
0000
1000
0000
,
0001
0000
1000
0000
,
0000
0000
0010
0000
,
0010
0010
0010
0000
,
0100
0000
0010
0000
,
1000
0000
0010
0000
,
0100
0000
0010
0000
,
0000
0000
0000
0000
,
0001
0000
0000
0000
,
0000
0000
1000
0000
,
0000
0000
0000
0000
,
0100
0000
0000
0000
,
0000
0000
0000
1001
,
1001
0000
0000
0000
;

//---------------dance-single - ----------------
#NOTES:
     dance-single:
     :
     Easy:
     4:
     0.258,0.288,0.117,0.019,0.000,172.000,12.000,2.000,0.000,0.000:
0000
0000
0000
0000
,
0000
0000
0000
0000
,
1000
0000
0000
1010
0000
0000
0000
0000
,
1000
0010
0100
0010
,
0100
0000
0000
0110
0000
0000
0000
0000
,
0001
1000
0010
0100
,
0010
0000
0001
0000
,
0010
0000
0100
0010
,
0100
0000
0001
0000
,
1000
0000
0000
1001
0000
0000
0000
0000
,
1000
0000
0010
0000
,
0100
0000
0010
0000
,
1001
0000
0010
0000
,
1000
0000
0100
0000
0000
1001
0000
0000
,
0010
1000
0010
0000
,
0100
0001
0010
0000
,
1000
0001
1000
0000
,
0100
0010
0001
1000
,
0010
0000
0100
0000
,
0001
0000
1000
0000
,
0010
0000
0100
0000
,
0010
1000
0010
0100
,
0010
0000
0000
1000
0000
0000
0000
0000
,
0001
0000
0000
0010
0000
0000
0000
0000
,
1000
0000
0000
0100
0000
0000
0000
0000
,
0010
0000
1000
0000
,
0010
0000
0000
0010
0000
0000
0000
0000
,
0001
0000
0000
0001
0000
0000
0000
0000
,
0100
0000
0000
0100
0000
0000
0000
0000
,
0010
0010
0000
0100
,
0001
0000
1000
0000
,
0010
0000
0100
0000
,
0001
0000
1000
0000
,
0010
0000
0010
0000
0000
0100
0000
0000
,
0001
0100
0001
0000
,
0100
0000
0010
0000
,
1000
0000
0010
0000
,
1000
0000
0001
0001
,
0001
0000
0100
0100
,
0100
0110
0000
1000
,
0000
0010
0000
0100
,
0010
0100
0001
0000
,
1000
0000
0010
0100
,
0010
1000
0001
0001
,
0100
0100
0010
0010
,
1000
1000
1001
0000
,
0100
0000
0010
0000
,
1000
0001
0100
0000
,
0010
0000
1000
0000
,
0010
0000
0001
0000
0100
0000
0000
1001
,
0000
0000
0000
0000
0010
0000
0000
1001
,
0000
0000
0010
0000
,
1000
0000
0001
0000
,
0100
0100
0010
1000
,
0010
0100
0010
1000
,
0010
0100
0010
1000
,
0010
0100
0010
0010
,
0010
0100
0100
0100
,
0010
0010
0010
0100
,
0100
0100
0001
0001
,
0001
0100
0100
0100
,
0001
0001
0001
0100
,
0100
0100
0100
1001
,
1001
2002
0000
0000
,
0000
0000
0000
0000
,
0000
0000
0000
0000
,
0000
3003
0000
0000
0000
0000
0000
0000
0000
0000
0000
0000
0000
0000
0000
0000
0000
0000
0000
0000
0000
0000
0000
0000
0000
0000
0000
0000
0000
0000
0000
0000
0000
0000
0000
0000
0000
0000
0000
0000
0000
0000
0000
0000
0000
0000
0000
0000
0000
0000
0000
0000
0000
0000
0000
0000
0000
0000
0000
0000
0000
0000
0000
0000
0000
0000
0000
0000
0000
0000
0000
0000
0000
0000
0000
0000
0000
0000
0000
0000
0000
0000
0000
0000
0000
0000
0000
0000
0000
0000
0000
0000
0000
0000
0000
0000
0000
0000
0000
0000
0000
0000
0000
0000
0000
0000
0000
0000
0000
0000
0000
0000
0000
0000
0000
0000
0000
0000
0000
0000
0000
0000
0000
0000
0000
0000
0000
0000
0000
0000
0000
0000
0000
0000
0000
0000
0000
0000
0000
0000
0000
0000
0000
0000
0000
0000
0000
0000
0000
0000
0000
0000
0000
0000
0000
0000
0000
0000
0000
0000
0000
0000
0000
0000
0000
0000
0000
0000
0000
0000
0000
0000
0000
0000
0000
0000
0000
0000
0000
0000
0000
0000
0000
0000
0000
0000
0000
0000
0000
0000
0000
0000
;

//---------------dance-single - Copied from----------------
#NOTES:
     dance-single:
     Copied from:
     Medium:
     6:
     0.372,0.545,0.146,0.243,0.019,228.000,15.000,25.000,0.000,0.000:
0000
0000
0000
0000
,
0000
0000
0000
0000
,
1010
0000
0000
1001
0000
0000
0000
0000
,
0010
0000
1000
0000
0100
1000
0100
0000
,
0101
0000
0000
1001
0000
0000
0000
0000
,
0010
0000
1000
0000
0010
0100
0010
0000
,
0001
1000
0010
0100
,
0001
0000
0010
0000
1000
0010
1000
0000
,
0100
0000
0000
0010
0000
0000
0000
0000
,
0110
0000
0000
0101
0000
0000
0000
0000
,
0010
1000
0100
1000
,
0010
0100
0001
0000
,
1001
0000
0110
0000
,
0001
0000
0100
0000
0000
1001
0000
0000
,
0010
1000
0100
1000
,
0001
0000
0100
0000
0010
0100
0010
0000
,
1000
0001
0100
0010
,
1000
0100
1000
0000
0010
0100
0010
0000
,
0001
1000
0010
0100
,
1000
0000
0100
0000
0010
0100
0001
0000
,
0010
0001
0100
1000
,
0010
0000
0100
0000
0001
1000
0100
0000
,
0010
0000
0000
0001
0000
0000
1000
0000
,
0010
0000
0000
0100
0000
0000
0001
0000
,
1000
0000
0000
0010
0000
0000
1000
0000
,
0001
0000
0000
0001
0000
0000
0100
0000
0000
0100
0000
0000
0010
0000
1000
0000
,
0010
0000
0000
0001
0000
0000
0100
0000
,
0100
0000
0000
1000
0000
0000
0010
0000
,
0010
0000
0000
0100
0000
0000
0001
0000
,
0001
0100
0001
1000
0000
0000
0001
0000
,
0001
1000
0010
0100
,
0010
0001
1000
0100
,
0001
0000
0000
1000
0000
0000
0000
0000
,
0010
0000
1000
0000
0000
0100
0000
0010
,
0000
1000
0000
0100
0000
0000
0000
0000
,
1000
0000
0010
0000
,
1000
0100
0001
0010
,
1000
0100
0001
1000
,
0001
0000
0100
0010
,
0100
1001
0010
0100
,
0001
0100
1000
0100
,
0010
1000
0010
0000
0100
0000
0001
0000
,
0100
0010
1000
0001
,
1000
0100
0010
0010
,
1000
0000
1000
0000
0001
0100
0001
0000
,
0010
0100
0010
0100
0010
0000
0000
0000
,
1000
0010
0100
0000
,
0010
0001
0100
0000
,
1000
0000
0010
0000
0100
0000
0000
0001
,
0000
0000
0000
0000
0110
0000
0000
1001
,
0000
0000
0000
0000
1010
0000
0000
0101
,
0000
0000
1100
0000
,
1000
0010
0100
0000
,
0010
0100
0010
0100
0010
0000
1000
0000
,
0010
0100
0001
1000
,
0001
0100
0010
1000
,
0010
0100
0002
0203
,
0302
2003
3020
2030
,
3002
2003
3002
0203
,
2300
3200
0320
2030
,
3020
0230
0320
0230
,
0302
2003
3002
0203
,
0302
0000
0000
0203
0000
0000
0301
0000
0000
0001
1000
0001
,
2000
0000
0000
0000
,
0000
0000
0000
0000
,
0000
0000
0000
0000
,
3000
0000
0000
0000
;

//---------------dance-single - Copied from----------------
#NOTES:
     dance-single:
     Copied from:
     Hard:
     9:
     0.552,0.609,0.291,0.126,0.107,355.000,30.000,13.000,0.000,0.000:
0000
0000
0000
0000
,
0000
0000
0000
0000
,
1010
0000
0000
1010
0000
0000
1010
0000
0000
0000
0000
0000
0000
0000
0000
0000
,
0001
0100
0010
0100
0001
1000
0010
0000
,
0101
0000
0000
0101
0000
0000
0101
0000
0000
0000
0000
0000
0000
0000
0000
0000
,
0010
1000
0100
1000
0010
0001
0100
0000
,
1000
0010
0100
0001
,
2000
0000
3200
0000
0310
0100
0010
0000
,
0011
0000
0000
1001
0000
0000
0000
0000
,
0110
0000
0000
0110
0000
0000
0220
0000
0000
0000
0000
0000
0330
0000
0000
0000
,
1000
0010
1000
0100
,
0010
0000
0100
0000
1000
0000
0001
0000
0100
0000
0010
0000
0001
0100
0000
1001
,
0000
0000
0110
0000
,
0100
0000
0010
0000
0100
0001
0100
0010
0000
0000
1001
0000
0000
0000
0000
0000
,
0010
0100
1000
0000
0001
1000
0010
0000
,
0100
1000
0001
1000
0100
0001
0010
0000
,
0001
0100
0010
0100
0001
1000
0010
1000
,
0100
0001
0100
0010
1000
0100
1000
0000
,
0001
0100
0001
0100
0010
0001
0010
0001
,
0100
0010
0100
1000
0010
0001
0010
0000
,
0000
0001
0100
0010
0000
1000
0100
1000
,
0000
0010
0100
0001
0100
0010
1000
0100
,
1000
0000
0000
0010
0000
0001
0100
0010
,
0100
0000
0000
1000
0000
0010
0001
0100
,
0001
0000
0000
0010
0000
0001
0100
1000
,
0100
0001
0000
0001
0010
0000
0010
0100
0000
0100
1000
0000
1000
0100
1000
0000
,
0010
0000
0000
0001
0000
0010
0100
0001
,
1000
0000
0000
0001
0000
1000
0100
0010
,
0001
0000
0000
0010
0000
0001
0100
0010
,
1000
0100
1000
0000
1000
0000
1000
0010
0000
0000
0000
0000
0010
0000
0000
0000
,
0001
1000
0010
1000
0001
0100
0010
0100
,
1000
0001
0100
0001
1000
0010
0100
1001
,
0000
0000
0000
0011
0000
0000
0000
0000
,
0010
0000
1000
0000
0100
0000
0010
0000
0000
0000
1001
0000
0010
0100
0010
0000
,
1000
0100
1000
0000
0001
0100
0001
0000
0000
0000
1000
0000
0000
0000
0100
0000
,
0000
0010
1000
0001
1000
0010
0001
0100
,
0010
0000
0100
0000
1000
0000
0010
0000
0001
0000
0000
0010
0000
0000
1000
0000
,
0100
0000
0000
0010
0000
0000
0001
0000
0010
0000
0000
0010
0000
0000
0010
0000
,
0010
0000
0000
0000
0010
0100
0010
1000
,
0010
0000
1001
0100
0010
0100
0001
0100
,
0010
1000
0100
1000
0010
1000
0100
1000
,
1010
1010
1010
0000
0001
1000
0010
1000
,
0001
0100
0010
0100
1000
0010
0001
0010
,
1000
0100
0010
0001
0101
0100
0010
0000
,
0101
0001
1000
0000
0110
0100
0001
0100
,
1000
0010
0100
0010
1001
0000
0010
0000
,
0100
0001
0100
0000
0010
0000
1000
0000
,
0100
1000
0100
0000
0010
0000
0100
0000
,
0001
0100
0001
0000
1010
0000
0000
0101
,
0000
0010
1000
0100
1000
0000
0000
1010
,
0000
0000
0000
0000
0110
0000
0000
1001
,
0000
0000
0000
0000
0010
1000
0100
0000
,
0010
0100
0010
0000
0100
1000
0001
0000
,
0010
0100
0010
0100
1000
0010
1000
0010
,
0100
0010
0100
0010
0001
0010
0001
0010
,
0100
0010
0100
0010
0100
1000
0100
1000
,
0100
0010
0100
0010
0200
0000
1000
0000
,
1000
0302
0100
0100
,
0023
0001
0001
2030
,
0010
0010
3002
1000
,
0100
0023
1000
0001
,
0230
1000
0010
0302
,
1000
0000
0000
0100
0000
0000
0013
0000
0000
1000
0001
1000
,
0002
0000
0000
0000
,
0000
0000
0000
0000
,
0000
0000
0000
0000
,
0003
0000
0000
0000
;
