#TITLE:Poppin' Shower;
#SUBTITLE:(Ryu☆ Remix);
#ARTIST:P*Light;
#TITLETRANSLIT:;
#SUBTITLETRANSLIT:;
#ARTISTTRANSLIT:;
#CREDIT:owenviau1;
#BANNER:../Banner.png;
#BACKGROUND:../BG.png;
#LYRICSPATH:;
#CDTITLE:../CDTitleBRAEDEN.png;
#MUSIC:P_Light - Poppin' Shower (Ryu Remix).ogg;
#OFFSET:-1.023;
#SAMPLESTART:92.701;
#SAMPLELENGTH:29.999;
#SELECTABLE:YES;
#BPMS:0.000=212.002,7.000=211.985,8.000=212.002,15.000=211.985,16.000=212.002,22.000=211.985,23.000=212.002,30.000=211.985,31.000=212.002,37.000=211.985,38.000=212.002,45.000=211.985,46.000=212.002,52.000=211.985,53.000=212.002,60.000=211.985,61.000=212.002,68.000=211.985,69.000=212.002,75.000=211.985,76.000=212.002,82.000=211.985,83.000=212.002,90.000=211.985,91.000=212.002,98.000=211.985,99.000=212.002,105.000=211.985,106.000=212.002,113.000=211.985,114.000=212.002,121.000=211.985,122.000=212.002,128.000=211.985,129.000=212.002,132.000=106.001,135.000=105.997,136.000=106.001,139.000=105.997,140.000=106.001,143.000=105.997,144.000=106.001,146.000=105.997,147.000=106.001,150.000=105.997,151.000=106.001,154.000=105.997,155.000=106.001,158.000=105.997,159.000=106.001,161.000=105.997,162.000=106.001,165.000=105.997,166.000=106.001,169.000=105.997,170.000=106.001,173.000=105.997,174.000=106.001,176.000=105.997,177.000=106.001,180.000=212.002,186.000=211.985,187.000=212.002,194.000=211.985,195.000=212.002,201.000=211.985,202.000=212.002,209.000=211.985,210.000=212.002,216.000=211.985,217.000=212.002,224.000=211.985,225.000=212.002,232.000=211.985,233.000=212.002,239.000=211.985,240.000=212.002,247.000=211.985,248.000=212.002,254.000=211.985,255.000=212.002,262.000=211.985,263.000=212.002,269.000=211.985,270.000=212.002,277.000=211.985,278.000=212.002,284.000=211.985,285.000=212.002,291.000=211.985,292.000=212.002,299.000=211.985,300.000=212.002,306.000=211.985,307.000=212.002,314.000=211.985,315.000=212.002,321.000=211.985,322.000=212.002,329.000=211.985,330.000=212.002,337.000=211.985,338.000=212.002,344.000=211.985,345.000=212.002,351.000=211.985,352.000=212.002,359.000=211.985,360.000=212.002,367.000=211.985,368.000=212.002,374.000=211.985,375.000=212.002,382.000=211.985,383.000=212.002,389.000=211.985,390.000=212.002,397.000=211.985,398.000=212.002,405.000=211.985,406.000=212.002,412.000=211.985,413.000=212.002,420.000=211.985,421.000=212.002,427.000=211.985,428.000=212.002,435.000=211.985,436.000=212.002,443.000=211.985,444.000=212.002,450.000=211.985,451.000=212.002,458.000=211.985,459.000=212.002,465.000=211.985,466.000=212.002,473.000=211.985,474.000=212.002,481.000=211.985,482.000=212.002,488.000=211.985,489.000=212.002,496.000=211.985,497.000=212.002,503.000=211.985,504.000=212.002,511.000=211.985,512.000=212.002,520.000=211.985,521.000=212.002,527.000=211.985,528.000=212.002,535.000=211.985,536.000=212.002,542.000=211.985,543.000=212.002,550.000=211.985,551.000=212.002,558.000=211.985,559.000=212.002,565.000=211.985,566.000=212.002,573.000=211.985,574.000=212.002,580.000=211.985,581.000=212.002,588.000=211.985,589.000=212.002,596.000=211.985,597.000=212.002,603.000=211.985,604.000=212.002,611.000=211.985,612.000=212.002,618.000=211.985,619.000=212.002,623.000=211.985,624.000=212.019,625.000=211.985,626.000=212.002,630.000=211.985,631.000=212.019,632.000=211.985,633.000=212.019,634.000=211.985,635.000=212.002,637.000=211.985,638.000=212.019,639.000=211.985,640.000=212.019,641.000=211.985,642.000=212.002,646.000=211.985,647.000=212.019,648.000=211.985,649.000=212.002,653.000=211.985,654.000=212.019,655.000=211.985,656.000=212.002,660.000=211.985,661.000=212.019,662.000=211.985,663.000=212.019,664.000=211.985,665.000=212.002,669.000=211.985,670.000=212.019,671.000=211.985,672.000=212.002,676.000=211.985,677.000=212.019,678.000=211.985,679.000=212.002,683.000=211.985,684.000=212.019,685.000=211.985,686.000=212.019,687.000=211.985,688.000=212.002,692.000=211.985,693.000=212.019,694.000=211.985,695.000=212.002,699.000=211.985,700.000=212.019,701.000=211.985,702.000=212.002,706.000=211.985,707.000=212.019,708.000=211.985,709.000=212.002,713.000=211.985,714.000=212.019,715.000=211.985,716.000=212.019,717.000=211.985,718.000=212.002,722.000=211.985,723.000=212.019,724.000=211.985,725.000=212.002,729.000=211.985,730.000=212.019,731.000=211.985,732.000=212.002,736.000=211.985,737.000=212.019,738.000=211.985,739.000=212.019,740.000=211.985,741.000=212.002,745.000=211.985,746.000=212.019,747.000=211.985,748.000=212.002,752.000=211.985,753.000=212.019,754.000=211.985,755.000=212.002,759.000=211.985,760.000=212.019,761.000=211.985,762.000=212.019,763.000=211.985,764.000=212.002,766.000=211.985,767.000=212.019,768.000=211.985,769.000=212.019,770.000=211.985,771.000=212.002,775.000=211.985,776.000=212.019,777.000=211.985,778.000=212.002,782.000=211.985,783.000=212.019,784.000=211.985,785.000=212.002;
#STOPS:;
#BGCHANGES:;
// cache tags:
#FIRSTBEAT:0.500;
#LASTBEAT:761.000;
#SONGFILENAME:Songs/Index Fusion - Part 2/Poppin' Shower - [Braeden]/Poppin' Shower.sm;
#HASMUSIC:1;
#HASBANNER:1;
#MUSICLENGTH:237.635;
// end cache tags

//---------------dance-single - ----------------
#NOTES:
     dance-single:
     :
     Challenge:
     21:
     1.000,1.000,0.265,0.202,1.000,1687.000,63.000,48.000,25.000,0.000:
4000
0000
0000
0000
0000
0000
3020
0000
0000
0030
0000
0000
0020
0000
0000
0030
0000
0000
0020
0000
0000
0030
0000
0000
0400
0000
0000
0000
0300
0000
0001
0000
0000
1000
0000
0000
0002
0000
0000
0020
0000
0000
0003
0000
0000
0000
0000
0000
,
0130
0000
1000
0000
0000
0000
0001
1000
0000
0000
0001
0000
0020
0000
0000
0000
,
0130
0000
1000
0000
0001
0000
0001
0000
0000
0000
0001
0000
0200
0000
0000
0300
,
0040
0000
4030
3000
,
0002
0000
0000
0000
0000
0000
0003
0000
0000
0000
0000
0000
0020
0000
0000
0000
0000
0000
0030
0000
0000
0000
0000
0000
0200
0000
0000
0000
0000
0000
0300
0000
0000
0000
0000
0000
2000
0000
0000
0000
0000
0000
3000
0000
0000
0000
0000
0000
0004
0000
0000
0000
0000
0000
0003
0000
0000
0000
0000
0000
0400
0000
0000
0000
0000
0000
0300
0000
0000
0000
0000
0000
0004
0000
0000
0000
0000
0000
0003
0000
0000
0000
0000
0000
4000
0000
0000
0000
0000
0000
3000
0000
0000
0000
0000
0000
0040
0000
0000
0000
0030
0000
0000
0000
0000
0000
0000
0000
0400
0000
0000
0300
0000
0000
0000
0000
0000
0000
0000
0000
0004
0000
0003
0000
0000
0000
0000
0000
0000
0000
0000
0000
0000
0000
0000
0000
0000
0000
0000
0000
0000
0000
0000
0000
0000
0000
0000
0000
0000
0000
0000
0000
0000
0000
0000
0000
0000
0000
0000
0000
0000
0000
0000
0000
0000
0000
0000
0000
0000
0000
0000
0000
0000
0000
0000
0000
0000
0000
0000
0000
0000
0000
0000
0000
0000
0000
0000
0000
0000
0000
0000
0000
,
1000
0000
0100
0000
0000
0000
1000
0001
0000
0000
0100
0000
0020
0000
0000
0000
,
1030
0100
1000
1000
0000
1000
0020
0000
,
0430
0000
0304
4003
,
3040
0000
0000
0000
0000
0000
0000
0000
0130
0000
0001
0000
2000
0000
0000
3000
,
0001
0100
0010
1000
0100
0010
0100
1000
,
0001
0100
0010
1000
0100
0010
0001
1000
,
0100
0100
0010
0001
0001
0100
0010
0010
,
1000
0100
0000
0100
1000
0000
0001
0000
,
1001
0001
0100
0010
1000
0100
0010
0001
,
1000
0010
0100
0001
1000
0100
0010
0100
,
1000
0000
0001
0000
1000
0000
0001
0000
1000
0010
0100
0001
1000
0100
0010
0100
,
1000
0001
0100
0010
1000
0100
0010
0100
1000
0000
0001
0000
0100
0000
0000
0000
,
0001
0000
0100
0000
0010
0000
1000
0010
1000
0000
0010
0000
0010
0000
0100
0001
,
0100
0000
0100
0000
0010
0000
1000
0001
0100
0000
0010
1000
0010
0000
0100
0001
,
0100
0000
0010
0000
0010
0000
1000
0100
1000
0000
0001
0000
0001
0000
0100
0001
,
0100
0000
0000
0000
0000
0000
0010
0000
0000
0000
0000
0000
1000
0000
0000
0000
0000
0000
0001
0000
0000
0100
0000
0000
0001
0000
0000
0000
0000
0000
0100
0000
0000
0000
0000
0000
0010
0000
0000
0000
0000
0000
1000
0000
0100
0000
1000
0000
,
0100
0000
0000
0000
0000
0000
0010
0000
0000
0000
0000
0000
0001
0000
0000
0000
0000
0000
1000
0000
0001
0000
1000
0000
0001
0000
0000
0000
0000
0000
0010
0000
0000
0000
0000
0000
0001
0000
0000
0000
0000
0000
1000
0000
0000
0001
0000
0000
,
1000
0000
0010
0000
0100
0000
0100
0001
0100
0000
0010
0000
1000
0000
0100
0010
,
0100
0000
0100
0000
0001
0000
0010
0000
0010
0000
0001
0000
0100
0000
0010
1000
,
0001
0000
0100
0010
0100
0000
0001
0100
0001
0000
2000
3200
2300
3001
0000
0000
,
1000
0000
1000
0000
0010
0000
0100
0001
0100
0000
0010
0000
1000
0000
0001
0100
,
0010
0000
0000
0000
0000
0000
0010
0000
0000
0000
0000
0000
1000
0000
0000
0000
0000
0000
0100
0000
0000
0010
0000
0000
0001
0000
0100
0000
0001
0000
0010
0000
0001
0000
1000
0000
0100
0000
0010
0000
0001
0000
0010
0000
0100
0000
1000
0000
,
0001
0100
0010
1000
0100
0010
0001
0010
0100
1000
0001
0010
0001
0100
0010
1000
0001
0010
0100
1000
0001
0100
0010
1000
,
0100
0010
0100
1000
0001
0010
0100
1000
0001
0100
0010
0100
0001
0010
0001
1000
0100
0010
0001
0010
0100
1000
0001
0100
,
0010
0000
0000
0000
0010
0000
0000
0000
0100
0004
0000
0000
1003
0000
0000
0000
0100
0000
0000
0000
0100
0000
0000
0000
0010
0004
0000
0000
1003
0000
0000
0000
,
0100
0000
0000
0000
0100
0000
0000
0000
0010
0004
0000
0000
1003
0000
0000
0000
0100
0000
0000
0000
0100
0000
0000
0000
0010
0000
0000
0000
0010
0000
0000
0000
,
0001
0000
0001
0000
1000
0000
1000
0000
0001
0100
0010
1000
0001
0100
0010
1000
,
0002
0000
0000
0000
0000
0000
1003
0100
0010
0001
0010
0100
1000
0001
0100
0010
1000
0100
0010
0000
0000
0000
0000
0000
,
0002
0000
0003
0000
4000
3001
0000
0040
,
0430
0300
0000
0000
0000
0000
4000
0000
,
3004
0000
0000
0000
0003
0000
4000
3004
,
0103
0010
1000
0001
,
2000
0000
0000
0000
3010
0000
0100
0001
0000
0100
0000
0010
0000
0000
0000
0000
,
0040
0000
0000
0000
0000
0000
0000
0000
1030
0000
0000
0000
0100
0000
0000
0000
0010
0000
0000
0010
0000
0000
0010
0000
0000
0000
0000
0000
0M00
0000
0000
0M00
,
0040
0000
0000
0000
MM00
0000
0000
0000
0031
0000
0000
0000
1000
0000
0000
0000
0001
0000
0000
0100
0000
0000
M010
000M
0000
0000
0000
0000
0MM0
0000
0000
0000
,
4000
0000
0000
0M00
0000
0000
0000
0000
3100
0000
0000
0000
0010
0000
0000
0000
0001
0000
0000
0100
0000
0000
0010
0000
0000
0000
0000
0000
0000
0000
0000
0000
,
200M
0M00
00M0
0M00
,
30M2
M000
02M3
M000
,
032M
0M00
203M
0M00
,
30M2
M000
20M3
3M00
,
1002
0203
0320
2030
,
3200
0320
0032
2003
,
3004
0403
0340
4030
,
3004
0403
0310
1000
,
0001
0010
0100
1000
0001
0010
0001
0100
0010
1000
0100
0010
0001
0010
0100
1000
0001
0010
0001
1000
0010
0100
0001
0010
,
0100
1000
0001
0100
0010
1000
0100
0010
0001
0010
0100
1000
0001
0100
0010
0100
0001
1000
0100
0010
0001
0010
0100
1000
,
0001
0001
0100
0100
0010
0010
1000
1000
,
0100
0010
0100
0010
0100
1000
0001
0000
,
1000
0100
0010
0001
0010
0100
1000
0001
0010
0001
0100
0010
0100
0001
1000
0100
,
0010
0001
0010
0100
1000
0001
0100
0010
0100
0001
0010
0100
1000
0001
0010
0001
,
0100
0010
0100
0001
1000
0100
0010
0001
0010
0100
1000
0001
0100
0010
1000
0100
,
0010
0100
1000
0001
0010
0100
1000
0001
0100
0010
0100
0001
1000
0100
0010
0100
,
1000
0001
0100
0010
1000
0001
0010
0100
1000
0001
0010
0001
0100
0010
0100
0001
,
1000
0100
0010
0100
1000
0001
0100
0010
0100
0001
0010
0100
1000
0001
0100
0010
,
0100
0001
0100
0010
1000
0100
0010
0001
0010
0100
1000
0001
0100
0010
1000
0100
,
0010
0100
1000
0001
0100
0010
0100
0001
1000
0100
1000
0001
0100
0010
1000
0001
,
0010
0100
0010
0001
0100
0010
0100
0001
1000
0100
1000
0100
0010
0001
0100
0010
,
0100
0001
0010
0100
1000
0001
0100
0010
0100
0001
1000
0100
0010
0100
1000
0001
,
0100
0010
0100
0001
1000
0100
0010
0100
1000
0001
0100
0010
0100
0001
0010
0001
,
1000
0100
0010
0100
1000
0001
0010
0100
1000
0001
0100
0010
0100
0001
1000
0010
,
1000
1000
0010
0010
0100
0100
0001
0001
,
0100
0100
0010
0010
1000
1000
0100
0100
,
0010
0001
0100
0010
1000
0100
0010
0001
,
1000
0100
0010
0001
0040
0000
0030
0000
,
1001
0001
0000
0100
0000
0010
0010
0000
,
1001
0000
0000
0000
0010
0000
0000
0000
1001
0000
0000
0000
1001
0000
0000
0000
0000
0000
0000
0000
1000
0000
0000
0000
0100
0040
0000
0000
0031
0000
0000
0000
,
1000
0000
1000
0000
1000
0000
0010
0000
0010
0000
0010
0000
0100
0000
0001
1000
,
0001
0010
0000
0100
1000
0000
0100
0000
,
1001
0000
1000
0000
0001
0000
0100
0000
0010
0000
0100
0000
0100
0000
0010
1000
,
0010
0100
0001
0001
1000
0010
0010
0100
,
0101
0000
1000
0000
0101
0000
1000
0000
0001
0100
0001
0100
0010
1000
0010
1000
,
0010
0000
0000
0000
0000
0000
0000
0000
0110
0000
0000
0000
0000
0000
0000
0000
0110
0000
0000
0000
0000
0000
0000
0000
1000
0004
0000
0000
0013
0000
0000
0000
,
0100
0000
0100
0000
1000
0000
0010
0000
0100
0000
0100
0000
0001
0000
1000
0010
,
0100
0001
0010
0010
0010
0100
1000
0001
,
1010
0001
1010
0001
0100
0100
0100
0100
,
0010
1000
0100
0010
0001
0010
0100
1000
0001
0010
0001
1000
0010
0100
0001
0010
0001
1000
0100
0010
0100
1000
0001
0100
,
0010
0010
1000
1000
0100
0100
0010
0010
,
0001
1000
0100
0010
0001
0010
0100
1000
0001
0100
0010
0100
0001
1000
0100
0010
0100
1000
0001
0100
0010
0100
0001
1000
,
0100
0000
0000
0000
0000
0000
0100
0000
0000
0000
0000
0000
0010
0000
0000
0000
0000
0000
0010
0000
0000
0000
0000
0000
0001
0000
0000
1000
0000
0000
0001
0000
0000
1000
0000
0000
0001
0000
1000
0000
0001
0000
1000
0000
0001
0000
1000
0000
,
0001
0000
0000
0000
,
2000
0000
0000
3010
0000
0000
0100
0000
0100
0001
0000
0000
,
0100
0000
0100
0010
0000
0010
1000
0100
1000
0001
0000
0000
,
0100
0000
0100
0010
0000
0010
1000
0000
1000
0100
0000
0000
,
0010
0001
0100
0000
,
0010
0000
0000
1000
0000
0000
0100
0000
0010
0001
0000
0000
,
1000
0000
0001
0100
0000
0100
0010
1000
0001
0100
0000
0000
,
0010
0000
1000
0010
0000
0010
0100
0001
0100
0010
0000
0000
,
1000
0000
0000
0000
0000
0000
0004
0000
0000
0000
0000
0000
0000
0000
0000
0000
0000
0000
0000
0000
0000
0000
0000
0000
0003
0000
0000
0000
0000
0000
0000
0000
0000
0000
0000
0000
0000
0000
0000
0000
0000
0000
0000
0000
0000
0000
0000
0000
1000
0000
0000
0000
0000
0000
0040
0000
0000
0000
0000
0000
0000
0000
0000
0000
0000
0000
0000
0000
0000
0000
0000
0000
0030
0000
0000
0000
0000
0000
0000
0000
0000
0000
0000
0000
0000
0000
0000
0000
0000
0000
0000
0000
0000
0000
0000
0000
4000
0000
0000
0000
0000
0000
0000
0000
0000
0000
0000
0000
0000
0000
0000
0000
3040
0000
0000
0000
0000
0000
0000
0000
0000
0000
0000
0000
0000
0000
0000
0000
0430
0000
0000
0000
0000
0000
0000
0000
0000
0000
0000
0000
0000
0000
0000
0000
0310
0000
0000
0000
0000
0000
0000
0000
0000
0000
0000
0000
0000
0000
0000
0000
0000
0000
0000
0000
0000
0000
0000
0000
0000
0000
0000
0000
0000
0000
0000
0000
0000
0000
0000
0000
0000
0000
0000
0000
0000
0000
0000
0000
0000
0000
0000
0000
,
1010
0000
1000
0010
0000
0000
0100
0000
0010
1000
0000
0000
,
1010
0000
0100
0010
0000
0010
0100
0000
0000
1010
0000
0000
,
1000
0100
0010
0100
1000
0100
0010
0000
0100
0010
0000
0100
,
0010
0011
1001
1010
,
0001
0000
0001
0100
0000
0000
0010
0000
0010
1000
0000
0000
,
1001
0000
0001
0100
0000
0010
1000
0100
1000
0001
0000
0000
,
1001
0000
0001
0100
0000
0010
1000
0100
1000
0001
0100
0010
,
1000
0000
0000
0000
,
2000
0000
3020
0000
,
0430
0000
0000
0000
,
0302
0000
0203
0000
,
0340
0000
0000
0000
,
2030
0000
3001
0100
,
0010
0000
0000
1000
0000
0000
0010
0000
0000
0000
0000
0000
0000
0000
0000
0000
,
2000
0000
3010
0100
,
0001
0000
0000
0010
0000
0000
0002
0000
0000
0000
0000
0000
0003
0000
0000
0000
,
2001
0000
3010
0001
,
1001
0000
0000
0010
0000
0000
0100
0000
1001
0000
0000
0000
0010
0000
0000
0000
,
1000
0100
0010
0001
0010
0100
1000
0000
0000
0000
0000
0000
1001
0000
0000
0000
0000
0000
0010
0000
0000
0000
0000
0000
,
1001
0000
0000
0010
0000
0000
0100
0000
0101
0000
0000
0000
0000
0000
0000
0000
,
2002
3003
1001
0010
,
1100
0000
0000
0010
0000
0000
0001
0000
1001
0000
0000
0000
0000
0000
0000
0000
,
0020
0030
1000
0010
,
1001
0001
0100
0010
1000
0000
0000
0000
,
1000
0000
0000
0000
1000
0000
0000
0000
0100
0000
0010
0000
0100
0000
0010
0000
0100
0000
0000
0000
0000
0000
0000
0000
1000
0001
0000
0000
0000
0000
0000
0000
,
1000
0000
0000
0000
0000
0000
0010
0000
0000
0000
0000
0000
0100
0000
0000
0001
0000
0000
1000
0000
0000
0100
0000
0000
0010
0000
0000
0000
0000
0000
0000
0000
0000
0000
0000
0000
0001
0100
0000
0000
0000
0000
0000
0000
0000
0000
0000
0000
,
0010
0000
0000
1000
0000
0000
0100
0000
0000
1000
0000
0000
0001
0000
0000
0100
0000
0000
0010
0000
0000
1000
0000
0000
0100
0000
0000
0000
0000
0000
0000
0000
0000
0000
0000
0000
0010
0001
0000
0000
0000
0000
0000
0000
0000
0000
0000
0000
,
1000
0100
0010
0001
0010
0100
1000
0001
0010
0001
1000
0100
0010
0001
0010
0100
1000
0001
0100
0010
0100
0001
1000
0100
,
0010
0000
0000
0000
0010
0000
0000
0000
0001
1000
0000
0000
0010
0000
0000
0000
0100
0000
0000
0000
0001
0000
0000
0000
1000
0100
0000
0000
0010
0000
0000
0000
,
0001
0010
0000
0000
0100
0000
0000
0000
1000
0001
0000
0000
0100
0000
0000
0000
0010
1000
0000
0000
0001
0000
0000
0000
0100
0010
0000
0000
1000
0000
0000
0000
,
0010
0000
0010
0000
0100
0000
0100
0000
0001
1000
0001
1000
0001
0100
0010
0100
,
0001
0000
0000
0000
,
1000
0100
0010
0001
0010
0100
1000
0001
0100
0000
0010
1000
0000
1000
0010
0000
,
0100
0001
0100
0010
1000
0100
0010
0001
1000
0001
0000
0100
0000
0000
0010
1000
,
0100
0010
0001
0010
0100
1000
0001
0100
0010
1000
0000
0001
0000
1000
0000
0010
,
0100
0001
1000
0100
0010
0001
0010
0100
1000
0001
0000
0100
0000
0010
1000
0100
,
0010
0001
0010
0100
1000
0001
0100
0010
1000
0100
0000
0010
0000
0001
0000
0100
,
0010
1000
0100
0010
0100
1000
0001
0100
0010
1000
0000
0100
0000
0010
0001
0100
,
0010
1000
0100
0010
0100
1000
0001
0100
0010
1000
0000
0100
0000
0010
0001
0100
,
0010
1000
0100
0010
0100
1000
0001
0100
0010
1000
0000
0100
0000
0010
0001
0100
,
0010
1000
0100
0010
0100
1000
0001
0100
0010
0100
0001
1000
0100
0010
0100
1000
,
0001
0010
0001
0100
0010
0100
0001
0010
0001
1000
0100
0010
0100
1000
0001
0100
,
0010
1000
0001
0010
0100
1000
0001
0100
0010
0100
0001
1000
0100
0010
0100
1000
,
0001
1000
0100
0010
0100
1000
0001
0100
0010
0100
0001
1000
0100
0010
0100
1000
,
0001
0010
0001
0100
0010
0100
0001
0010
0001
1000
0100
0010
0100
1000
0001
0100
,
0010
0100
0001
0010
0100
1000
0001
0100
0010
0100
0001
0010
0001
1000
0100
0010
,
0100
1000
0001
0010
0100
1000
0001
0100
0010
0100
0001
0010
0001
1000
0100
0010
,
0100
1000
0001
0100
0010
0100
0001
0010
0001
1000
0100
0010
0100
1000
0001
0100
,
0010
0100
0001
1000
0100
0010
0100
1000
0001
0010
0100
1000
0001
0100
0010
0100
,
0001
1000
0100
0010
0100
1000
0001
0100
0010
1000
0100
0010
0001
0010
0100
1000
,
0001
0100
0010
0100
0001
1000
0100
0010
0100
1000
0001
0100
0010
1000
0100
0010
,
0100
1000
0001
0010
0001
0100
0010
0100
0001
1000
0001
0100
0010
0100
0001
0100
,
0010
1000
0001
0100
0010
1000
0100
1000
0001
0100
0001
1000
0100
0010
0100
1000
,
0001
0100
0010
1000
0100
0010
0100
1000
0001
0100
0010
1000
0001
0000
0000
0010
,
0100
1000
0100
1000
0100
1000
0100
1000
0100
0000
0000
0000
0010
0000
0000
0000
,
1001
0000
0000
0110
0000
0000
0011
0000
0000
0000
0000
0000
0000
0000
0000
0000
,
1000
0100
0100
0010
0001
0001
0100
0010
,
1010
0000
0000
0100
0000
0000
0011
0000
0000
1000
0000
0000
1001
0000
0000
0000
,
1000
0010
0010
0100
0001
0001
0100
0010
,
1100
0001
0110
1000
1001
0000
0010
0100
,
0001
0001
0100
0100
0010
0010
1000
1000
,
0001
0100
0001
0100
0010
1000
0010
1000
,
0001
0100
0010
1000
0100
0010
0100
1000
,
0001
0100
0010
1000
0001
0010
0100
1000
0001
0100
0010
0100
0001
1000
0100
0010
,
0100
0000
0100
0000
0000
0000
1000
0001
0100
0000
0010
0000
1000
0000
0001
0000
,
0100
0010
1000
1000
0001
0100
0010
1000
,
0001
0001
0100
0010
0010
1000
0100
0000
,
0010
0001
0000
0001
0010
0000
0011
0000
,
1000
1000
0010
0100
0001
1000
1000
0100
,
0010
0010
0001
0001
0000
1000
1000
0010
,
0100
0100
0001
0010
0010
0100
1000
0000
,
0001
0100
0000
0100
0001
0000
0100
0000
,
0101
0000
0100
0000
0010
0000
1000
0100
0010
0000
0001
0000
0100
0000
0100
0000
,
0010
0010
1000
1000
0000
0001
0100
0010
,
1000
1000
0010
0100
0100
0001
1000
0000
,
0001
0100
0000
0010
1000
0000
0010
0000
,
1010
0000
1000
0000
0000
0000
0001
0010
0001
0000
0000
0000
1000
0000
0010
0000
,
0100
0100
0001
0001
0000
0100
0010
0000
,
1000
0000
1000
0000
0010
0000
0010
0000
0100
0001
0100
0010
1000
0100
0010
0100
,
1000
0001
0100
0010
1000
0100
0010
0100
,
1000
0000
0010
0000
0100
0000
0001
0100
0010
0000
1000
0000
1000
0000
0010
0000
,
0100
0100
0001
0001
0100
0010
0010
1000
,
0010
0010
0100
0001
0001
0100
0010
1000
,
0100
0100
0010
0001
0001
0100
0010
1000
,
0100
0100
0010
0001
0100
0010
0010
1000
,
0100
0100
0010
0010
0001
0100
0100
0010
,
1000
1000
0100
0010
0010
0001
0100
0010
,
1000
1000
0010
0100
0100
0001
0110
0000
,
1001
0000
0010
0000
0000
0000
0100
0001
0100
0000
0010
0000
1000
0000
1000
0000
,
0100
0100
1000
1000
0001
0100
0010
1000
,
0001
0001
0100
0010
0010
1000
0100
0000
,
0010
0001
0000
0001
0010
0000
0001
0000
,
1001
0000
1000
0000
0001
1000
0010
0100
0001
0000
0010
0000
0002
0000
0103
0000
,
0010
1000
0010
0010
0010
0100
0001
0000
,
1000
0000
0100
0000
0010
0000
0001
0000
1000
0010
0100
0001
1000
0100
0010
0001
,
0100
0000
0010
1000
0100
1000
0010
0000
0100
0000
0001
0000
0100
0010
1000
0001
,
0040
0000
0000
0000
,
0000
0030
0000
0000
;

//---------------dance-single - ----------------
#NOTES:
     dance-single:
     :
     Hard:
     18:
     1.000,1.000,0.265,0.202,1.000,1616.000,63.000,48.000,25.000,0.000:

4000
0000
0000
0000
0000
0000
3020
0000
0000
0030
0000
0000
0020
0000
0000
0030
0000
0000
0020
0000
0000
0030
0000
0000
0400
0000
0000
0000
0300
0000
0001
0000
0000
1000
0000
0000
0002
0000
0000
0020
0000
0000
0003
0000
0000
0000
0000
0000
,
0130
0000
1000
0000
0000
0000
0001
1000
0000
0000
0001
0000
0020
0000
0000
0000
,
0130
0000
1000
0000
0001
0000
0001
0000
0000
0000
0001
0000
0200
0000
0000
0300
,
0040
0000
4030
3000
,
0002
0000
0000
0000
0000
0000
0003
0000
0000
0000
0000
0000
0020
0000
0000
0000
0000
0000
0030
0000
0000
0000
0000
0000
0200
0000
0000
0000
0000
0000
0300
0000
0000
0000
0000
0000
2000
0000
0000
0000
0000
0000
3000
0000
0000
0000
0000
0000
0004
0000
0000
0000
0000
0000
0003
0000
0000
0000
0000
0000
0400
0000
0000
0000
0000
0000
0300
0000
0000
0000
0000
0000
0004
0000
0000
0000
0000
0000
0003
0000
0000
0000
0000
0000
4000
0000
0000
0000
0000
0000
3000
0000
0000
0000
0000
0000
0040
0000
0000
0000
0030
0000
0000
0000
0000
0000
0000
0000
0400
0000
0000
0300
0000
0000
0000
0000
0000
0000
0000
0000
0004
0000
0003
0000
0000
0000
0000
0000
0000
0000
0000
0000
0000
0000
0000
0000
0000
0000
0000
0000
0000
0000
0000
0000
0000
0000
0000
0000
0000
0000
0000
0000
0000
0000
0000
0000
0000
0000
0000
0000
0000
0000
0000
0000
0000
0000
0000
0000
0000
0000
0000
0000
0000
0000
0000
0000
0000
0000
0000
0000
0000
0000
0000
0000
0000
0000
0000
0000
0000
0000
0000
0000
,
1000
0000
0100
0000
0000
0000
1000
0001
0000
0000
0100
0000
0020
0000
0000
0000
,
1030
0100
1000
1000
0000
1000
0020
0000
,
0430
0000
0304
4003
,
3040
0000
0000
0000
0000
0000
0000
0000
0130
0000
0001
0000
2000
0000
0000
3000
,
0001
0100
0010
1000
0100
0010
0100
1000
,
0001
0100
0010
1000
0100
0010
0001
1000
,
0100
0100
0010
0001
0001
0100
0010
0010
,
1000
0100
0000
0100
1000
0000
0001
0000
,
1001
0001
0100
0010
1000
0100
0010
0001
,
1000
0010
0100
0001
1000
0100
0010
0100
,
1000
0000
0001
0000
1000
0000
0001
0000
1000
0010
0100
0001
1000
0100
0010
0100
,
1000
0001
0100
0010
1000
0100
0010
0100
1000
0000
0001
0000
0100
0000
0000
0000
,
0001
0000
0100
0000
0010
0000
1000
0010
1000
0000
0010
0000
0010
0000
0100
0001
,
0100
0000
0100
0000
0010
0000
1000
0001
0100
0000
0010
1000
0010
0000
0100
0001
,
0100
0000
0010
0000
0010
0000
1000
0100
1000
0000
0001
0000
0001
0000
0100
0001
,
0100
0000
0010
0000
1000
0000
0001
0100
0001
0000
0100
0000
0010
0000
1000
0000
,
0100
0000
0010
0000
0001
0000
1000
0000
0001
0000
0010
0000
0001
0000
1000
0001
,
1000
0000
0010
0000
0100
0000
0100
0001
0100
0000
0010
0000
1000
0000
0100
0010
,
0100
0000
0100
0000
0001
0000
0010
0000
0010
0000
0001
0000
0100
0000
0010
1000
,
0001
0000
0100
0010
0100
0000
0001
0100
0001
0000
2000
3200
2300
3001
0000
0000
,
1000
0000
1000
0000
0010
0000
0100
0001
0100
0000
0010
0000
1000
0000
0001
0100
,
0010
0000
0010
0000
1000
0000
0100
0010
0001
0010
0100
1000
0001
0100
0010
0100
,
0001
0010
0001
1000
0100
0010
0001
0010
0100
1000
0001
0100
0010
0100
0001
0010
,
0001
1000
0100
0010
0100
1000
0001
0010
0100
1000
0001
0100
0010
0100
0001
1000
,
0010
0000
0000
0000
0010
0000
0000
0000
0100
0004
0000
0000
1003
0000
0000
0000
0100
0000
0000
0000
0100
0000
0000
0000
0010
0004
0000
0000
1003
0000
0000
0000
,
0100
0000
0000
0000
0100
0000
0000
0000
0010
0004
0000
0000
1003
0000
0000
0000
0100
0000
0000
0000
0100
0000
0000
0000
0010
0000
0000
0000
0010
0000
0000
0000
,
0001
0000
0001
0000
1000
0000
1000
0000
0001
0100
0010
1000
0001
0100
0010
1000
,
0002
0000
0000
0000
1003
0100
0010
0001
0010
0100
1000
0001
0010
0000
0000
0000
,
0002
0000
0003
0000
4000
3001
0000
0040
,
0430
0300
0000
0000
0000
0000
4000
0000
,
3004
0000
0000
0000
0003
0000
4000
3004
,
0103
0010
1000
0001
,
2000
0000
0000
0000
3010
0000
0100
0001
0000
0100
0000
0010
0000
0000
0000
0000
,
0040
0000
0000
0000
0000
0000
0000
0000
1030
0000
0000
0000
0100
0000
0000
0000
0010
0000
0000
0010
0000
0000
0010
0000
0000
0000
0000
0000
0M00
0000
0000
0M00
,
0040
0000
0000
0000
MM00
0000
0000
0000
0031
0000
0000
0000
1000
0000
0000
0000
0001
0000
0000
0100
0000
0000
M010
000M
0000
0000
0000
0000
0MM0
0000
0000
0000
,
4000
0000
0000
0M00
0000
0000
0000
0000
3100
0000
0000
0000
0010
0000
0000
0000
0001
0000
0000
0100
0000
0000
0010
0000
0000
0000
0000
0000
0000
0000
0000
0000
,
200M
0M00
00M0
0M00
,
30M2
M000
02M3
M000
,
032M
0M00
203M
0M00
,
30M2
M000
20M3
3M00
,
1002
0203
0320
2030
,
3200
0320
0032
2003
,
3004
0403
0340
4030
,
3004
0403
0310
1000
,
0001
0010
0100
1000
0001
0010
0001
1000
0100
0010
0001
0010
0100
1000
0001
0100
,
0010
0100
0001
0010
0001
1000
0100
0010
0100
1000
0001
0100
0010
0100
0001
0100
,
0001
0001
0100
0100
0010
0010
1000
1000
,
0100
0010
0100
0010
0100
1000
0001
0000
,
1000
0100
0010
0001
0010
0100
1000
0001
0010
0001
0100
0010
0100
0001
1000
0100
,
0010
0001
0010
0100
1000
0001
0100
0010
0100
0001
0010
0100
1000
0001
0010
0001
,
0100
0010
0100
0001
1000
0100
0010
0001
0010
0100
1000
0001
0100
0010
1000
0100
,
0010
0100
1000
0001
0010
0100
1000
0001
0100
0010
0100
0001
1000
0100
0010
0100
,
1000
0001
0100
0010
1000
0001
0010
0100
1000
0001
0010
0001
0100
0010
0100
0001
,
1000
0100
0010
0100
1000
0001
0100
0010
0100
0001
0010
0100
1000
0001
0100
0010
,
0100
0001
0100
0010
1000
0100
0010
0001
0010
0100
1000
0001
0100
0010
1000
0100
,
0010
0100
1000
0001
0100
0010
0100
0001
1000
0100
1000
0001
0100
0010
1000
0001
,
0010
0100
0010
0001
0100
0010
0100
0001
1000
0100
1000
0100
0010
0001
0100
0010
,
0100
0001
0010
0100
1000
0001
0100
0010
0100
0001
1000
0100
0010
0100
1000
0001
,
0100
0010
0100
0001
1000
0100
0010
0100
1000
0001
0100
0010
0100
0001
0010
0001
,
1000
0100
0010
0100
1000
0001
0010
0100
1000
0001
0100
0010
0100
0001
1000
0010
,
1000
1000
0010
0010
0100
0100
0001
0001
,
0100
0100
0010
0010
1000
1000
0100
0100
,
0010
0001
0100
0010
1000
0100
0010
0001
,
1000
0100
0010
0001
0040
0000
0030
0000
,
1001
0001
0000
0100
0000
0010
0010
0000
,
1001
0000
0000
0000
0010
0000
0000
0000
1001
0000
0000
0000
1001
0000
0000
0000
0000
0000
0000
0000
1000
0000
0000
0000
0100
0040
0000
0000
0031
0000
0000
0000
,
1000
0000
1000
0000
1000
0000
0010
0000
0010
0000
0010
0000
0100
0000
0001
1000
,
0001
0010
0000
0100
1000
0000
0100
0000
,
1001
0000
1000
0000
0001
0000
0100
0000
0010
0000
0100
0000
0100
0000
0010
1000
,
0010
0100
0001
0001
1000
0010
0010
0100
,
0101
0000
1000
0000
0101
0000
1000
0000
0001
0100
0001
0100
0010
1000
0010
1000
,
0010
0000
0000
0000
0000
0000
0000
0000
0110
0000
0000
0000
0000
0000
0000
0000
0110
0000
0000
0000
0000
0000
0000
0000
1000
0004
0000
0000
0013
0000
0000
0000
,
0100
0000
0100
0000
1000
0000
0010
0000
0100
0000
0100
0000
0001
0000
1000
0010
,
0100
0001
0010
0010
0010
0100
1000
0001
,
1010
0001
1010
0001
0100
0100
0100
0100
,
0010
0001
0010
0100
1000
0001
0010
0001
0100
0010
1000
0001
0010
0100
1000
0001
,
0010
0010
1000
1000
0100
0100
0010
0010
,
1000
0100
0010
0001
0010
0100
1000
0001
0010
0001
1000
0010
0100
0001
1000
0010
,
1000
0000
0000
0000
0000
0000
0100
0000
0000
0000
0000
0000
0010
0000
0000
0000
0000
0000
0010
0000
0000
0000
0000
0000
0001
0000
0000
1000
0000
0000
0001
0000
0000
1000
0000
0000
0001
0000
1000
0000
0001
0000
1000
0000
0001
0000
1000
0000
,
0001
0000
0000
0000
,
2000
0000
0000
3010
0000
0000
0100
0000
0100
0001
0000
0000
,
0100
0000
0100
0010
0000
0010
1000
0100
1000
0001
0000
0000
,
0100
0000
0100
0010
0000
0010
1000
0000
1000
0100
0000
0000
,
0010
0001
0100
0000
,
0010
0000
0000
1000
0000
0000
0100
0000
0010
0001
0000
0000
,
1000
0000
0001
0100
0000
0100
0010
1000
0001
0100
0000
0000
,
0010
0000
1000
0010
0000
0010
0100
0001
0100
0010
0000
0000
,
1000
0000
0000
0000
0000
0000
0004
0000
0000
0000
0000
0000
0000
0000
0000
0000
0000
0000
0000
0000
0000
0000
0000
0000
0003
0000
0000
0000
0000
0000
0000
0000
0000
0000
0000
0000
0000
0000
0000
0000
0000
0000
0000
0000
0000
0000
0000
0000
1000
0000
0000
0000
0000
0000
0040
0000
0000
0000
0000
0000
0000
0000
0000
0000
0000
0000
0000
0000
0000
0000
0000
0000
0030
0000
0000
0000
0000
0000
0000
0000
0000
0000
0000
0000
0000
0000
0000
0000
0000
0000
0000
0000
0000
0000
0000
0000
4000
0000
0000
0000
0000
0000
0000
0000
0000
0000
0000
0000
0000
0000
0000
0000
3040
0000
0000
0000
0000
0000
0000
0000
0000
0000
0000
0000
0000
0000
0000
0000
0430
0000
0000
0000
0000
0000
0000
0000
0000
0000
0000
0000
0000
0000
0000
0000
0310
0000
0000
0000
0000
0000
0000
0000
0000
0000
0000
0000
0000
0000
0000
0000
0000
0000
0000
0000
0000
0000
0000
0000
0000
0000
0000
0000
0000
0000
0000
0000
0000
0000
0000
0000
0000
0000
0000
0000
0000
0000
0000
0000
0000
0000
0000
0000
,
1010
0000
1000
0010
0000
0000
0100
0000
0010
1000
0000
0000
,
1010
0000
0100
0010
0000
0010
0100
0000
0000
1010
0000
0000
,
1000
0100
0010
0100
1000
0100
0010
0000
0100
0010
0000
0100
,
0010
0011
1001
1010
,
0001
0000
0001
0100
0000
0000
0010
0000
0010
1000
0000
0000
,
1001
0000
0001
0100
0000
0010
1000
0100
1000
0001
0000
0000
,
1001
0000
0001
0100
0000
0010
1000
0100
1000
0001
0100
0010
,
1000
0000
0000
0000
,
2000
0000
3020
0000
,
0430
0000
0000
0000
,
0302
0000
0203
0000
,
0340
0000
0000
0000
,
2030
0000
3001
0100
,
0010
0000
0000
1000
0000
0000
0010
0000
0000
0000
0000
0000
0000
0000
0000
0000
,
2000
0000
3010
0100
,
0001
0000
0000
0010
0000
0000
0002
0000
0000
0000
0000
0000
0003
0000
0000
0000
,
2001
0000
3010
0001
,
1001
0000
0000
0010
0000
0000
0100
0000
1001
0000
0000
0000
0010
0000
0000
0000
,
0010
0001
0100
0000
1001
0000
0010
0000
,
1001
0000
0000
0010
0000
0000
0100
0000
0101
0000
0000
0000
0000
0000
0000
0000
,
2002
3003
1001
0010
,
1100
0000
0000
0010
0000
0000
0001
0000
1001
0000
0000
0000
0000
0000
0000
0000
,
0020
0030
1000
0010
,
1001
0001
0100
0010
1000
0000
0000
0000
,
1000
0000
0000
0000
1000
0000
0000
0000
0100
0000
0010
0000
0100
0000
0010
0000
0100
0000
0000
0000
0000
0000
0000
0000
1000
0001
0000
0000
0000
0000
0000
0000
,
1000
0000
0000
0000
0000
0000
0010
0000
0000
0000
0000
0000
0100
0000
0000
0001
0000
0000
1000
0000
0000
0100
0000
0000
0010
0000
0000
0000
0000
0000
0000
0000
0000
0000
0000
0000
0001
0100
0000
0000
0000
0000
0000
0000
0000
0000
0000
0000
,
0010
0000
0000
1000
0000
0000
0100
0000
0000
1000
0000
0000
0001
0000
0000
0100
0000
0000
0010
0000
0000
1000
0000
0000
0100
0000
0000
0000
0000
0000
0000
0000
0000
0000
0000
0000
0010
0001
0000
0000
0000
0000
0000
0000
0000
0000
0000
0000
,
1000
0100
0010
0001
0010
0100
1000
0001
0010
0001
1000
0100
0010
0001
1000
0010
,
0100
0000
0000
0000
0010
0000
0000
0000
0001
1000
0000
0000
0010
0000
0000
0000
0100
0000
0000
0000
0001
0000
0000
0000
1000
0100
0000
0000
0010
0000
0000
0000
,
0001
0010
0000
0000
0100
0000
0000
0000
1000
0001
0000
0000
0100
0000
0000
0000
0010
1000
0000
0000
0001
0000
0000
0000
0100
0010
0000
0000
1000
0000
0000
0000
,
0010
0000
0010
0000
0100
0000
0100
0000
0001
1000
0001
1000
0001
0100
0010
0100
,
0001
0000
0000
0000
,
1000
0100
0010
0001
0010
0100
1000
0001
0100
0000
0010
1000
0000
1000
0010
0000
,
0100
0001
0100
0010
1000
0100
0010
0001
1000
0001
0000
0100
0000
0000
0010
1000
,
0100
0010
0001
0010
0100
1000
0001
0100
0010
1000
0000
0001
0000
1000
0000
0010
,
0100
0001
1000
0100
0010
0001
0010
0100
1000
0001
0000
0100
0000
0010
1000
0100
,
0010
0001
0010
0100
1000
0001
0100
0010
1000
0100
0000
0010
0000
0001
0000
0100
,
0010
1000
0100
0010
0100
1000
0001
0100
0010
1000
0000
0100
0000
0010
0001
0100
,
0010
1000
0100
0010
0100
1000
0001
0100
0010
1000
0000
0100
0000
0010
0001
0100
,
0010
1000
0100
0010
0100
1000
0001
0100
0010
1000
0000
0100
0000
0010
0001
0100
,
0010
1000
0100
0010
0100
1000
0001
0100
0010
0100
0001
1000
0100
0010
0100
1000
,
0001
0010
0001
0100
0010
0100
0001
0010
0001
1000
0100
0010
0100
1000
0001
0100
,
0010
1000
0001
0010
0100
1000
0001
0100
0010
0100
0001
1000
0100
0010
0100
1000
,
0001
1000
0100
0010
0100
1000
0001
0100
0010
0100
0001
1000
0100
0010
0100
1000
,
0001
0010
0001
0100
0010
0100
0001
0010
0001
1000
0100
0010
0100
1000
0001
0100
,
0010
0100
0001
0010
0100
1000
0001
0100
0010
0100
0001
0010
0001
1000
0100
0010
,
0100
1000
0001
0010
0100
1000
0001
0100
0010
0100
0001
0010
0001
1000
0100
0010
,
0100
1000
0001
0100
0010
0100
0001
0010
0001
1000
0100
0010
0100
1000
0001
0100
,
0010
0100
0001
1000
0100
0010
0100
1000
0001
0010
0100
1000
0001
0100
0010
0100
,
0001
1000
0100
0010
0100
1000
0001
0100
0010
1000
0100
0010
0001
0010
0100
1000
,
0001
0100
0010
0100
0001
1000
0100
0010
0100
1000
0001
0100
0010
1000
0100
0010
,
0100
1000
0001
0010
0001
0100
0010
0100
0001
1000
0001
0100
0010
0100
0001
0100
,
0010
1000
0001
0100
0010
1000
0100
1000
0001
0100
0001
1000
0100
0010
0100
1000
,
0001
0100
0010
1000
0100
0010
0100
1000
0001
0100
0010
1000
0001
0000
0000
0010
,
0100
1000
0100
1000
0100
1000
0100
1000
0100
0000
0000
0000
0010
0000
0000
0000
,
1001
0000
0000
0110
0000
0000
0011
0000
0000
0000
0000
0000
0000
0000
0000
0000
,
1000
0100
0100
0010
0001
0001
0100
0010
,
1010
0000
0000
0100
0000
0000
0011
0000
0000
1000
0000
0000
1001
0000
0000
0000
,
1000
0010
0010
0100
0001
0001
0100
0010
,
1100
0001
0110
1000
1001
0000
0010
0100
,
0001
0001
0100
0100
0010
0010
1000
1000
,
0001
0100
0001
0100
0010
1000
0010
1000
,
0001
0100
0010
1000
0100
0010
0100
1000
,
0001
0100
0010
1000
0001
0010
0100
1000
0001
0100
0010
0100
0001
1000
0100
0010
,
0100
0000
0100
0000
0000
0000
1000
0001
0100
0000
0010
0000
1000
0000
0001
0000
,
0100
0010
1000
1000
0001
0100
0010
1000
,
0001
0001
0100
0010
0010
1000
0100
0000
,
0010
0001
0000
0001
0010
0000
0011
0000
,
1000
1000
0010
0100
0001
1000
1000
0100
,
0010
0010
0001
0001
0000
1000
1000
0010
,
0100
0100
0001
0010
0010
0100
1000
0000
,
0001
0100
0000
0100
0001
0000
0100
0000
,
0101
0000
0100
0000
0010
0000
1000
0100
0010
0000
0001
0000
0100
0000
0100
0000
,
0010
0010
1000
1000
0000
0001
0100
0010
,
1000
1000
0010
0100
0100
0001
1000
0000
,
0001
0100
0000
0010
1000
0000
0010
0000
,
1010
0000
1000
0000
0000
0000
0001
0010
0001
0000
0000
0000
1000
0000
0010
0000
,
0100
0100
0001
0001
0000
0100
0010
0000
,
1000
0000
1000
0000
0010
0000
0010
0000
0100
0001
0100
0010
1000
0100
0010
0100
,
1000
0001
0100
0010
1000
0100
0010
0100
,
1000
0000
0010
0000
0100
0000
0001
0100
0010
0000
1000
0000
1000
0000
0010
0000
,
0100
0100
0001
0001
0100
0010
0010
1000
,
0010
0010
0100
0001
0001
0100
0010
1000
,
0100
0100
0010
0001
0001
0100
0010
1000
,
0100
0100
0010
0001
0100
0010
0010
1000
,
0100
0100
0010
0010
0001
0100
0100
0010
,
1000
1000
0100
0010
0010
0001
0100
0010
,
1000
1000
0010
0100
0100
0001
0110
0000
,
1001
0000
0010
0000
0000
0000
0100
0001
0100
0000
0010
0000
1000
0000
1000
0000
,
0100
0100
1000
1000
0001
0100
0010
1000
,
0001
0001
0100
0010
0010
1000
0100
0000
,
0010
0001
0000
0001
0010
0000
0001
0000
,
1001
0000
1000
0000
0001
1000
0010
0100
0001
0000
0010
0000
0002
0000
0103
0000
,
0010
1000
0010
0010
0010
0100
0001
0000
,
1000
0000
0100
0000
0010
0000
0001
0000
1000
0010
0100
0001
1000
0100
0010
0001
,
0100
0000
0010
1000
0100
1000
0010
0000
0100
0000
0001
0000
0001
0010
0100
1000
,
0001
0000
0000
0000
;
