#TITLE:technologic;
#SUBTITLE:;
#ARTIST:daft punk;
#TITLETRANSLIT:;
#SUBTITLETRANSLIT:;
#ARTISTTRANSLIT:;
#CREDIT:;
#BANNER:technologic-bn.png;
#BACKGROUND:technologic-bg.png;
#LYRICSPATH:;
#CDTITLE:!DokuDX.png;
#MUSIC:Daft Punk - Technologic.mp3;
#OFFSET:-4.100;
#SAMPLESTART:67.020;
#SAMPLELENGTH:12.500;
#SELECTABLE:YES;
#BPMS:0.000=127.460;
#STOPS:;
#BGCHANGES:;
// cache tags:
#FIRSTBEAT:8.000;
#LASTBEAT:591.500;
#SONGFILENAME:Songs/cedric step/technologic/technologic.sm;
#HASMUSIC:1;
#HASBANNER:1;
#MUSICLENGTH:284.350;
// end cache tags

//---------------dance-single - DdrmaniacmaNEMESetup----------------
#NOTES:
     dance-single:
     DdrmaniacmaNEMESetup:
     Hard:
     10:
     0.531,0.572,0.098,0.436,0.026,904.000,28.000,124.000,0.000,9.000:
0000
0000
0000
0000
,
0000
0000
0000
0000
,
1000
0100
0010
0001
,
1000
0100
0010
0001
,
0001
0010
0100
1000
,
0001
0010
0100
1000
,
1000
0100
1000
0100
,
1000
0001
1000
0001
,
0010
0001
0010
0100
,
0010
1000
0100
0010
,
1000
0001
0010
0100
,
0001
1000
0100
0001
,
1000
0001
2000
3001
,
0001
0100
0010
1000
,
1001
0000
0000
0000
1100
0000
0000
0000
0101
0000
0010
0100
0000
0000
0001
0000
,
0100
0000
0000
0000
1000
0000
0000
0000
0100
0000
0010
1000
0000
0000
0001
0000
,
0100
0000
0000
0000
0101
0000
0000
0000
1100
0000
0010
0100
0000
0000
0100
0000
,
0001
0000
0000
0000
0100
0000
0000
0000
1000
0000
0100
1000
0000
0000
0010
0000
,
1000
0000
0000
0000
0001
0000
0100
0000
1000
0000
0001
0010
0000
0000
0001
0000
,
0100
0000
0000
0000
0010
0000
0000
0000
1000
0000
0001
1000
0000
0000
0001
0000
,
0010
0000
0000
0000
0100
0000
0000
0000
0001
0000
0100
0001
0000
0000
1000
0000
,
0010
0000
0000
0000
0100
0000
0000
0000
1000
0000
1000
0100
0000
0000
0001
0000
,
1000
0000
0000
0000
0001
0000
0000
0000
0100
0000
0010
0100
0000
0000
0001
0000
,
1000
0000
0000
0000
0100
0000
0000
0000
0010
0000
0001
0010
0000
0000
0001
0000
,
0100
0000
0000
0000
0010
0000
0000
0000
1000
0000
0001
1000
0000
0000
0001
0000
,
0100
0000
0000
0000
1000
0000
0000
0000
0100
0000
0010
1000
0000
0000
0001
0000
,
0100
0000
0000
0000
0100
0000
0000
0000
1000
0000
0010
2000
0000
3000
0001
0000
,
1000
0000
0001
0000
0100
0000
0000
0000
0001
0000
0010
0100
0000
0000
0001
0000
,
0100
0000
0010
0000
2000
0000
0001
3000
2000
0000
0000
3000
0001
0000
0000
1000
,
0001
0010
0100
0001
0010
0100
0001
2000
,
0000
0000
0000
3000
0001
1000
0001
1000
,
0000
0000
0000
0000
0010
0100
0010
0100
,
0000
0000
0000
0000
0001
0010
0001
0010
,
0000
0000
0000
0000
0001
0010
0100
1000
,
1000
0100
1000
0010
0100
0001
0010
0001
,
0100
0001
0100
0001
0100
0010
0100
0001
,
0100
1000
0100
0001
0100
1000
0010
1000
,
0100
1000
0010
1000
0100
0010
0001
0010
,
0100
0001
0100
0010
1000
0100
1000
0010
,
0100
1000
0100
0001
1000
0010
0100
0001
,
0010
0001
0100
0001
0010
0001
0100
0001
,
0100
1000
0100
0001
0100
1000
0001
0100
,
1001
1000
0100
1000
0010
0100
0001
0010
,
0001
0100
0010
0100
1000
0100
0010
1000
,
0100
1000
0001
0100
1000
0100
0001
0100
,
1000
0100
0001
0010
0001
0100
0001
0010
,
0100
1000
0100
0001
1000
0100
1000
0010
,
0100
0001
0010
0001
0100
0010
1000
0100
,
0001
0100
0010
1000
0002
0000
0013
0100
,
0001
0010
0100
0001
1000
0100
0001
1000
,
0002
0103
2000
3100
,
0020
0130
0002
0013
,
2000
3100
0200
0310
,
0020
0031
0002
1003
,
0001
0101
1000
1100
,
1001
0110
0001
0101
,
1000
1100
1001
0110
,
0011
0001
0101
1000
,
0001
0100
1000
0010
0100
0001
0010
0001
,
0100
0010
1000
0100
1000
0001
0100
0001
,
0200
0000
1300
0000
0000
0020
0030
1000
,
0002
0000
0203
0000
0300
0001
0000
1000
,
0100
0010
0001
0010
0100
0010
0100
1000
,
0100
1000
0001
1000
0010
0100
0001
0010
,
0200
0000
0302
0000
0003
2000
0000
3001
,
2000
0000
3020
0000
0030
0200
0300
0001
,
0100
0001
0010
0100
1000
0100
0010
1000
,
0100
1000
0010
0100
0001
0010
0100
0001
,
1000
1000
0001
0001
0100
0010
0100
0001
,
0010
0100
0010
1000
0100
1000
0010
1000
,
0001
0010
0100
0001
0010
0100
0001
1000
,
0100
0001
0100
1000
0010
0100
0001
0010
,
1000
0100
1000
0100
0001
0100
0010
0001
,
0010
0100
0010
1000
0100
0001
0100
1000
,
0002
0203
0320
2030
,
3200
2300
3002
2003
,
3020
0230
0302
0023
,
2030
3200
2300
3020
,
0232
0000
0310
0003
2200
0000
0001
3300
,
0202
0000
1000
0303
2002
0000
0010
3003
,
2002
0000
0100
3003
0022
0000
0100
0033
,
2200
0000
0010
3300
2002
0000
0100
3003
,
1001
0010
0100
0001
0010
1000
0100
0001
,
1000
0010
0100
0001
0010
0100
0001
1000
,
0100
1000
0010
0100
0001
0010
0100
0001
,
0010
1000
0100
0001
0100
1000
0010
0100
,
0001
0010
1000
0100
0001
0100
1000
0010
,
0100
0010
1000
0100
1000
0001
0010
0100
,
0001
0010
0001
0100
0010
0100
1000
0100
,
0010
1000
0100
1000
0010
0100
0001
0010
,
0100
0001
1000
0100
0001
1000
0010
0100
,
0001
0010
0100
0001
0010
0001
0100
1000
,
0100
0010
1000
0001
0200
0000
0310
0100
,
0001
0010
0100
0001
1000
0100
0001
1000
,
0001
0001
0100
0100
0010
1000
0001
0100
,
0001
0010
0001
0100
0010
0100
1000
0100
,
0001
1000
0010
0100
0001
0010
1000
0100
,
0001
0100
1000
0010
0100
1000
0010
1000
,
0100
0001
0100
1000
0002
0000
0103
0010
,
2000
0000
3001
0100
0020
0000
0031
0100
,
0002
0000
1003
0010
0200
0000
0301
1000
,
0020
0000
0031
0100
0200
0000
0310
1000
,
2000
0000
3001
1000
0002
0000
0013
0100
,
0020
0000
0031
1000
0002
0000
0013
0100
,
0002
0000
0013
0001
2000
0000
3010
0100
,
0002
0000
0103
0010
0200
0000
0310
0100
,
1001
0100
0001
0010
0100
1000
0100
0001
,
1000
0100
0010
1000
0001
0010
0100
0001
,
0010
0100
0001
1000
0100
1000
0010
0100
,
0001
0010
0100
0001
0100
1000
0100
0001
,
1000
0100
1000
0010
0100
0001
0010
0100
,
0001
0010
0001
0100
1000
0100
0001
1000
,
0010
0100
0001
0010
0100
0001
0010
0100
,
0001
1000
0100
0001
0100
0010
0100
0001
,
1000
0010
0001
1000
0100
0001
1000
0010
,
0001
1000
0100
0001
1000
0010
0001
0001
,
1000
0001
0010
1000
0001
0100
1000
0001
,
0010
1000
0001
0100
1000
0001
0010
1000
,
0001
0100
1000
0010
1000
0100
0001
0100
,
0010
1000
0001
0001
1000
0100
0001
0100
,
1000
0001
0010
0100
0220
0330
0001
0100
,
0010
1000
0100
1000
0010
0100
0001
1000
,
0002
0000
0000
0003
0100
0010
0100
0001
,
2000
0000
0000
3000
0010
1000
0100
0010
,
0002
0000
0003
0000
0001
0100
0010
1000
,
0200
0000
0300
0000
0010
0100
0001
1000
,
0200
0000
0300
0000
1000
0010
0100
0001
,
0020
0000
0030
0000
0001
0010
0001
0100
,
2000
0000
3000
0000
0010
1000
0100
1000
,
0002
0000
0003
0000
0001
1000
0001
1000
,
0020
0000
0230
0000
0302
0000
1003
0001
,
2000
0000
3002
0000
0203
0000
0301
0010
,
2000
0000
3002
0000
0203
0000
0310
0100
,
2000
0000
3002
0000
1003
0000
0010
0100
,
0002
0000
0203
0000
0320
0000
1030
0100
,
0002
0000
2003
0000
3002
0003
0100
1000
,
0020
0000
0230
0000
0302
0000
1003
0001
,
2000
0000
3020
0000
0230
0300
0001
0100
,
0002
0000
2003
0000
3020
0000
0130
0001
,
2000
0000
3002
0000
0023
0000
0130
0001
,
0200
0000
0320
0000
2030
0000
3001
1000
,
0002
0000
0203
0000
0301
0000
0010
0001
,
2000
0000
3002
0000
1003
0010
0100
0001
,
0200
0000
0010
0000
0301
1000
0010
1000
,
0002
0000
0203
0000
0310
1000
0001
0100
,
0020
0000
0000
0030
0100
0001
1000
0010
,
2000
0000
0000
3000
0100
1000
0001
1000
,
0020
0000
0000
0030
0100
0001
1000
0110
;
