#TITLE:Fighting Spirits;
#SUBTITLE:Lunar Silver Star Story Complete;
#ARTIST:Game Arts;
#TITLETRANSLIT:;
#SUBTITLETRANSLIT:;
#ARTISTTRANSLIT:;
#CREDIT:;
#BANNER:Fighting Spirits.png;
#BACKGROUND:Fighting Spirits-bg.png;
#LYRICSPATH:;
#CDTITLE:djossatitlerk1.png;
#MUSIC:Fighting Spirits.mp3;
#OFFSET:1.154;
#SAMPLESTART:100.000;
#SAMPLELENGTH:12.000;
#SELECTABLE:YES;
#BPMS:0.000=146.260;
#STOPS:;
#BGCHANGES:;
// cache tags:
#FIRSTBEAT:4.250;
#LASTBEAT:298.500;
#SONGFILENAME:Songs/VGMP 2/Fighting Spirits (DJ Ossa)/Fighting Spirits.sm;
#HASMUSIC:1;
#HASBANNER:1;
#MUSICLENGTH:128.019;
// end cache tags

//---------------dance-single - Blank----------------
#NOTES:
     dance-single:
     Blank:
     Challenge:
     12:
     1.000,1.000,1.000,1.000,0.562,662.000,344.000,358.000,0.000,172.000:





0000
0000
0000
0000
,
0000
0010
0000
0000
1000
0000
0000
0000
1000
0000
0000
1000
0000
0000
0010
0000
,
1000
0100
0010
0001
0100
0010
0001
1000
0010
0001
1000
0100
0001
1000
0100
0010
0001
1000
0100
0010
0001
0100
0010
0001
,
1000
0010
0000
0000
1000
0000
0000
0000
1000
0000
0000
1000
0000
0000
0110
0100
,
2000
0000
0000
0000
0000
0000
0000
0000
0000
0000
0000
0000
0000
0000
0000
0000
0000
0000
0000
0000
0000
0000
0000
0000
0100
0000
0000
0100
0000
0000
0010
0000
0000
0000
0000
0000
0002
0000
0023
0000
0230
0000
0302
0000
0023
0000
0230
0000
,
3322
0030
0000
0000
0010
0000
1000
0000
0113
0000
0000
0000
0021
0000
0100
0000
1000
0000
0000
0000
0130
0000
0000
0000
1210
0000
0000
0000
0301
0000
0000
0000
,
2000
0000
3001
1000
0121
0000
0130
0010
0102
0000
0013
0000
2110
3000
0120
0000
,
0000
0000
0001
1000
0101
0000
1000
0100
0031
0000
0012
0003
1120
0030
0210
0300
,
2000
0000
3100
1000
0211
0300
1000
0100
0021
0030
0210
0300
1120
0030
0102
0000
,
1000
0000
0010
0100
1010
0000
0010
0100
1000
0000
0100
1000
0110
1000
0103
0010
,
1100
1100
1100
0000
1100
0000
0110
0000
0100
0100
0010
0000
1100
0000
0010
0000
,
2002
3000
0000
0000
0010
0000
1000
0000
0113
0000
0000
0000
0021
0000
1030
0000
0210
0000
0300
0000
2100
0000
3000
0000
1210
0000
0300
0000
0021
0000
0000
0000
,
0000
0000
0031
0010
1201
0000
0310
0100
2010
3000
0210
0300
1021
0030
0201
0000
,
0000
0000
0000
0000
0001
0000
0010
0000
1301
0000
0000
0000
0210
0000
1300
0000
0021
0000
0030
0000
1200
0000
0300
0000
1010
0000
0000
0000
1002
0003
0020
0030
,
0200
0000
0001
1000
0011
0000
0001
1000
0010
0000
0001
0000
1310
0000
0210
0300
,
2102
3000
0003
0000
0021
0000
0030
0000
1210
0000
0300
0000
2102
3000
0003
0000
0000
0000
0000
0000
0021
0000
0030
0000
1000
0000
0000
0000
2201
3300
0020
0030
,
0102
0000
0003
0000
0120
0000
0030
0000
1012
0000
0003
0000
2210
3000
0300
0000
0000
0000
0000
0000
0012
0000
0000
0000
1003
0000
0000
0000
2100
0000
3000
0000
,
0201
0000
0000
0000
0010
0000
1000
0000
0311
0000
0000
0000
1200
0000
0310
0000
0201
0000
0300
0000
1020
0000
0030
0000
0112
0000
0003
0000
2021
3000
0000
0000
,
0000
0000
0000
0000
0000
0000
0000
0000
0001
0000
0000
0000
0100
0000
0000
0000
1001
0000
0000
0000
0000
0000
0000
0000
1000
0000
0000
0000
0100
0000
0000
0000
0001
0000
0000
0000
2000
3000
0000
0000
0100
0000
0000
0000
0000
0000
0000
0000
2101
3000
0000
0000
0000
0000
0000
0000
0131
0000
0000
0000
0100
0000
0000
0000
,
2002
3000
0000
0000
0010
0000
0100
0000
1013
0000
0000
0000
0120
0000
0031
0000
1200
0000
0300
0000
1020
0000
0030
0000
1102
0000
0003
0000
1020
0000
0000
0000
,
0000
0000
0031
0100
2011
0000
3100
0001
0120
0030
1200
0300
2011
3000
0210
0000
,
0000
0000
0000
0000
0001
0000
0010
0000
1301
0000
0000
0000
0120
0000
1030
0000
0102
0000
0003
0000
1020
0000
0030
0000
0101
0000
0000
0000
1002
0003
0020
0030
,
0200
0000
0001
0010
1001
0000
0010
0001
1000
0000
0010
0000
0311
0010
1210
0300
,
2012
3000
0003
0000
0120
0000
0030
0000
1201
0000
0300
0000
2012
3000
0003
0000
0000
0000
0000
0000
0021
0000
0030
0000
0100
0000
0000
0000
2021
3030
0200
0300
,
0021
0030
0000
0000
0210
0000
0300
0000
1021
0000
0030
0000
2210
3000
0300
0000
0000
0000
0000
0000
0012
0000
0000
0000
0103
0000
0000
0000
2100
0000
3000
0000
,
0210
0000
0000
0000
0300
0000
0000
0000
1021
0000
0000
0000
0030
0000
0000
0000
0211
0000
0000
0000
0300
0000
0000
0000
1020
0000
0000
0000
0030
0000
0000
0000
0000
0000
0000
0000
0000
0000
0000
0000
2210
0300
0000
0000
3000
0000
0000
0000
1221
0300
0000
0000
0030
0000
0000
0000
2012
3000
0000
0000
0000
0000
0000
0000
,
0000
0000
0000
0000
0000
0000
0000
0000
0010
0000
0000
0000
0000
0000
0000
0000
2110
3000
0000
0000
0000
0000
0000
0000
0010
0000
0000
0000
0000
0000
0000
0000
0010
0000
0000
0000
0000
0000
0000
0000
2010
3000
0000
0000
0000
0000
0000
0000
0110
0000
0000
0000
0000
0000
0000
0000
1200
0300
0000
0000
0000
0000
0000
0000
,
0003
0001
1101
2001
3201
2301
3112
1023
,
0000
0000
0000
0000
0000
0000
0000
0000
0100
0000
0000
0000
0000
0000
0000
0000
2101
3000
0000
0000
0000
0000
0000
0000
0100
0000
0000
0000
0000
0000
0000
0000
0100
0000
0000
0000
0000
0000
0000
0000
2100
3000
0000
0000
0000
0000
0000
0000
0131
0000
0000
0000
0000
0000
0000
0000
1202
0300
0000
0000
0000
0000
0000
0000
,
0000
0000
0000
0000
0010
0000
0000
0000
1013
0000
0000
0000
0210
0000
0000
0000
2310
0000
0000
0000
3211
0000
0000
0000
1312
0000
0000
0000
2213
3000
0300
0000
,
0120
0000
0030
0000
0112
0000
0003
0000
2210
3000
0300
0000
0120
0000
0030
0000
0112
0000
0003
0000
2021
3000
0030
0000
2001
0000
3000
0000
1210
0000
0300
0000
,
2021
0000
0000
0000
0000
0000
3000
0000
0000
0000
0000
0000
0030
0000
0000
0000
0000
0000
0000
0000
0000
0000
0000
0000
1200
0000
0000
0000
0000
0000
0000
0000
0000
0000
0000
0000
0300
0000
0000
0000
0000
0000
0000
0000
0000
0000
0000
0000
0121
0000
0000
0000
0000
0000
0000
0000
0000
0000
0000
0000
0030
0000
0000
0000
0000
0000
0000
0000
0000
0000
0000
0000
2102
0000
0000
0000
0000
0000
3000
0000
0000
0000
0000
0000
0003
0000
0000
0000
0000
0000
0000
0000
0000
0000
0000
0000
2001
0000
0000
0000
0000
0000
0000
0000
0000
0000
0000
0000
3000
0000
0000
0000
0000
0000
0000
0000
0000
0000
0000
0000
1210
0000
0000
0000
0000
0000
0000
0000
0000
0000
0000
0000
0300
0000
0000
0000
0000
0000
0000
0000
0000
0000
0000
0000
0021
0000
0000
0000
0000
0000
0000
0000
0000
0000
0000
0000
0030
0000
0000
0000
1002
0000
0000
0000
0000
0000
0000
0000
0003
0000
0000
0000
0000
0000
0000
0000
0210
0000
0000
0000
0000
0000
0000
0000
0300
0000
0000
0000
0000
0000
0000
0000
,
2012
3000
0000
0000
0000
0000
0000
0000
0100
0000
0000
0000
0000
0000
0000
0000
0000
0000
0000
0000
0000
0000
0000
0000
0100
0000
0000
0000
0003
0000
0000
0000
,
1100
1100
1100
1100
0110
0000
0011
0000
0110
0000
1100
0000
0000
0000
0000
0000
,
2001
3000
0000
0000
0201
0300
0020
0030
0100
0000
0002
0003
0120
0030
0200
0300
,
0001
0000
2000
3000
0001
0000
0200
0300
0100
0000
0020
0030
1200
0300
2000
3000
,
0201
0000
0300
0000
0021
0030
0002
0003
0100
0000
0002
0003
0120
0030
2000
3000
,
0001
0000
2000
3000
0001
0000
0200
0300
0100
0000
0020
0030
1200
0300
0020
0030
,
1201
0000
0300
0000
0121
0030
0012
0003
0110
0000
0012
0003
0121
0030
1200
0300
,
0001
0000
0000
0000
0000
0000
0000
0000
0000
0000
0000
0000
0000
0000
0000
0000
0000
0000
0000
0000
0000
0000
0000
0000
2100
0000
0000
0000
0000
0000
0000
0000
0000
0000
0000
0000
3000
0000
0000
0000
0000
0000
0000
0000
0000
0000
0000
0000
0001
0000
0000
0000
0000
0000
0000
0000
0000
0000
0000
0000
0000
0000
0000
0000
0000
0000
0000
0000
0000
0000
0000
0000
1200
0000
0000
0000
0000
0000
0000
0000
0000
0000
0000
0000
0000
0000
0000
0000
0000
0000
0000
0000
0000
0000
0000
0300
0110
0000
0000
0000
0000
0000
0000
0000
0000
0000
0000
0000
0000
0000
0000
0000
0000
0000
0000
0000
0000
0000
0000
0000
0021
0000
0000
0000
0000
0000
0000
0000
0000
0000
0000
0000
0030
0000
0000
0000
0000
0000
0000
0000
0000
0000
0000
0000
1210
0000
0000
0000
0000
0000
0000
0000
0000
0000
0000
0000
0300
0000
0000
0000
0000
0000
0000
0000
0000
0000
0000
0000
2100
0000
0000
0000
0000
0000
0000
0000
0000
0000
0000
0000
3000
0000
0000
0000
0000
0000
0000
0000
0000
0000
0000
0000
,
1201
0000
0300
0000
0121
0030
2001
3000
0110
0000
0102
0003
0121
0030
0102
0003
,
0001
0000
1200
0300
0001
0000
0120
0030
0110
0000
0012
0003
1120
0030
0012
0003
,
0000
0010
0000
0000
1000
0000
0000
0000
1000
0000
0000
1000
0000
0000
0010
0000
,
1000
0100
0010
0001
0100
0010
0001
1000
0010
0001
1000
0100
0001
1000
0100
0010
0001
1000
0100
0010
0001
0100
0010
0001
,
1000
0010
0000
0000
1000
0000
0000
0000
1000
0000
0000
1000
0000
0000
0110
0100
,
2000
0000
0000
0000
0000
0000
0000
0000
0000
0000
0000
0000
0000
0000
0000
0000
0000
0000
0000
0000
0000
0000
0000
0000
0100
0000
0000
0100
0000
0000
0010
0000
0000
0000
0000
0000
0002
0000
0023
0000
0230
0000
0302
0000
0023
0000
0230
0000
,
3322
0030
0000
0000
0010
0000
1000
0000
0113
0000
0000
0000
0021
0000
0100
0000
1000
0000
0000
0000
0130
0000
0000
0000
1210
0000
0000
0000
0301
0000
0000
0000
,
2000
0000
3001
1000
0121
0000
0130
0010
0102
0000
0013
0000
2110
3000
0120
0000
,
0000
0000
0001
1000
0101
0000
1000
0100
0031
0000
0012
0003
1120
0030
0210
0300
,
2000
0000
3100
1000
0211
0300
1000
0100
0021
0030
0210
0300
1120
0030
0102
0000
,
1000
0000
0010
0100
1010
0000
0010
0100
1000
0000
0100
0010
1100
0010
0103
0010
,
1100
1100
1100
0000
1100
0000
0110
0000
0100
0100
0010
0000
1100
0000
0010
0000
,
2002
3000
0000
0000
0010
0000
1000
0000
0113
0000
0000
0000
0021
0000
1030
0000
0210
0000
0300
0000
2100
0000
3000
0000
1210
0000
0300
0000
0021
0000
0000
0000
,
0000
0000
0031
0010
1201
0000
0310
0100
2010
3000
0210
0300
1021
0030
0201
0000
,
0000
0000
0000
0000
0001
0000
0010
0000
1301
0000
0000
0000
0210
0000
1300
0000
0021
0000
0030
0000
1200
0000
0300
0000
1010
0000
0000
0000
1002
0003
0020
0030
,
0200
0000
0001
1000
0011
0000
0001
1000
0010
0000
0001
0000
1310
0000
0210
0300
,
2102
3000
0003
0000
0021
0000
0030
0000
1210
0000
0300
0000
2102
3000
0003
0000
0000
0000
0000
0000
0021
0000
0030
0000
1000
0000
0000
0000
2201
3300
0020
0030
,
0102
0000
0003
0000
0120
0000
0030
0000
1012
0000
0003
0000
2210
3000
0300
0000
0000
0000
0000
0000
0012
0000
0000
0000
1003
0000
0000
0000
2100
0000
3000
0000
,
0201
0000
0000
0000
0010
0000
1000
0000
0311
0000
0000
0000
1200
0000
0310
0000
0201
0000
0300
0000
1020
0000
0030
0000
0112
0000
0003
0000
2021
3000
0000
0000
,
0000
0000
0000
0000
0000
0000
0000
0000
0001
0000
0000
0000
0100
0000
0000
0000
1001
0000
0000
0000
0000
0000
0000
0000
1000
0000
0000
0000
0100
0000
0000
0000
0001
0000
0000
0000
2000
3000
0000
0000
0100
0000
0000
0000
0000
0000
0000
0000
2101
3000
0000
0000
0000
0000
0000
0000
0131
0000
0000
0000
0100
0000
0000
0000
,
2002
3000
0000
0000
0010
0000
0100
0000
1013
0000
0000
0000
0120
0000
0031
0000
1200
0000
0300
0000
1020
0000
0030
0000
1102
0000
0003
0000
1020
0000
0000
0000
,
0000
0000
0031
0100
2011
0000
3100
0001
0120
0030
1200
0300
2011
3000
0210
0000
,
0000
0000
0000
0000
0001
0000
0010
0000
1301
0000
0000
0000
0120
0000
1030
0000
0102
0000
0003
0000
1020
0000
0030
0000
0101
0000
0000
0000
1002
0003
0020
0030
,
0200
0000
0001
0010
1001
0000
0010
0001
1000
0000
0010
0000
0311
0010
1210
0300
,
2012
3000
0003
0000
0120
0000
0030
0000
1201
0000
0300
0000
2012
3000
0003
0000
0000
0000
0000
0000
0021
0000
0030
0000
0100
0000
0000
0000
2021
3030
0200
0300
,
0021
0030
0000
0000
0210
0000
0300
0000
1021
0000
0030
0000
2210
3000
0300
0000
0000
0000
0000
0000
0012
0000
0000
0000
0103
0000
0000
0000
2100
0000
3000
0000
,
0210
0000
0000
0000
0300
0000
0000
0000
1021
0000
0000
0000
0030
0000
0000
0000
0211
0000
0000
0000
0300
0000
0000
0000
1020
0000
0000
0000
0030
0000
0000
0000
0000
0000
0000
0000
0000
0000
0000
0000
2210
0300
0000
0000
3000
0000
0000
0000
1221
0300
0000
0000
0030
0000
0000
0000
2012
3000
0000
0000
0000
0000
0000
0000
,
0000
0000
0000
0000
0000
0000
0000
0000
0010
0000
0000
0000
0000
0000
0000
0000
2110
3000
0000
0000
0000
0000
0000
0000
0010
0000
0000
0000
0000
0000
0000
0000
0010
0000
0000
0000
0000
0000
0000
0000
2010
3000
0000
0000
0000
0000
0000
0000
0110
0000
0000
0000
0000
0000
0000
0000
1200
0300
0000
0000
0000
0000
0000
0000
,
0003
0001
1101
2001
3201
2301
3112
1023
,
0000
0000
0000
0000
0000
0000
0000
0000
0100
0000
0000
0000
0000
0000
0000
0000
2101
3000
0000
0000
0000
0000
0000
0000
0100
0000
0000
0000
0000
0000
0000
0000
0100
0000
0000
0000
0000
0000
0000
0000
2100
3000
0000
0000
0000
0000
0000
0000
0131
0000
0000
0000
0000
0000
0000
0000
1202
0300
0000
0000
0000
0000
0000
0000
,
0000
0000
0000
0000
0010
0000
0000
0000
1013
0000
0000
0000
0210
0000
0000
0000
2310
0000
0000
0000
3211
0000
0000
0000
1312
0000
0000
0000
2213
3000
0300
0000
,
0120
0000
0030
0000
0112
0000
0003
0000
2210
3000
0300
0000
0120
0000
0030
0000
0112
0000
0003
0000
2021
3000
0030
0000
2001
0000
3000
0000
1210
0000
0300
0000
,
2021
0000
0000
0000
0000
0000
3000
0000
0000
0000
0000
0000
0030
0000
0000
0000
0000
0000
0000
0000
0000
0000
0000
0000
1200
0000
0000
0000
0000
0000
0000
0000
0000
0000
0000
0000
0300
0000
0000
0000
0000
0000
0000
0000
0000
0000
0000
0000
0121
0000
0000
0000
0000
0000
0000
0000
0000
0000
0000
0000
0030
0000
0000
0000
0000
0000
0000
0000
0000
0000
0000
0000
2102
0000
0000
0000
0000
0000
3000
0000
0000
0000
0000
0000
0003
0000
0000
0000
0000
0000
0000
0000
0000
0000
0000
0000
2001
0000
0000
0000
0000
0000
0000
0000
0000
0000
0000
0000
3000
0000
0000
0000
0000
0000
0000
0000
0000
0000
0000
0000
1210
0000
0000
0000
0000
0000
0000
0000
0000
0000
0000
0000
0300
0000
0000
0000
0000
0000
0000
0000
0000
0000
0000
0000
0021
0000
0000
0000
0000
0000
0000
0000
0000
0000
0000
0000
0030
0000
0000
0000
1002
0000
0000
0000
0000
0000
0000
0000
0003
0000
0000
0000
0000
0000
0000
0000
0210
0000
0000
0000
0000
0000
0000
0000
0300
0000
0000
0000
0000
0000
0000
0000
,
2012
3000
0000
0000
0000
0000
0000
0000
0100
0000
0000
0000
0000
0000
0000
0000
0000
0000
0000
0000
0000
0000
0000
0000
0100
0000
0000
0000
0003
0000
0000
0000
,
1100
1100
1100
1100
0110
0000
0011
0000
0110
0000
1100
0000
0000
0000
0000
0000
;

//---------------dance-single - Blank----------------
#NOTES:
     dance-single:
     Blank:
     Hard:
     11:
     1.000,1.000,1.000,1.000,0.562,662.000,318.000,358.000,0.000,52.000:

0000
0000
0000
0000
,
0000
0010
0000
0000
1000
0000
0000
0000
1000
0000
0000
1000
0000
0000
0010
0000
,
1000
0100
0010
0001
0100
0010
0001
1000
0010
0001
1000
0100
0001
1000
0100
0010
0001
1000
0100
0010
0001
0100
0010
0001
,
1000
0010
0000
0000
1000
0000
0000
0000
1000
0000
0000
1000
0000
0000
0110
0100
,
2000
0000
0000
0000
0000
0000
0000
0000
0000
0000
0000
0000
0000
0000
0000
0000
0000
0000
0000
0000
0000
0000
0000
0000
0100
0000
0000
0100
0000
0000
0010
0000
0000
0000
0000
0000
0002
0000
0023
0000
0230
0000
0302
0000
0023
0000
0230
0000
,
3322
0030
0000
0000
0010
0000
1000
0000
0113
0000
0000
0000
0021
0000
0100
0000
1000
0000
0000
0000
0130
0000
0000
0000
0210
0000
0000
0000
0301
0000
0000
0000
,
2000
0000
3001
1000
0120
0000
0130
0010
0102
0000
0013
0000
2100
3000
0120
0000
,
0000
0000
0001
1000
0001
0000
1000
0100
0031
0000
0012
0003
0120
0030
0201
0300
,
2000
0000
3100
1000
0021
0000
1030
0100
0012
0003
0120
0030
1200
0300
0012
0000
,
1000
0000
0010
0100
1000
0000
0010
0100
1000
0000
0100
1000
0100
1000
0103
0010
,
1100
1100
1100
0000
1100
0000
0110
0000
0100
0100
0010
0000
1100
0000
0010
0000
,
2002
3000
0000
0000
0010
0000
1000
0000
0113
0000
0000
0000
0021
0000
1030
0000
0210
0000
0300
0000
2100
0000
3000
0000
0210
0000
0300
0000
0021
0000
0000
0000
,
0000
0000
0031
0010
1200
0000
0310
0100
2010
3000
0210
0300
0021
0030
1200
0000
,
0000
0000
0000
0000
0001
0000
0010
0000
1301
0000
0000
0000
0210
0000
1300
0000
0021
0000
0030
0000
1200
0000
0300
0000
0011
0000
0000
0000
1002
0003
0020
0030
,
0200
0000
0001
1000
0001
0000
0001
1000
0010
0000
0001
0000
1310
0000
0120
0030
,
2200
3000
0300
0000
0021
0000
0030
0000
0210
0000
0300
0000
2002
3000
0000
0000
0003
0000
0000
0000
0021
0000
0030
0000
1000
0000
0000
0000
2200
3300
0020
0030
,
0102
0003
0000
0000
0120
0000
0030
0000
1002
0000
0003
0000
2020
3000
0030
0000
0000
0000
0000
0000
0012
0000
0000
0000
1003
0000
0000
0000
2100
0000
3000
0000
,
0201
0000
0000
0000
0010
0000
1000
0000
0311
0000
0000
0000
1200
0000
0310
0000
0201
0000
0300
0000
0120
0000
0030
0000
0012
0000
0003
0000
2020
3000
0000
0000
,
0000
0000
0000
0000
0000
0000
0000
0000
0001
0000
0000
0000
0100
0000
0000
0000
1000
0000
0000
0000
0000
0000
0000
0000
1000
0000
0000
0000
0100
0000
0000
0000
0001
0000
0000
0000
2000
3000
0000
0000
0100
0000
0000
0000
0000
0000
0000
0000
2000
3000
0000
0000
0000
0000
0000
0000
0131
0000
0000
0000
0100
0000
0000
0000
,
2002
3000
0000
0000
0010
0000
0100
0000
1013
0000
0000
0000
0120
0000
0031
0000
1200
0000
0300
0000
1020
0000
0030
0000
0102
0000
0003
0000
1020
0000
0000
0000
,
0000
0000
0031
0100
2010
0000
3100
0001
0210
0300
0021
0030
0102
0003
0210
0000
,
0000
0000
0000
0000
0001
0000
0010
0000
1301
0000
0000
0000
0120
0000
1030
0000
0201
0000
0300
0000
2010
0000
3000
0000
0110
0000
0000
0000
1002
0003
0020
0030
,
0200
0000
0001
0010
1000
0000
0010
0001
1000
0000
0010
0000
0311
0010
0210
0300
,
2020
3000
0030
0000
0210
0000
0300
0000
2001
0000
3000
0000
2200
3000
0300
0000
0000
0000
0000
0000
0021
0000
0030
0000
0100
0000
0000
0000
2002
3000
0203
0000
,
0321
0000
0030
0000
0102
0000
0003
0000
0021
0000
0030
0000
2200
3000
0300
0000
0000
0000
0000
0000
0012
0000
0000
0000
0103
0000
0000
0000
2100
0000
3000
0000
,
0210
0000
0000
0000
0300
0000
0000
0000
0021
0000
0000
0000
0030
0000
0000
0000
1002
0000
0000
0000
0003
0000
0000
0000
0120
0000
0000
0000
0030
0000
0000
0000
0000
0000
0000
0000
0000
0000
0000
0000
2200
0300
0000
0000
3000
0000
0000
0000
0220
0300
0000
0000
0030
0000
0000
0000
2002
3000
0000
0000
0000
0000
0000
0000
,
0000
0000
0000
0000
0000
0000
0000
0000
0010
0000
0000
0000
0000
0000
0000
0000
2000
3000
0000
0000
0000
0000
0000
0000
0010
0000
0000
0000
0000
0000
0000
0000
0010
0000
0000
0000
0000
0000
0000
0000
2000
3000
0000
0000
0000
0000
0000
0000
0100
0000
0000
0000
0000
0000
0000
0000
0200
0300
0000
0000
0000
0000
0000
0000
,
0003
0001
1001
2001
3201
2301
3102
1023
,
0000
0000
0000
0000
0000
0000
0000
0000
0100
0000
0000
0000
0000
0000
0000
0000
2000
3000
0000
0000
0000
0000
0000
0000
0100
0000
0000
0000
0000
0000
0000
0000
0100
0000
0000
0000
0000
0000
0000
0000
2000
3000
0000
0000
0000
0000
0000
0000
0131
0000
0000
0000
0000
0000
0000
0000
0202
0300
0000
0000
0000
0000
0000
0000
,
0000
0000
0000
0000
0010
0000
0000
0000
1013
0000
0000
0000
0210
0000
0000
0000
2310
0000
0000
0000
3210
0000
0000
0000
0312
0000
0000
0000
2203
3000
0300
0000
,
0120
0000
0030
0000
0102
0000
0003
0000
2200
3000
0300
0000
0120
0000
0030
0000
0012
0000
0003
0000
2020
3000
0030
0000
2001
0000
3000
0000
1200
0000
0300
0000
,
2020
0000
0000
0000
0000
0000
3000
0000
0000
0000
0000
0000
0030
0000
0000
0000
0000
0000
0000
0000
0000
0000
0000
0000
1200
0000
0000
0000
0000
0000
0000
0000
0000
0000
0000
0000
0300
0000
0000
0000
0000
0000
0000
0000
0000
0000
0000
0000
0021
0000
0000
0000
0000
0000
0000
0000
0000
0000
0000
0000
0030
0000
0000
0000
0000
0000
0000
0000
0000
0000
0000
0000
2002
0000
0000
0000
0000
0000
3000
0000
0000
0000
0000
0000
0003
0000
0000
0000
0000
0000
0000
0000
0000
0000
0000
0000
2100
0000
0000
0000
0000
0000
0000
0000
0000
0000
0000
0000
3000
0000
0000
0000
0000
0000
0000
0000
0000
0000
0000
0000
0210
0000
0000
0000
0000
0000
0000
0000
0000
0000
0000
0000
0300
0000
0000
0000
0000
0000
0000
0000
0000
0000
0000
0000
0021
0000
0000
0000
0000
0000
0000
0000
0000
0000
0000
0000
0030
0000
0000
0000
1002
0000
0000
0000
0000
0000
0000
0000
0003
0000
0000
0000
0000
0000
0000
0000
0210
0000
0000
0000
0000
0000
0000
0000
0300
0000
0000
0000
0000
0000
0000
0000
,
2002
3000
0000
0000
0000
0000
0000
0000
0100
0000
0000
0000
0000
0000
0000
0000
0000
0000
0000
0000
0000
0000
0000
0000
0100
0000
0000
0000
0003
0000
0000
0000
,
1100
1100
1100
1100
0110
0000
0011
0000
0110
0000
1100
0000
0000
0000
0000
0000
,
2001
3000
0000
0000
0201
0300
0020
0030
0100
0000
0002
0003
0120
0030
0200
0300
,
0001
0000
2000
3000
0001
0000
0200
0300
0100
0000
0020
0030
1200
0300
2000
3000
,
0201
0000
0300
0000
0021
0030
0002
0003
0100
0000
0002
0003
0120
0030
2000
3000
,
0001
0000
2000
3000
0001
0000
0200
0300
0100
0000
0020
0030
1200
0300
0020
0030
,
1200
0000
0300
0000
0120
0030
0012
0003
0110
0000
0012
0003
0120
0030
1200
0300
,
0001
0000
0000
0000
0000
0000
0000
0000
0000
0000
0000
0000
0000
0000
0000
0000
0000
0000
0000
0000
0000
0000
0000
0000
2100
0000
0000
0000
0000
0000
0000
0000
0000
0000
0000
0000
3000
0000
0000
0000
0000
0000
0000
0000
0000
0000
0000
0000
0001
0000
0000
0000
0000
0000
0000
0000
0000
0000
0000
0000
0000
0000
0000
0000
0000
0000
0000
0000
0000
0000
0000
0000
1200
0000
0000
0000
0000
0000
0000
0000
0000
0000
0000
0000
0000
0000
0000
0000
0000
0000
0000
0000
0000
0000
0000
0300
0110
0000
0000
0000
0000
0000
0000
0000
0000
0000
0000
0000
0000
0000
0000
0000
0000
0000
0000
0000
0000
0000
0000
0000
0021
0000
0000
0000
0000
0000
0000
0000
0000
0000
0000
0000
0030
0000
0000
0000
0000
0000
0000
0000
0000
0000
0000
0000
0210
0000
0000
0000
0000
0000
0000
0000
0000
0000
0000
0000
0300
0000
0000
0000
0000
0000
0000
0000
0000
0000
0000
0000
2100
0000
0000
0000
0000
0000
0000
0000
0000
0000
0000
0000
3000
0000
0000
0000
0000
0000
0000
0000
0000
0000
0000
0000
,
0201
0000
0300
0000
0021
0030
2001
3000
0110
0000
0102
0003
0120
0030
0102
0003
,
0001
0000
1200
0300
0001
0000
0120
0030
0110
0000
1002
0003
0120
0030
0012
0003
,
0000
0010
0000
0000
1000
0000
0000
0000
1000
0000
0000
1000
0000
0000
0010
0000
,
1000
0100
0010
0001
0100
0010
0001
1000
0010
0001
1000
0100
0001
1000
0100
0010
0001
1000
0100
0010
0001
0100
0010
0001
,
1000
0010
0000
0000
1000
0000
0000
0000
1000
0000
0000
1000
0000
0000
0110
0100
,
2000
0000
0000
0000
0000
0000
0000
0000
0000
0000
0000
0000
0000
0000
0000
0000
0000
0000
0000
0000
0000
0000
0000
0000
0100
0000
0000
0100
0000
0000
0010
0000
0000
0000
0000
0000
0002
0000
0023
0000
0230
0000
0302
0000
0023
0000
0230
0000
,
3322
0030
0000
0000
0010
0000
1000
0000
0113
0000
0000
0000
0021
0000
0100
0000
1000
0000
0000
0000
0130
0000
0000
0000
0210
0000
0000
0000
0301
0000
0000
0000
,
2000
0000
3001
1000
0120
0000
0130
0010
0102
0000
0013
0000
2100
3000
0120
0000
,
0000
0000
0001
1000
0001
0000
1000
0100
0031
0000
0012
0003
0120
0030
0201
0300
,
2000
0000
3100
1000
0021
0000
1030
0100
0012
0003
0120
0030
1200
0300
0012
0000
,
1000
0000
0010
0100
1000
0000
0010
0100
1000
0000
0100
1000
0100
0010
0103
0010
,
1100
1100
1100
0000
1100
0000
0110
0000
0100
0100
0010
0000
1100
0000
0010
0000
,
2002
3000
0000
0000
0010
0000
1000
0000
0113
0000
0000
0000
0021
0000
1030
0000
0210
0000
0300
0000
2100
0000
3000
0000
0210
0000
0300
0000
0021
0000
0000
0000
,
0000
0000
0031
0010
1200
0000
0310
0100
2010
3000
0210
0300
0021
0030
1200
0000
,
0000
0000
0000
0000
0001
0000
0010
0000
1301
0000
0000
0000
0210
0000
1300
0000
0021
0000
0030
0000
1200
0000
0300
0000
0011
0000
0000
0000
1002
0003
0020
0030
,
0200
0000
0001
1000
0001
0000
0001
1000
0010
0000
0001
0000
1310
0000
0120
0030
,
2200
3000
0300
0000
0021
0000
0030
0000
0210
0000
0300
0000
2002
3000
0000
0000
0003
0000
0000
0000
0021
0000
0030
0000
1000
0000
0000
0000
2200
3300
0020
0030
,
0102
0003
0000
0000
0120
0000
0030
0000
1002
0000
0003
0000
2020
3000
0030
0000
0000
0000
0000
0000
0012
0000
0000
0000
1003
0000
0000
0000
2100
0000
3000
0000
,
0201
0000
0000
0000
0010
0000
1000
0000
0311
0000
0000
0000
1200
0000
0310
0000
0201
0000
0300
0000
0120
0000
0030
0000
0012
0000
0003
0000
2020
3000
0000
0000
,
0000
0000
0000
0000
0000
0000
0000
0000
0001
0000
0000
0000
0100
0000
0000
0000
1000
0000
0000
0000
0000
0000
0000
0000
1000
0000
0000
0000
0100
0000
0000
0000
0001
0000
0000
0000
2000
3000
0000
0000
0100
0000
0000
0000
0000
0000
0000
0000
2000
3000
0000
0000
0000
0000
0000
0000
0131
0000
0000
0000
0100
0000
0000
0000
,
2002
3000
0000
0000
0010
0000
0100
0000
1013
0000
0000
0000
0120
0000
0031
0000
1200
0000
0300
0000
1020
0000
0030
0000
0102
0000
0003
0000
1020
0000
0000
0000
,
0000
0000
0031
0100
2010
0000
3100
0001
0210
0300
0021
0030
0102
0003
0210
0000
,
0000
0000
0000
0000
0001
0000
0010
0000
1301
0000
0000
0000
0120
0000
1030
0000
0201
0000
0300
0000
2010
0000
3000
0000
0110
0000
0000
0000
1002
0003
0020
0030
,
0200
0000
0001
0010
1000
0000
0010
0001
1000
0000
0010
0000
0311
0010
0210
0300
,
2020
3000
0030
0000
0210
0000
0300
0000
2001
0000
3000
0000
2200
3000
0300
0000
0000
0000
0000
0000
0021
0000
0030
0000
0100
0000
0000
0000
2002
3000
0203
0000
,
0321
0000
0030
0000
0102
0000
0003
0000
0021
0000
0030
0000
2200
3000
0300
0000
0000
0000
0000
0000
0012
0000
0000
0000
0103
0000
0000
0000
2100
0000
3000
0000
,
0210
0000
0000
0000
0300
0000
0000
0000
0021
0000
0000
0000
0030
0000
0000
0000
1002
0000
0000
0000
0003
0000
0000
0000
0120
0000
0000
0000
0030
0000
0000
0000
0000
0000
0000
0000
0000
0000
0000
0000
2200
0300
0000
0000
3000
0000
0000
0000
0220
0300
0000
0000
0030
0000
0000
0000
2002
3000
0000
0000
0000
0000
0000
0000
,
0000
0000
0000
0000
0000
0000
0000
0000
0010
0000
0000
0000
0000
0000
0000
0000
2000
3000
0000
0000
0000
0000
0000
0000
0010
0000
0000
0000
0000
0000
0000
0000
0010
0000
0000
0000
0000
0000
0000
0000
2000
3000
0000
0000
0000
0000
0000
0000
0100
0000
0000
0000
0000
0000
0000
0000
0200
0300
0000
0000
0000
0000
0000
0000
,
0003
0001
1001
2001
3201
2301
3102
1023
,
0000
0000
0000
0000
0000
0000
0000
0000
0100
0000
0000
0000
0000
0000
0000
0000
2000
3000
0000
0000
0000
0000
0000
0000
0100
0000
0000
0000
0000
0000
0000
0000
0100
0000
0000
0000
0000
0000
0000
0000
2000
3000
0000
0000
0000
0000
0000
0000
0131
0000
0000
0000
0000
0000
0000
0000
0202
0300
0000
0000
0000
0000
0000
0000
,
0000
0000
0000
0000
0010
0000
0000
0000
1013
0000
0000
0000
0210
0000
0000
0000
2310
0000
0000
0000
3210
0000
0000
0000
0312
0000
0000
0000
2203
3000
0300
0000
,
0120
0000
0030
0000
0102
0000
0003
0000
2200
3000
0300
0000
0120
0000
0030
0000
0012
0000
0003
0000
2020
3000
0030
0000
2001
0000
3000
0000
1200
0000
0300
0000
,
2020
0000
0000
0000
0000
0000
3000
0000
0000
0000
0000
0000
0030
0000
0000
0000
0000
0000
0000
0000
0000
0000
0000
0000
1200
0000
0000
0000
0000
0000
0000
0000
0000
0000
0000
0000
0300
0000
0000
0000
0000
0000
0000
0000
0000
0000
0000
0000
0021
0000
0000
0000
0000
0000
0000
0000
0000
0000
0000
0000
0030
0000
0000
0000
0000
0000
0000
0000
0000
0000
0000
0000
2002
0000
0000
0000
0000
0000
3000
0000
0000
0000
0000
0000
0003
0000
0000
0000
0000
0000
0000
0000
0000
0000
0000
0000
2100
0000
0000
0000
0000
0000
0000
0000
0000
0000
0000
0000
3000
0000
0000
0000
0000
0000
0000
0000
0000
0000
0000
0000
0210
0000
0000
0000
0000
0000
0000
0000
0000
0000
0000
0000
0300
0000
0000
0000
0000
0000
0000
0000
0000
0000
0000
0000
0021
0000
0000
0000
0000
0000
0000
0000
0000
0000
0000
0000
0030
0000
0000
0000
1002
0000
0000
0000
0000
0000
0000
0000
0003
0000
0000
0000
0000
0000
0000
0000
0210
0000
0000
0000
0000
0000
0000
0000
0300
0000
0000
0000
0000
0000
0000
0000
,
2002
3000
0000
0000
0000
0000
0000
0000
0100
0000
0000
0000
0000
0000
0000
0000
0000
0000
0000
0000
0000
0000
0000
0000
0100
0000
0000
0000
0003
0000
0000
0000
,
1100
1100
1100
1100
0110
0000
0011
0000
0110
0000
1100
0000
0000
0000
0000
0000
;
