#TITLE:Racks;
#SUBTITLE:Sexuality Violation;
#ARTIST:YC feat. Future;
#TITLETRANSLIT:;
#SUBTITLETRANSLIT:;
#ARTISTTRANSLIT:;
#CREDIT:;
#BANNER:Racks-bn.png;
#BACKGROUND:Racks-bg.png;
#LYRICSPATH:;
#CDTITLE:;
#MUSIC:YC feat Future - Racks.ogg;
#OFFSET:-3.580;
#SAMPLESTART:17.096;
#SAMPLELENGTH:27.603;
#SELECTABLE:YES;
#BPMS:0.000=140.000;
#STOPS:;
#BGCHANGES:;
// cache tags:
#FIRSTBEAT:0.000;
#LASTBEAT:644.000;
#SONGFILENAME:Songs/Sexuality Violation 2/Racks - [AA]/Racks.sm;
#HASMUSIC:1;
#HASBANNER:1;
#MUSICLENGTH:288.052;
// end cache tags

//---------------dance-single - @@----------------
#NOTES:
     dance-single:
     @@:
     Challenge:
     17:
     1.000,1.000,0.000,0.000,1.000,3200.000,0.000,0.000,1.000,0.000:

0001
0000
0000
0010
0000
0000
0001
0000
0000
0100
0000
0000
0001
0000
0000
1000
0100
0010
0001
0000
0000
0100
0000
0000
,
0010
1000
0001
1000
0100
1000
0001
1000
0010
0100
0001
0010
0100
0000
1000
0000
,
0001
0010
0001
1000
0001
0100
0001
1000
0001
0010
0100
1000
0010
0000
0100
0000
,
0001
1000
0010
1000
0001
1000
0100
1000
0001
0100
0001
0010
0100
0000
1000
0000
,
0001
0000
0000
0100
0000
0000
0001
0000
0000
0010
0000
0000
0001
0000
0000
1000
0010
0100
0001
0000
0000
0010
0000
0000
,
0100
1000
0001
1000
0010
1000
0001
1000
0100
0010
0001
0100
0010
0000
1000
0000
,
0001
0100
0001
1000
0001
0010
0001
1000
0001
0100
0010
1000
0100
0000
0010
0000
,
0001
1000
0100
1000
0001
1000
0010
1000
0001
0010
0100
1000
0010
0100
0001
1000
,
0100
0000
0010
0000
0001
0000
1000
0000
0100
0000
1000
0000
0001
0000
0100
0000
0010
0000
1000
0000
0001
0000
0100
0000
0001
0000
1000
0000
0100
0000
0010
0000
0001
0000
1000
0000
0001
0000
0000
0100
0000
0000
0010
0000
0000
1000
0000
0000
,
0001
0000
0010
0000
0001
0000
1000
0000
0010
0000
1000
0000
0001
0000
0010
0000
0100
0000
1000
0000
0001
0000
0010
0000
0001
0000
1000
0000
0010
0000
1000
0000
0001
0000
1000
0000
0100
0000
0000
0010
0000
0000
0001
0000
0000
1000
0000
0000
,
0010
0000
0100
0000
0010
0000
1000
0000
0001
0000
1000
0000
0100
0000
0010
0000
0001
0000
0010
0000
0100
0000
1000
0000
0001
0000
0100
0000
0010
0000
1000
0000
0001
0000
0100
0000
0001
0000
0000
0010
0000
0000
0100
0000
0000
1000
0000
0000
,
0001
0000
0100
0000
0010
0000
1000
0000
0010
0000
0100
0000
0001
0000
0010
0000
0100
0000
1000
0000
0001
0000
1000
0000
0010
0000
0100
0000
0001
0000
1000
0000
0010
0000
1000
0000
0001
0000
0000
0010
0000
0000
0100
0000
0000
1000
0000
0000
,
0010
0000
0100
0000
0001
0000
1000
0000
0010
0000
1000
0000
0001
0000
0010
0000
0100
0000
1000
0000
0001
0000
0010
0000
0001
0000
1000
0000
0010
0000
0100
0000
0001
0000
1000
0000
0001
0000
0000
0010
0000
0000
0100
0000
0000
1000
0000
0000
,
0001
0000
0100
0000
0001
0000
1000
0000
0100
0000
1000
0000
0001
0000
0100
0000
0010
0000
1000
0000
0001
0000
0100
0000
0001
0000
1000
0000
0100
0000
1000
0000
0001
0000
1000
0000
0010
0000
0000
0100
0000
0000
0001
0000
0000
1000
0000
0000
,
0100
0000
0010
0000
0100
0000
1000
0000
0001
0000
1000
0000
0010
0000
0100
0000
0001
0000
0100
0000
0010
0000
1000
0000
0001
0000
0010
0000
0100
0000
1000
0000
0001
0000
0010
0000
0001
0000
0000
0100
0000
0000
0010
0000
0000
1000
0000
0000
,
0001
0010
0100
1000
0100
0010
0001
0100
0010
1000
0001
1000
0100
0010
0001
1000
0100
1000
0001
0100
0001
1000
0010
1000
,
0001
0000
0010
0000
0100
0000
1000
0000
0010
0000
0100
0000
0001
0000
0010
0000
0100
0000
1000
0000
0010
0000
0100
0000
0001
0000
0010
0000
0100
0000
1000
0000
0010
0000
0100
0000
0001
0000
0000
0010
0000
0000
0100
0000
0000
1000
0000
0000
,
0001
0000
1000
0000
0100
0000
0010
0000
0001
0000
0100
0000
0010
0000
1000
0000
0100
0000
0010
0000
0001
0000
0100
0000
0010
0000
1000
0000
0100
0000
0010
0000
0001
0000
0100
0000
0010
0000
0000
1000
0000
0000
0100
0000
0000
0010
0000
0000
,
0001
0000
0010
0000
0100
0000
1000
0000
0010
0000
0100
0000
0001
0000
0010
0000
0100
0000
1000
0000
0010
0000
0100
0000
0001
0000
0010
0000
0100
0000
1000
0000
0010
0000
0100
0000
0001
0000
0000
0010
0000
0000
0100
0000
0000
1000
0000
0000
,
0001
1000
0100
0010
0001
0100
0010
1000
0100
0010
0001
0100
0010
1000
0100
0010
0001
0100
0010
1000
0001
0010
0100
1000
,
0001
0000
0100
0000
0010
0000
1000
0000
0100
0000
0010
0000
0001
0000
0100
0000
0010
0000
1000
0000
0100
0000
0010
0000
0001
0000
0100
0000
0010
0000
1000
0000
0100
0000
0010
0000
0001
0000
0000
0100
0000
0000
0010
0000
0000
1000
0000
0000
,
0001
0000
1000
0000
0010
0000
0100
0000
0001
0000
0010
0000
0100
0000
1000
0000
0010
0000
0100
0000
0001
0000
0010
0000
0100
0000
1000
0000
0010
0000
0100
0000
0001
0000
0010
0000
0100
0000
0000
1000
0000
0000
0010
0000
0000
0100
0000
0000
,
0001
0000
0100
0000
0010
0000
1000
0000
0100
0000
0010
0000
0001
0000
0100
0000
0010
0000
1000
0000
0100
0000
0010
0000
0001
0000
0100
0000
0010
0000
1000
0000
0100
0000
0010
0000
0001
0000
0000
0100
0000
0000
0010
0000
0000
1000
0000
0000
,
0001
1000
0010
0100
0001
0010
0100
1000
0010
0100
0001
0010
0100
1000
0010
0100
0001
0010
0100
1000
0001
0100
0010
1000
,
0001
0010
0100
0010
0001
1000
0010
0100
0010
1000
0001
1000
0010
0000
0000
0000
0000
0000
0000
0000
0000
1000
0001
0100
,
0001
0010
0100
1000
0001
0010
0001
1000
0010
0100
0010
1000
0001
0000
0000
0000
0000
0000
0000
0000
0000
1000
0010
1000
,
0100
0010
0001
0010
0100
1000
0001
0100
0010
1000
0010
0100
0001
0000
0000
0000
0000
0000
0000
0000
0000
0010
0100
1000
,
0010
0100
0001
1000
0100
0010
0100
1000
0001
1000
0010
0100
0001
0000
0000
0000
0000
0000
0000
0000
0000
0010
0100
1000
,
0010
0100
0001
1000
0010
1000
0001
0010
0100
1000
0001
1000
0010
0000
0000
0000
0000
0000
0000
0000
0000
1000
0100
0010
,
0001
0100
0010
1000
0010
0100
0001
1000
0100
0010
0100
1000
0001
0000
0000
0000
0000
0000
0000
0000
0000
1000
0100
1000
,
0010
0100
0001
1000
0010
1000
0001
0010
0100
1000
0001
0010
0001
0000
0000
0000
0000
0000
0000
0000
0000
0100
0010
1000
,
0100
0010
0001
0010
0100
1000
0001
0100
0010
1000
0001
0100
0001
0000
0000
0000
0000
0000
0000
0000
0000
1000
0100
0010
,
0001
0000
0100
0000
0010
0000
1000
0000
0001
0000
1000
0000
0100
0000
0010
0000
0100
0000
1000
0000
0001
0000
0010
0000
0001
0000
0000
0100
0000
0000
0010
0000
0000
1000
0000
0000
0100
0000
0000
1000
0000
0000
0010
0000
0100
0000
0001
0000
,
0010
0000
0001
0000
1000
0000
0100
0000
0010
0000
0001
0000
1000
0000
0010
0000
0100
0000
0010
0000
1000
0000
0001
0000
0010
0000
0000
0100
0000
0000
1000
0000
0000
0010
0000
0000
0100
0000
0000
0001
0000
0000
0010
0000
0100
0000
1000
0000
,
0010
0000
0100
0000
0001
0000
1000
0000
0010
0000
1000
0000
0001
0000
0010
0000
0100
0000
0010
0000
0001
0000
1000
0000
0010
0000
0000
0100
0000
0000
0001
0000
0000
0010
0000
0000
0001
0000
0000
0100
0000
0000
0010
0000
1000
0000
0100
0000
,
0010
0000
0001
0000
0010
0000
0100
0000
1000
0000
0001
0000
0100
0000
0010
0000
1000
0000
0001
0000
0100
0000
0001
0000
0010
0000
0000
0100
0000
0000
0010
0000
0000
0001
0000
0000
0100
0000
0000
0010
0000
0000
1000
0000
0100
0000
1000
0000
,
0010
0000
0100
0000
0001
0000
1000
0000
0010
0000
1000
0000
0001
0000
0010
0000
0100
0000
1000
0000
0001
0000
0010
0000
0001
0000
0000
0100
0000
0000
0010
0000
0000
1000
0000
0000
0100
0000
0000
1000
0000
0000
0010
0000
0100
0000
0001
0000
,
0010
0000
0100
0000
1000
0000
0001
0000
0010
0000
0001
0000
1000
0000
0010
0000
0100
0000
0001
0000
0100
0000
0010
0000
1000
0000
0000
0100
0000
0000
0010
0000
0000
0001
0000
0000
0100
0000
0000
0010
0000
0000
1000
0000
0100
0000
0010
0000
,
0001
0000
0100
0000
0010
0000
1000
0000
0001
0000
0100
0000
0001
0000
1000
0000
0100
0000
0010
0000
0001
0000
1000
0000
0010
0000
0000
0100
0000
0000
0001
0000
0000
0010
0000
0000
0001
0000
0000
1000
0000
0000
0010
0000
0100
0000
0010
0000
,
1000
0000
0100
0000
0010
0000
0001
0000
0010
0000
0100
0000
1000
0000
0001
0000
0100
0000
0010
0000
1000
0000
0001
0000
0010
0000
0000
0100
0000
0000
1000
0000
0000
0010
0000
0000
0100
0000
0000
0001
0000
0000
0010
0000
0100
0000
0010
0000
,
0001
0000
0100
0000
0010
0000
1000
0000
0001
0000
0100
0000
0001
0000
1000
0000
0100
0000
0010
0000
0001
0000
1000
0000
0010
0000
0000
1000
0000
0000
0100
0000
0000
0010
0000
0000
0001
0000
0000
0100
0000
0000
0001
0000
0000
1000
0000
0000
,
0100
0000
0010
0000
0001
0000
0010
0000
0100
0000
1000
0000
0010
0000
0100
0000
0001
0000
0100
0000
0010
0000
1000
0000
0100
0000
0000
0010
0000
0000
0100
0000
0000
1000
0000
0000
0010
0000
0000
0100
0000
0000
0001
0000
0010
0000
0001
0000
,
0100
0000
0010
0000
1000
0000
0001
0000
0100
0000
0001
0000
1000
0000
0100
0000
0010
0000
0001
0000
1000
0000
0100
0000
1000
0000
0000
0010
0000
0000
0100
0000
0000
0001
0000
0000
0010
0000
0000
0001
0000
0000
0100
0000
0010
0000
1000
0000
,
0100
0000
0010
0000
0001
0000
0010
0000
0100
0000
1000
0000
0001
0000
0100
0000
0010
0000
1000
0000
0001
0000
0100
0000
0001
0000
0000
0010
0000
0000
0100
0000
0000
1000
0000
0000
0010
0000
0000
0100
0000
0000
0001
0000
0010
0000
0001
0000
,
0100
0000
0010
0000
1000
0000
0001
0000
0100
0000
0001
0000
1000
0000
0100
0000
0010
0000
0100
0000
1000
0000
0001
0000
0100
0000
0000
0010
0000
0000
1000
0000
0000
0100
0000
0000
0010
0000
0000
0001
0000
0000
0100
0000
0010
0000
0100
0000
,
0001
0000
0010
0000
0100
0000
1000
0000
0001
0000
0010
0000
0001
0000
1000
0000
0010
0000
0100
0000
0001
0000
0100
0000
0010
0000
0000
1000
0000
0000
0100
0000
0000
0010
0000
0000
0100
0000
0000
1000
0000
0000
0010
0000
0100
0000
0001
0000
,
0010
0000
0100
0000
1000
0000
0100
0000
0010
0000
0001
0000
0100
0000
0010
0000
1000
0000
0001
0000
0100
0000
0001
0000
0010
0000
0000
0100
0000
0000
1000
0000
0000
0010
0000
0000
0100
0000
0000
0001
0000
0000
0010
0000
0000
0001
0000
0000
,
1000
0000
0010
0000
1000
0000
0001
0000
1000
0000
0100
0000
0010
0000
0001
0000
1000
0000
0001
0000
0100
0000
0001
0000
1000
0000
0000
0100
0000
0000
1000
0000
0000
0010
0000
0000
0100
0000
0000
0001
0000
0000
0010
0000
0001
0000
1000
0000
,
0010
0000
0100
0000
0001
0000
1000
0000
0010
0000
1000
0000
0001
0000
0010
0000
0100
0000
1000
0000
0001
0000
0010
0000
0001
0000
1000
0000
0010
0000
0100
0000
0001
0000
1000
0000
0001
0000
0000
0010
0000
0000
0100
0000
0000
1000
0000
0000
,
0001
0000
0100
0000
0001
0000
1000
0000
0100
0000
1000
0000
0001
0000
0100
0000
0010
0000
1000
0000
0001
0000
0100
0000
0001
0000
1000
0000
0100
0000
1000
0000
0001
0000
1000
0000
0010
0000
0000
0100
0000
0000
0001
0000
0000
1000
0000
0000
,
0100
0000
0010
0000
0100
0000
1000
0000
0001
0000
1000
0000
0010
0000
0100
0000
0001
0000
0100
0000
0010
0000
1000
0000
0001
0000
0010
0000
0100
0000
1000
0000
0001
0000
0010
0000
0001
0000
0000
0100
0000
0000
0010
0000
0000
1000
0000
0000
,
0001
0000
0010
0000
0100
0000
1000
0000
0100
0000
0010
0000
0001
0000
0100
0000
0010
0000
1000
0000
0001
0000
1000
0000
0100
0000
0010
0000
0001
0000
1000
0000
0100
0000
1000
0000
0001
0000
0000
0100
0000
0000
0010
0000
0000
1000
0000
0000
,
0100
0000
0010
0000
0001
0000
1000
0000
0100
0000
1000
0000
0001
0000
0100
0000
0010
0000
1000
0000
0001
0000
0100
0000
0001
0000
1000
0000
0100
0000
0010
0000
0001
0000
1000
0000
0001
0000
0000
0100
0000
0000
0010
0000
0000
1000
0000
0000
,
0001
0000
0010
0000
0001
0000
1000
0000
0010
0000
1000
0000
0001
0000
0010
0000
0100
0000
1000
0000
0001
0000
0010
0000
0001
0000
1000
0000
0010
0000
1000
0000
0001
0000
1000
0000
0100
0000
0000
0010
0000
0000
0001
0000
0000
1000
0000
0000
,
0010
0000
0100
0000
0010
0000
1000
0000
0001
0000
1000
0000
0100
0000
0010
0000
0001
0000
0010
0000
0100
0000
1000
0000
0001
0000
0100
0000
0010
0000
1000
0000
0001
0000
0100
0000
0001
0000
0000
0010
0000
0000
0100
0000
0000
1000
0000
0000
,
0001
0100
0010
1000
0010
0100
0001
0010
0100
1000
0001
1000
0010
0100
0001
1000
0010
1000
0001
0010
0001
1000
0100
1000
,
0001
0000
0100
0000
0010
0000
1000
0000
0100
0000
0010
0000
0001
0000
0100
0000
0010
0000
1000
0000
0100
0000
0010
0000
0001
0000
0100
0000
0010
0000
1000
0000
0100
0000
0010
0000
0001
0000
0000
0100
0000
0000
0010
0000
0000
1000
0000
0000
,
0001
0000
1000
0000
0010
0000
0100
0000
0001
0000
0010
0000
0100
0000
1000
0000
0010
0000
0100
0000
0001
0000
0010
0000
0100
0000
1000
0000
0010
0000
0100
0000
0001
0000
0010
0000
0100
0000
0000
1000
0000
0000
0010
0000
0000
0100
0000
0000
,
0001
0000
0100
0000
0010
0000
1000
0000
0100
0000
0010
0000
0001
0000
0100
0000
0010
0000
1000
0000
0100
0000
0010
0000
0001
0000
0100
0000
0010
0000
1000
0000
0100
0000
0010
0000
0001
0000
0000
0100
0000
0000
0010
0000
0000
1000
0000
0000
,
0001
1000
0010
0100
0001
0010
0100
1000
0010
0100
0001
0010
0100
1000
0010
0100
0001
0010
0100
1000
0001
0100
0010
1000
,
0001
0000
0010
0000
0100
0000
1000
0000
0010
0000
0100
0000
0001
0000
0010
0000
0100
0000
1000
0000
0010
0000
0100
0000
0001
0000
0010
0000
0100
0000
1000
0000
0010
0000
0100
0000
0001
0000
0000
0010
0000
0000
0100
0000
0000
1000
0000
0000
,
0001
0000
1000
0000
0100
0000
0010
0000
0001
0000
0100
0000
0010
0000
1000
0000
0100
0000
0010
0000
0001
0000
0100
0000
0010
0000
1000
0000
0100
0000
0010
0000
0001
0000
0100
0000
0010
0000
0000
1000
0000
0000
0100
0000
0000
0010
0000
0000
,
0001
0000
0010
0000
0100
0000
1000
0000
0010
0000
0100
0000
0001
0000
0010
0000
0100
0000
1000
0000
0010
0000
0100
0000
0001
0000
0010
0000
0100
0000
1000
0000
0010
0000
0100
0000
0001
0000
0000
0010
0000
0000
0100
0000
0000
1000
0000
0000
,
0001
1000
0100
0010
0001
0100
0010
1000
0100
0010
0001
0100
0010
1000
0100
0010
0001
0100
0010
1000
0001
0010
0100
1000
,
0001
0100
0010
0100
0001
1000
0100
0010
0100
1000
0001
1000
0100
0000
0000
0000
0000
0000
0000
0000
0000
1000
0001
0010
,
0001
0100
0010
1000
0001
0100
0001
1000
0100
0010
0100
1000
0001
0000
0000
0000
0000
0000
0000
0000
0000
1000
0100
1000
,
0010
0100
0001
0100
0010
1000
0001
0010
0100
1000
0100
0010
0001
1000
0010
0100
0001
1000
0001
0000
0000
0100
0010
1000
,
0100
0010
0001
1000
0010
0100
0010
1000
0001
0010
0100
1000
0001
0000
0000
0000
0000
0000
0000
0000
0000
0100
0010
1000
,
0100
0010
0001
1000
0100
1000
0001
0100
0010
1000
0001
1000
0100
0000
0000
0000
0000
0000
0000
0000
0000
1000
0010
0100
,
0001
0010
0100
1000
0100
0010
0001
1000
0010
0100
0010
1000
0001
0000
0000
0000
0000
0000
0000
0000
0000
1000
0010
1000
,
0100
0010
0001
1000
0100
1000
0001
0100
0010
1000
0001
0100
0001
1000
0100
0010
0000
0000
0000
0000
0000
0100
0010
0001
,
0100
0000
0010
0000
1000
0000
0010
0000
0100
0000
0001
0000
1000
0000
0100
0000
0010
0000
0001
0000
1000
0000
0100
0000
1000
0000
0000
0000
0000
0000
0000
0000
0000
0000
0000
0000
0000
0000
0000
0000
0000
0000
0001
0000
0000
0010
0000
0000
,
0100
0000
0000
1000
0000
0000
0001
0000
0000
1000
0000
0000
0010
0000
0000
1000
0000
0000
0001
0000
0000
0100
0000
0000
0001
0000
0000
1000
0000
0000
0001
0000
0000
0010
0000
0000
0100
0000
1000
0000
0001
0000
0010
0000
0001
0000
1000
0000
,
0010
0000
0100
0000
0001
0000
1000
0000
0010
0000
1000
0000
0001
0000
0010
0000
0100
0000
1000
0000
0100
0000
0010
0000
0001
0000
0000
0100
0000
0000
0010
0000
0000
1000
0000
0000
0010
0000
0000
0100
0000
0000
0001
0000
0010
0000
0100
0000
,
1000
0000
0010
0000
0100
0000
0001
0000
0100
0000
0010
0000
1000
0000
0001
0000
0010
0000
0100
0000
0010
0000
0001
0000
1000
0000
0000
0010
0000
0000
0100
0000
0000
0001
0000
0000
0010
0000
0000
0001
0000
0000
0100
0000
0010
0000
1000
0000
,
0100
0000
0010
0000
0001
0000
1000
0000
0100
0000
1000
0000
0001
0000
0100
0000
0010
0000
0100
0000
0001
0000
1000
0000
0100
0000
0000
0010
0000
0000
0001
0000
0000
0100
0000
0000
0010
0000
0000
1000
0000
0000
0100
0000
0010
0000
0001
0000
,
0100
0000
0001
0000
1000
0000
0010
0000
1000
0000
0001
0000
1000
0000
0100
0000
0010
0000
0001
0000
1000
0000
0100
0000
1000
0000
0000
0010
0000
0000
0100
0000
0000
0001
0000
0000
0010
0000
0000
0100
0000
0000
1000
0000
0010
0000
0100
0000
,
0001
0000
0010
0000
0001
0000
1000
0000
0100
0000
0010
0000
0001
0000
1000
0000
0010
0000
1000
0000
0001
0000
0100
0000
0001
0000
0000
0010
0000
0000
0100
0000
0000
1000
0000
0000
0010
0000
0000
1000
0000
0000
0100
0000
0010
0000
0001
0000
,
0100
0000
0001
0000
1000
0000
0010
0000
0100
0000
0001
0000
1000
0000
0100
0000
0010
0000
0001
0000
0010
0000
0100
0000
1000
0000
0000
0010
0000
0000
0100
0000
0000
0001
0000
0000
0010
0000
0000
0001
0000
0000
0100
0000
0010
0000
1000
0000
,
0100
0000
0010
0000
0100
0000
1000
0000
0001
0000
0010
0000
0001
0000
1000
0000
0010
0000
0100
0000
0010
0000
1000
0000
0100
0000
0000
0010
0000
0000
0100
0000
0000
1000
0000
0000
0010
0000
0000
0100
0000
0000
0001
0000
0010
0000
0100
0000
,
1000
0000
0010
0000
1000
0000
0001
0000
0100
0000
0001
0000
1000
0000
0100
0000
0010
0000
0100
0000
1000
0000
0001
0000
0100
0000
0000
0010
0000
0000
1000
0000
0000
0100
0000
0000
1000
0000
0000
0010
0000
0000
0100
0000
0010
0000
1000
0000
,
0100
0000
0010
0000
0001
0000
1000
0000
0100
0000
1000
0000
0001
0000
0100
0000
0010
0000
0100
0000
0001
0000
1000
0000
0100
0000
0000
0010
0000
0000
0001
0000
0000
1000
0000
0000
0010
0000
0000
0100
0000
0000
0001
0000
0010
0000
0001
0000
,
0100
0000
0010
0000
1000
0000
0001
0000
0100
0000
0001
0000
1000
0000
0100
0000
0010
0000
0001
0000
1000
0000
0100
0000
1000
0000
0000
0001
0000
0000
0100
0000
0000
0001
0000
0000
0010
0000
0000
0100
0000
0000
1000
0000
0010
0000
0100
0000
,
0001
0000
0010
0000
0001
0000
1000
0000
0100
0000
1000
0000
0001
0000
0100
0000
0010
0000
1000
0000
0010
0000
0100
0000
0001
0000
0000
0010
0000
0000
0001
0000
0000
0100
0000
0000
0010
0000
0000
1000
0000
0000
0100
0000
0010
0000
0100
0000
,
1000
0000
0010
0000
0100
0000
0001
0000
1000
0000
0010
0000
1000
0000
0001
0000
0010
0000
0100
0000
1000
0000
0001
0000
0010
0000
0000
0001
0000
0000
0100
0000
0000
0010
0000
0000
1000
0000
0000
0100
0000
0000
0010
0000
0100
0000
1000
0000
,
0010
0000
0100
0000
0001
0000
1000
0000
0010
0000
1000
0000
0001
0000
0010
0000
0100
0000
1000
0000
0001
0000
0010
0000
0001
0000
0000
0100
0000
0000
0010
0000
0000
1000
0000
0000
0001
0000
0000
0100
0000
0000
0001
0000
0000
1000
0000
0000
,
0100
1000
0010
1000
0001
0100
0001
0010
0100
1000
0010
1000
0001
0100
0001
0010
,
0100
0000
0000
0010
0000
0000
0001
0000
0000
0100
0000
0000
0010
0000
0000
1000
0000
0000
0100
0000
0000
0010
0000
0000
0100
0000
0000
1000
0000
0000
0010
0000
0000
1000
0000
0000
0001
0000
0000
0100
0000
0000
0010
0000
0100
0000
0001
0000
,
0010
0000
0100
0000
1000
0000
0001
0000
0010
0000
0001
0000
1000
0000
0010
0000
0100
0000
0001
0000
1000
0000
0010
0000
1000
0000
0001
0000
0010
0000
0100
0000
1000
0000
0001
0000
1000
0000
0000
0010
0000
0000
0100
0000
0000
0001
0000
0000
,
1000
0000
0100
0000
1000
0000
0001
0000
0100
0000
0001
0000
1000
0000
0100
0000
0010
0000
0001
0000
1000
0000
0100
0000
1000
0000
0001
0000
0100
0000
0001
0000
1000
0000
0001
0000
0010
0000
0000
0100
0000
0000
1000
0000
0000
0001
0000
0000
,
0100
0000
0010
0000
0100
0000
0001
0000
1000
0000
0001
0000
0010
0000
0100
0000
1000
0000
0100
0000
0010
0000
0001
0000
1000
0000
0010
0000
0100
0000
0001
0000
1000
0000
0010
0000
1000
0000
0000
0100
0000
0000
0010
0000
0000
0001
0000
0000
,
1000
0000
0010
0000
0100
0000
0001
0000
0100
0000
0010
0000
1000
0000
0100
0000
0010
0000
0001
0000
1000
0000
0001
0000
0100
0000
0010
0000
1000
0000
0001
0000
0100
0000
0001
0000
1000
0000
0000
0100
0000
0000
0010
0000
0000
0001
0000
0000
,
0100
0000
0010
0000
1000
0000
0001
0000
0100
0000
0001
0000
1000
0000
0100
0000
0010
0000
0001
0000
1000
0000
0100
0000
1000
0000
0001
0000
0100
0000
0010
0000
1000
0000
0001
0000
1000
0000
0000
0100
0000
0000
0010
0000
0000
0001
0000
0000
,
1000
0000
0010
0000
1000
0000
0001
0000
0010
0000
0001
0000
1000
0000
0010
0000
0100
0000
0001
0000
1000
0000
0010
0000
1000
0000
0001
0000
0010
0000
0001
0000
1000
0000
0001
0000
0100
0000
0000
0010
0000
0000
1000
0000
0000
0001
0000
0000
,
0010
0000
0100
0000
0010
0000
0001
0000
1000
0000
0001
0000
0100
0000
0010
0000
1000
0000
0010
0000
0100
0000
0001
0000
1000
0000
0100
0000
0010
0000
0001
0000
1000
0000
0100
0000
1000
0000
0000
0010
0000
0000
0100
0000
0000
0001
0000
0000
,
1000
0100
0010
0001
0010
0100
1000
0010
0100
0001
1000
0001
0010
0100
1000
0001
0010
0001
1000
0010
1000
0001
0100
0001
,
1000
0000
0100
0000
0010
0000
0001
0000
0100
0000
0010
0000
1000
0000
0100
0000
0010
0000
0001
0000
0100
0000
0010
0000
1000
0000
0100
0000
0010
0000
0001
0000
0100
0000
0010
0000
1000
0000
0000
0100
0000
0000
0010
0000
0000
0001
0000
0000
,
1000
0000
0001
0000
0010
0000
0100
0000
1000
0000
0010
0000
0100
0000
0001
0000
0010
0000
0100
0000
1000
0000
0010
0000
0100
0000
0001
0000
0010
0000
0100
0000
1000
0000
0010
0000
0100
0000
0000
0001
0000
0000
0010
0000
0000
0100
0000
0000
,
1000
0000
0100
0000
0010
0000
0001
0000
0100
0000
0010
0000
1000
0000
0100
0000
0010
0000
0001
0000
0100
0000
0010
0000
1000
0000
0100
0000
0010
0000
0001
0000
0100
0000
0010
0000
1000
0000
0000
0100
0000
0000
0010
0000
0000
0001
0000
0000
,
1000
0001
0010
0100
1000
0010
0100
0001
0010
0100
1000
0010
0100
0001
0010
0100
1000
0010
0100
0001
1000
0100
0010
0001
,
1000
0000
0010
0000
0100
0000
0001
0000
0010
0000
0100
0000
1000
0000
0010
0000
0100
0000
0001
0000
0010
0000
0100
0000
1000
0000
0010
0000
0100
0000
0001
0000
0010
0000
0100
0000
1000
0000
0000
0010
0000
0000
0100
0000
0000
0001
0000
0000
,
1000
0000
0001
0000
0100
0000
0010
0000
1000
0000
0100
0000
0010
0000
0001
0000
0100
0000
0010
0000
1000
0000
0100
0000
0010
0000
0001
0000
0100
0000
0010
0000
1000
0000
0100
0000
0010
0000
0000
0001
0000
0000
0100
0000
0000
0010
0000
0000
,
1000
0000
0010
0000
0100
0000
0001
0000
0010
0000
0100
0000
1000
0000
0010
0000
0100
0000
0001
0000
0010
0000
0100
0000
1000
0000
0010
0000
0100
0000
0001
0000
0010
0000
0100
0000
1000
0000
0000
0010
0000
0000
0100
0000
0000
0001
0000
0000
,
1000
0001
0100
0010
1000
0100
0010
0001
0100
0010
1000
0100
0010
0001
0100
0010
1000
0100
0010
0001
1000
0010
0100
0001
,
1000
0010
0100
0010
1000
0001
0010
0100
0010
0001
1000
0001
0010
0000
0000
0000
0000
0000
0000
0000
0000
0001
1000
0100
,
1000
0010
0100
0001
1000
0010
1000
0001
0010
0100
0010
0001
1000
0000
0000
0000
0000
0000
0000
0000
0000
0001
0010
0001
,
0100
0010
1000
0010
0100
0001
1000
0100
0010
0001
0010
0100
1000
0000
0000
0000
0000
0000
0000
0000
0000
0010
0100
0001
,
0010
0100
1000
0001
0100
0010
0100
0001
1000
0001
0010
0100
1000
0100
0010
0100
1000
0001
0100
0001
1000
0010
0100
0001
,
0010
0100
1000
0001
0010
0001
1000
0010
0100
0001
1000
0001
0010
0000
0000
0000
0000
0000
0000
0000
0000
0001
0100
0010
,
1000
0100
0010
0001
0010
0100
1000
0001
0100
0010
0100
0001
1000
0000
0000
0000
0000
0000
0000
0000
0000
0001
0100
0001
,
0010
0100
1000
0001
0010
0001
1000
0010
0100
0001
1000
0010
1000
0000
0000
0000
0000
0000
0000
0000
0000
0100
0010
0001
,
0100
0010
1000
0010
0100
0001
1000
0100
0010
0001
1000
0100
1000
0001
0100
0010
0100
0001
0010
0100
1000
0001
0010
0001
,
0100
0000
0010
0000
1000
0000
0010
0000
0100
0000
0001
0000
1000
0000
0100
0000
0010
0000
0100
0000
1000
0000
0001
0000
1000
0000
0000
0010
0000
0000
0100
0000
0000
0001
0000
0000
0010
0000
0000
0100
0000
0000
1000
0000
0100
0000
1000
0000
,
0010
0000
0100
0000
0001
0000
1000
0000
0010
0000
1000
0000
0001
0000
0010
0000
0100
0000
1000
0000
0100
0000
0010
0000
0001
0000
0000
0100
0000
0000
0010
0000
0000
1000
0000
0000
0010
0000
0000
0100
0000
0000
0001
0000
0010
0000
0100
0000
,
1000
0000
0010
0000
0100
0000
0001
0000
0100
0000
0010
0000
1000
0000
0001
0000
0010
0000
0100
0000
0010
0000
0001
0000
1000
0000
0000
0010
0000
0000
0100
0000
0000
0001
0000
0000
0010
0000
0000
0001
0000
0000
0100
0000
0010
0000
1000
0000
,
0100
0010
0001
1000
0100
1000
0001
0100
0010
0100
0001
1000
0100
0010
0001
1000
0010
0100
0001
1000
0001
0010
0100
1000
,
0010
0000
1000
0000
0001
0000
0100
0000
0001
0000
1000
0000
0001
0000
0010
0000
0100
0000
1000
0000
0001
0000
0010
0000
0001
0000
0000
0100
0000
0000
0010
0000
0000
1000
0000
0000
0100
0000
0000
0010
0000
0000
0001
0000
0100
0000
0010
0000
,
1000
0000
0100
0000
1000
0000
0001
0000
0010
0000
0100
0000
1000
0000
0001
0000
0100
0000
0001
0000
1000
0000
0010
0000
1000
0000
0001
0000
0010
0000
0100
0000
0000
1000
0000
0000
0001
0000
0000
0100
0000
0000
0010
0000
0000
1000
0000
0000
,
0100
0000
1000
0000
0001
0000
0100
0000
0010
0000
1000
0000
0001
0000
0010
0000
0100
0000
1000
0000
0100
0000
0010
0000
0001
0000
0000
0100
0000
0000
0010
0000
0000
1000
0000
0000
0100
0000
0000
1000
0000
0000
0100
0000
0010
0000
0001
0000
,
0100
0010
0100
0001
1000
0010
1000
0001
0010
0100
0010
0001
0100
0010
1000
0001
0100
0001
0010
0100
1000
0001
0010
0001
,
1000
0100
0010
0100
1000
0001
0100
0010
0100
0001
1000
0001
0100
0000
0000
0000
0000
0000
0000
0000
0000
0001
1000
0010
,
1000
0100
0010
0001
1000
0100
1000
0001
0100
0010
0100
0001
1000
0000
0000
0000
0000
0000
0000
0000
0000
0001
0100
0001
,
0010
0100
1000
0100
0010
0001
1000
0010
0100
0001
0100
0010
1000
0000
0000
0000
0000
0000
0000
0000
0000
0100
0010
0001
,
0100
0010
1000
0001
0010
0100
0010
0001
1000
0001
0100
0010
1000
0010
0100
0010
1000
0001
0010
0001
1000
0100
0010
0001
,
0100
0010
1000
0001
0100
0001
1000
0100
0010
0001
1000
0001
0100
0000
0000
0000
0000
0000
0000
0000
0000
0000
0000
0000
,
0001
0100
0010
1000
0010
0100
0001
1000
0100
0010
0100
1000
0001
0000
0000
0000
0000
0000
0000
0000
0000
1000
0100
1000
,
0010
0100
0001
1000
0010
1000
0001
0010
0100
1000
0001
0010
0001
0000
0000
0000
0000
0000
0000
0000
0000
0100
0010
1000
,
0100
0010
0001
0010
0100
1000
0001
0100
0010
1000
0001
0100
0001
1000
0100
0010
0100
1000
0010
0100
0001
1000
0010
1000
,
0100
0010
0100
1000
0001
0100
0001
1000
0100
0010
0001
1000
0010
0100
0001
1000
0010
1000
0001
0100
0010
1000
0001
0010
,
0001
0100
0010
1000
0001
0010
0001
1000
0010
0100
0001
1000
0100
0010
0001
1000
0100
1000
0001
0010
0100
1000
0001
0100
,
0001
0010
0100
1000
0001
0100
0001
1000
0100
0010
0100
1000
0001
0100
0010
1000
0001
0100
0001
1000
0010
1000
0001
0010
,
0001
0100
0010
1000
0001
0010
0001
1000
0010
0100
0010
1000
0001
0010
0100
1000
0001
0010
0001
1000
0100
1000
0001
0100
,
0001
0010
0100
1000
0001
0100
0001
1000
0100
0010
0001
1000
0010
1000
0001
0100
0001
1000
0010
0100
0001
1000
0100
0010
,
0001
0100
0010
1000
0001
0010
0001
1000
0010
0100
0001
1000
0100
0010
0100
1000
0001
0010
0001
1000
0100
1000
0001
0100
,
0001
0010
0100
1000
0001
0100
0001
1000
0100
0010
0001
1000
0010
0100
0010
1000
0001
0100
0001
1000
0010
1000
0001
0010
,
0001
0100
0010
1000
0001
0100
0001
1000
0100
0010
0100
1000
0001
0100
0010
1000
0001
0100
0001
1000
0100
0010
0001
1000
,
0010
0100
0001
0010
0100
1000
0010
0100
0001
0010
0100
1000
0010
0100
0001
0010
0100
1000
0001
0100
0010
1000
0010
0100
,
0001
0010
0100
1000
0010
0100
0001
0010
0100
1000
0010
0100
0001
0010
0100
1000
0010
0100
0001
1000
0100
0010
0100
1000
,
0010
0100
0001
0010
0100
1000
0010
0100
0001
0010
0100
1000
0010
0100
0001
0010
0100
1000
0001
0100
0010
1000
0010
0100
,
0001
0010
0100
1000
0010
0100
0001
0010
0100
1000
0010
0100
0001
0010
0100
1000
0010
0100
0001
0010
0100
1000
0010
1000
,
0100
0010
0001
0100
0010
1000
0100
0010
0001
0100
0010
1000
0100
0010
0001
0100
0010
1000
0001
0010
0100
1000
0100
0010
,
0001
0100
0010
1000
0100
0010
0001
0100
0010
1000
0100
0010
0001
0100
0010
1000
0100
0010
0001
1000
0010
0100
0010
1000
,
0100
0010
0001
0100
0010
1000
0100
0010
0001
0100
0010
1000
0100
0010
0001
0100
0010
1000
0001
0010
0100
1000
0100
0010
,
0001
0100
0010
1000
0100
0010
0001
0100
0010
1000
0100
0010
0001
0100
0010
1000
0100
0010
0001
0100
0010
1000
0100
0010
,
0001
0010
0100
1000
0001
0010
0001
0100
0010
1000
0010
0100
0001
0010
0001
1000
,
0010
0100
0010
1000
0100
0010
0001
0010
0100
1000
0010
0100
0001
0100
0001
1000
,
0001
0100
0010
1000
0001
0100
0001
0010
0100
1000
0100
0010
0001
0100
0001
1000
,
0100
0010
0100
1000
0010
0100
0001
0100
0010
1000
0100
0010
0001
0010
0001
1000
,
0001
0010
0100
1000
0001
0010
0001
0100
0010
1000
0010
0100
0001
0010
0001
1000
,
0010
0100
0010
1000
0100
0010
0001
0010
0100
1000
0010
0100
0001
0100
0001
1000
,
0001
0100
0010
1000
0001
0100
0001
0010
0100
1000
0100
0010
0001
0100
0001
1000
,
0100
0010
0100
1000
0010
0100
0001
0100
0010
1000
0100
0010
0001
0010
0001
1000
,
0001
0010
0100
1000
0001
0010
0001
0100
0010
1000
0010
0100
0001
0010
0001
1000
,
0010
0100
0010
1000
0100
0010
0001
0010
0100
1000
0010
0100
0001
0100
0001
1000
,
0001
0100
0010
1000
0001
0100
0001
0010
0100
1000
0100
0010
0001
0100
0001
1000
,
0100
0010
0100
1000
0010
0100
0001
0100
0010
1000
0100
0010
0001
0010
0001
1000
,
0001
0010
0100
1000
0001
0010
0001
0100
0010
1000
0010
0100
0001
0010
0001
1000
,
0010
0100
0010
1000
0100
0010
0001
0010
0100
1000
0010
0100
0001
0100
0001
1000
,
0001
0100
0010
1000
0100
1000
0010
0100
0001
0010
0001
0100
0010
1000
0100
1000
,
0001
0100
0001
0010
0100
1000
0010
1000
0100
0010
0001
0100
0010
1000
0001
1000
,
0000
0000
0000
0000
,
000M
0000
0000
0000
;

//---------------dance-single - Gazebo----------------
#NOTES:
     dance-single:
     Gazebo:
     Hard:
     15:
     1.000,1.000,0.062,0.007,1.000,2271.000,18.000,2.000,0.000,0.000:
0001
0000
0000
0010
0000
0000
0001
0000
0000
0100
0000
0000
0001
0000
0000
1000
0100
0010
0001
0000
0000
0100
0000
0000
,
0010
1000
0001
1000
0100
1000
0001
1000
0010
0100
0001
0010
0100
0000
1000
0000
,
0001
0010
0001
1000
0001
0100
0001
1000
0001
0010
0100
1000
0010
0000
0100
0000
,
0001
1000
0010
1000
0001
1000
0100
1000
0001
0100
0001
0010
0100
0000
1000
0000
,
0001
0000
0000
0100
0000
0000
0001
0000
0000
0010
0000
0000
0001
0000
0000
1000
0010
0100
0001
0000
0000
0010
0000
0000
,
0100
1000
0001
1000
0010
1000
0001
1000
0100
0010
0001
0100
0010
0000
1000
0000
,
0001
0100
0001
1000
0001
0010
0001
1000
0001
0100
0010
1000
0100
0000
0010
0000
,
0001
1000
0100
1000
0001
1000
0010
1000
0001
0010
0100
1000
0001
0000
1000
0000
,
0001
0010
0001
0100
0001
1000
0010
1000
0001
0000
0000
0000
1000
0000
0001
0000
,
1000
0010
1000
0100
1000
0001
0010
0001
1000
0000
0000
0000
0001
0000
1000
0000
,
0001
0010
0001
0100
0001
1000
0010
1000
0001
0000
0000
0000
1000
0000
0001
0000
,
1000
0010
1000
0100
1000
0001
0010
0001
1000
0000
0000
0000
0001
0010
0100
0010
,
0001
0100
0001
0010
0001
1000
0100
1000
0001
0000
0000
0000
1000
0000
0001
0000
,
1000
0100
1000
0010
1000
0001
0100
0001
1000
0000
0000
0000
0001
0000
1000
0100
,
0010
0000
0001
0000
1000
0100
1000
0000
0010
0000
1000
0000
0001
0100
0001
0000
,
1000
0000
0100
0000
0010
0001
0010
0000
0001
0000
1000
0000
0010
0100
0010
0000
,
1000
0100
1000
0001
0010
0001
1000
0010
1000
0001
0100
0001
1000
0100
1000
0100
0010
0001
0100
0001
0100
0001
1000
0010
,
1000
0100
1000
0001
0010
0001
1000
0010
1000
0001
0100
0001
1000
0100
1000
0100
0010
0001
0100
0001
0100
0001
1000
0010
,
1000
0100
1000
0001
0010
0001
1000
0010
1000
0001
0100
0001
1000
0100
1000
0100
0010
0001
0100
0001
1000
0010
1000
0001
,
1000
0100
1000
0001
0010
0001
1000
0010
1000
0001
0100
0001
1000
0100
1000
0100
0010
0001
1000
0010
1000
0001
0010
0001
,
1000
0010
1000
0001
0100
0001
1000
0100
1000
0001
0010
0001
1000
0010
1000
0010
0100
0001
0010
0001
0010
0001
1000
0100
,
1000
0010
1000
0001
0100
0001
1000
0100
1000
0001
0010
0001
1000
0010
1000
0010
0100
0001
0010
0001
0010
0001
1000
0100
,
1000
0010
1000
0001
0100
0001
1000
0100
1000
0001
0010
0001
1000
0010
1000
0010
0100
0001
0010
0001
1000
0100
1000
0001
,
1000
0010
1000
0001
0100
0001
1000
0100
1000
0001
0010
0001
1000
0010
1000
0010
0100
0001
1000
0100
1000
0100
0010
0001
,
1000
0000
0010
0100
0010
0000
1000
0000
0001
0000
0000
0000
0000
0000
1000
0100
,
0010
0100
1000
0001
1000
0000
0000
0001
,
0100
0000
0010
0000
1000
0000
0001
0000
1000
0000
0000
0000
0000
0000
0001
0010
,
0100
0000
0010
0000
0001
0000
1000
0010
1000
0000
0000
0000
0000
0000
0001
0000
,
0100
0000
0001
0000
1000
0000
0100
0000
0010
0000
0000
0000
0000
0000
0001
1000
,
0010
0100
0010
0100
0001
0000
0000
1000
,
0100
0000
0010
0000
0001
1000
0001
0000
0100
0000
0000
0000
0000
0000
0010
0100
,
0001
0000
1000
0001
1000
0000
0100
0000
0010
0000
0000
0000
0000
0000
0001
1000
,
0001
0100
0001
1000
0010
1000
0100
1000
0001
0010
0100
1000
0010
1000
0001
0100
,
0001
0010
0001
1000
0100
1000
0010
1000
0001
0100
0010
1000
0100
0010
0100
0010
,
0001
0100
0001
1000
0010
1000
0100
1000
0001
0010
0100
1000
0010
1000
0001
0100
,
0001
0010
0001
1000
0100
1000
0010
1000
0001
0100
0010
1000
0100
0010
0001
1000
,
0001
0100
0001
1000
0010
1000
0100
1000
0001
0010
0100
1000
0010
1000
0001
0100
,
0001
0010
0001
1000
0100
1000
0010
1000
0001
0100
0010
1000
0100
0010
0100
1000
,
0001
0100
0001
1000
0010
1000
0100
1000
0001
0010
0100
1000
0010
1000
0001
0100
,
0001
0010
0001
1000
0100
1000
0010
1000
0001
0100
0010
1000
0100
1000
0001
0010
,
0001
0100
0001
1000
0010
1000
0100
1000
0001
0010
0100
1000
0010
1000
0001
0100
,
0001
0010
0001
1000
0100
1000
0010
1000
0001
0100
0010
1000
0100
1000
0010
1000
,
0001
0100
0001
1000
0010
1000
0100
1000
0001
0010
0100
1000
0010
1000
0001
0100
,
0001
0010
0001
1000
0100
1000
0010
1000
0001
0100
0010
1000
0100
0010
0001
1000
,
0001
0100
0001
1000
0010
1000
0100
1000
0001
0010
0100
1000
0010
1000
0001
0100
,
0001
0010
0001
1000
0100
1000
0010
1000
0001
0100
0010
1000
0100
0010
0100
1000
,
0001
0000
1000
0000
0001
0100
0001
0000
0010
0000
0001
0000
1000
0100
1000
0000
,
0001
0000
0100
0000
0010
1000
0010
0000
1000
0000
0001
0000
0001
0100
0001
0000
,
1000
0010
1000
0100
1000
0001
0010
0001
1000
0000
0000
0000
0001
0000
1000
0000
,
0001
0010
0001
0100
0001
1000
0010
1000
0001
0000
0000
0000
1000
0000
0001
0000
,
1000
0010
1000
0100
1000
0001
0010
0001
1000
0000
0000
0000
0001
0000
1000
0000
,
0001
0010
0001
0100
0001
1000
0010
1000
0001
0000
0000
0000
1000
0010
0100
0010
,
1000
0100
1000
0010
1000
0001
0100
0001
1000
0000
0000
0000
0001
0000
1000
0000
,
0001
0100
0001
0010
0001
1000
0100
1000
0001
0000
0000
0000
1000
0000
0001
0100
,
0010
0000
1000
0000
0001
0100
0001
0000
0010
0000
0001
0000
1000
0100
1000
0000
,
0001
0000
0100
0000
0010
1000
0010
0000
1000
0000
0001
0000
0010
0100
0010
0000
,
0001
0100
0001
1000
0010
1000
0001
0010
0001
1000
0100
1000
0001
0100
0001
0100
0010
1000
0100
1000
0100
1000
0001
0010
,
0001
0100
0001
1000
0010
1000
0001
0010
0001
1000
0100
1000
0001
0100
0001
0100
0010
1000
0100
1000
0100
1000
0001
0010
,
0001
0100
0001
1000
0010
1000
0001
0010
0001
1000
0100
1000
0001
0100
0001
0100
0010
1000
0100
1000
0001
0010
0001
1000
,
0001
0100
0001
1000
0010
1000
0001
0010
0001
1000
0100
1000
0001
0100
0001
0100
0010
1000
0001
0010
0001
1000
0010
1000
,
0001
0010
0001
1000
0100
1000
0001
0100
0001
1000
0010
1000
0001
0010
0001
0010
0100
1000
0010
1000
0010
1000
0001
0100
,
0001
0010
0001
1000
0100
1000
0001
0100
0001
1000
0010
1000
0001
0010
0001
0010
0100
1000
0010
1000
0010
1000
0001
0100
,
0001
0010
0001
1000
0100
1000
0001
0100
0001
1000
0010
1000
0001
0010
0001
0010
0100
1000
0010
1000
0001
0100
0001
1000
,
0001
0010
0001
1000
0100
1000
0001
0100
0001
1000
0010
1000
0001
0010
0001
0010
0100
1000
0001
0100
0001
0100
0010
1000
,
0001
0000
1000
0000
0100
0000
1000
0001
1000
0000
0010
0000
0110
0000
0000
0000
,
1000
0000
0000
0000
0000
0000
0001
0000
0000
0000
0000
0000
1000
0000
0000
0000
0000
0000
0100
0000
0000
0010
0000
0000
0001
0000
0000
0000
1000
0000
0000
0000
0001
0000
0000
0000
1000
0000
0000
0000
0010
0000
0000
0000
1000
0000
0000
0000
,
1001
0000
0001
0000
0100
0000
0010
1000
0010
0000
0000
0000
1010
0000
0000
0000
,
1000
0000
0000
0000
0000
0000
0001
0000
0000
0000
0000
0000
1000
0000
0000
0000
0000
0000
0100
0000
0000
0010
0000
0000
0001
0000
0000
0000
1000
0000
0000
0000
0001
0000
0000
0000
0100
0000
0000
0000
0010
0000
0000
0000
1000
0000
0000
0000
,
1001
0000
0001
0000
0010
0000
0001
1000
0001
0000
0100
0000
0110
0000
0000
0000
,
0001
0000
0000
0000
0000
0000
1000
0000
0000
0000
0000
0000
0001
0000
0000
0000
0000
0000
0010
0000
0000
0100
0000
0000
1000
0000
0000
0000
0001
0000
0000
0000
1000
0000
0000
0000
0001
0000
0000
0000
0100
0000
0000
0000
0000
0000
0000
0000
,
0010
0000
1000
0000
0001
0010
0001
0000
0100
0000
0001
0000
1000
0010
1000
0000
,
0001
0000
0010
0000
0100
1000
0100
0000
1000
0000
0001
0000
0100
0010
0100
0000
,
0000
0000
0000
1001
,
0010
0000
0000
1001
0000
0000
1000
0100
0010
0001
0100
0001
,
1001
0000
1000
0000
0100
0000
0010
0001
0010
0000
0001
0000
1001
0000
1000
0000
,
0001
0000
0000
0000
0000
0000
0100
0000
0000
0000
0000
0000
0110
0000
0000
0000
0000
0000
0010
0000
0000
1000
0000
0000
0001
0000
0000
0000
1000
0000
0000
0000
0001
0000
0000
0000
0010
0000
0000
0000
0100
0000
0000
0000
1000
0000
0000
0000
,
1001
0000
0001
0000
0100
0000
0001
1000
0001
0000
0010
0000
0110
0000
0000
0000
,
0001
0000
0000
0000
0000
0000
1000
0000
0000
0000
0000
0000
1001
0000
0000
0000
0000
0000
0001
0000
0000
0100
0000
0000
0010
0000
0000
0000
1000
0000
0000
0000
0001
0000
0000
0000
1000
0000
0000
0000
0100
0000
0000
0000
0010
0000
0000
0000
,
0001
0000
1000
0000
0001
0100
0001
0000
0010
0000
0001
0000
1000
0100
1000
0000
,
0001
0000
0100
0000
0010
1000
0010
0000
1000
0000
0001
0000
0010
0100
0010
0000
,
0001
1000
0100
1000
0001
1000
0010
0100
0001
1000
0010
1000
0001
0010
0100
1000
,
0001
0000
0000
1000
0000
0000
0010
0000
0000
1000
0000
0000
0001
0000
0000
1000
0000
0000
0100
0000
0000
0010
0000
0000
0001
0000
0000
0000
1000
0000
0000
0000
0001
0000
0000
0000
0100
0000
0000
0000
0001
0000
0000
0000
1000
0000
0000
0000
,
0001
1000
0100
1000
0001
1000
0010
0100
0001
1000
0010
1000
0001
0010
0100
1000
,
0001
0000
0000
1000
0000
0000
0010
0000
0000
1000
0000
0000
0001
0000
0000
1000
0000
0000
0100
0000
0000
0010
0000
0000
0001
0000
0000
0000
1000
0000
0000
0000
0001
0000
0000
0000
0100
0000
0000
0000
0001
0000
0000
0000
1000
0000
0000
0000
,
0001
1000
0100
1000
0001
1000
0010
0100
0001
1000
0010
1000
0001
0010
0100
1000
,
0001
0000
0000
1000
0000
0000
0010
0000
0000
1000
0000
0000
0001
0000
0000
1000
0000
0000
0100
0000
0000
0010
0000
0000
0001
0000
0000
0000
1000
0000
0000
0000
0010
0000
0000
0000
1000
0000
0000
0000
0001
0000
0000
0000
0000
0000
0000
0000
,
1000
0100
0010
0100
0010
0001
1000
0001
,
1000
0010
1000
0001
1000
0000
0010
0000
1000
0000
0001
0000
0010
0000
0100
0000
,
1000
0100
1000
0010
1000
0001
0100
0001
1000
0000
0000
0000
0001
0000
1000
0000
,
0001
0100
0001
0010
0001
1000
0100
1000
0001
0000
0000
0000
1000
0000
0001
0000
,
1000
0100
1000
0010
1000
0001
0100
0001
1000
0000
0000
0000
0001
0000
1000
0000
,
0001
0100
0001
0010
0001
1000
0100
1000
0001
0000
0000
0000
1000
0100
0010
0100
,
1000
0010
1000
0100
1000
0001
0010
0001
1000
0000
0000
0000
0001
0000
1000
0000
,
0001
0010
0001
0100
0001
1000
0010
1000
0001
0000
0000
0000
1000
0000
0001
0010
,
0100
0000
1000
0000
0001
0010
0001
0000
0100
0000
0001
0000
1000
0010
1000
0000
,
0001
0000
0010
0000
0100
1000
0100
0000
1000
0000
0001
0000
0100
0010
0100
0000
,
0001
0010
0001
1000
0100
1000
0001
0100
0001
1000
0010
1000
0001
0010
0001
0010
0100
1000
0010
1000
0010
1000
0001
0100
,
0001
0010
0001
1000
0100
1000
0001
0100
0001
1000
0010
1000
0001
0010
0001
0010
0100
1000
0010
1000
0010
1000
0001
0100
,
0001
0010
0001
1000
0100
1000
0001
0100
0001
1000
0010
1000
0001
0010
0001
0010
0100
1000
0010
1000
0001
0100
0001
1000
,
0001
0010
0001
1000
0100
1000
0001
0100
0001
1000
0010
1000
0001
0010
0001
0010
0100
1000
0001
0100
0001
1000
0100
1000
,
0001
0100
0001
1000
0010
1000
0001
0010
0001
1000
0100
1000
0001
0100
0001
0100
0010
1000
0100
1000
0100
1000
0001
0010
,
0001
0100
0001
1000
0010
1000
0001
0010
0001
1000
0100
1000
0001
0100
0001
0100
0010
1000
0100
1000
0100
1000
0001
0010
,
0001
0100
0001
1000
0010
1000
0001
0010
0001
1000
0100
1000
0001
0100
0001
0100
0010
1000
0100
1000
0001
0010
0001
1000
,
0001
0100
0001
1000
0010
1000
0001
0010
0001
1000
0100
1000
0001
0100
0001
0100
0010
1000
0001
0010
0001
0010
0100
1000
,
0001
0000
1000
0000
0010
0000
1000
0001
1000
0000
0100
0000
0110
0000
0000
0000
,
1000
0000
0000
0000
0000
0000
0001
0000
0000
0000
0000
0000
1000
0000
0000
0000
0000
0000
0010
0000
0000
0100
0000
0000
0001
0000
0000
0000
1000
0000
0000
0000
0001
0000
0000
0000
1000
0000
0000
0000
0100
0000
0000
0000
1000
0000
0000
0000
,
1001
0000
0001
0000
0010
0000
0100
1000
0100
0000
0000
0000
1100
0000
0000
0000
,
1000
0000
0000
0000
0000
0000
0001
0000
0000
0000
0000
0000
1000
0000
0000
0000
0000
0000
0010
0000
0000
0100
0000
0000
0001
0000
0000
0000
1000
0000
0000
0000
0001
0000
0000
0000
0010
0000
0000
0000
0100
0000
0000
0000
1000
0000
0000
0000
,
1001
0000
0001
0000
0100
0000
0001
1000
0001
0000
0010
0000
0110
0000
0000
0000
,
0001
0000
0000
0000
0000
0000
1000
0000
0000
0000
0000
0000
0001
0000
0000
0000
0000
0000
0100
0000
0000
0010
0000
0000
1000
0000
0000
0000
0001
0000
0000
0000
1000
0000
0000
0000
0001
0000
0000
0000
0010
0000
0000
0000
0000
0000
0000
0000
,
0100
0000
1000
0000
0001
0100
0001
0000
0010
0000
0001
0000
1000
0100
1000
0000
,
0001
0000
0100
0000
0010
1000
0010
0000
1000
0000
0001
0000
0010
0100
0010
0000
,
0001
1000
0010
1000
0001
1000
0100
0010
0001
1000
0100
1000
0001
0100
0010
1000
,
0001
1000
0100
1000
0001
1000
0010
0100
0001
0010
0001
0100
0010
1000
0100
1000
,
0001
0010
0100
1000
0001
1000
0010
0100
0001
1000
0010
1000
0001
0010
0100
1000
,
0001
1000
0010
1000
0001
1000
0100
0010
0001
0100
0001
0010
0100
1000
0010
1000
,
0001
0100
0010
1000
0001
1000
0100
0010
0001
1000
0100
1000
0001
0100
0010
1000
,
0001
1000
0100
1000
0001
1000
0010
0100
0001
0010
0001
0100
0010
1000
0100
1000
,
0001
0000
1000
0000
0001
0100
0001
0000
0010
0000
0001
0000
1000
0100
1000
0000
,
0001
0000
0100
0000
0010
1000
0010
0000
1000
0000
0001
0000
0010
0100
0010
0000
,
0001
1000
0010
1000
0001
0000
0000
1000
,
0100
1000
0001
0010
0001
0000
0000
1000
,
0010
0100
0001
1000
0001
0000
0000
1000
,
0100
0010
0001
0010
0002
0000
2003
0010
,
3010
0100
0001
1000
0001
0000
0000
0000
,
1000
0000
0100
0000
0010
0000
0001
0000
0010
0000
0000
0000
0000
0000
0001
0010
,
0001
0000
1000
0000
0001
0100
0001
0000
0010
0000
0001
0000
1000
0100
1000
0000
,
0001
0000
0100
0000
0010
1000
0010
0000
1000
0000
0001
0000
0010
0100
0010
0000
,
0001
0010
0001
0100
0001
1000
0010
1000
0001
0000
0000
0000
1000
0000
0001
0000
,
1000
0010
1000
0100
1000
0001
0010
0001
1000
0000
0000
0000
0001
0000
1000
0000
,
0001
0010
0001
0100
0001
1000
0010
1000
0001
0000
0000
0000
1000
0000
0001
0000
,
1000
0010
1000
0100
1000
0001
0010
0001
1000
0000
0000
0000
0001
0010
0100
0010
,
0001
0100
0001
0010
0001
1000
0100
1000
0001
0000
0000
0000
1000
0000
0001
0000
,
1000
0100
1000
0010
1000
0001
0100
0001
1000
0000
0000
0000
0001
0000
1000
0100
,
0010
0000
0001
0000
1000
0100
1000
0000
0010
0000
1000
0000
0001
0100
0001
0000
,
1000
0000
0100
0000
0010
0001
0010
0000
0001
0000
1000
0000
0010
0100
0010
0000
,
1000
0100
1000
0001
0010
0001
1000
0010
1000
0001
0100
0001
1000
0100
1000
0100
0010
0001
0100
0001
0100
0001
1000
0010
,
1000
0100
1000
0001
0010
0001
1000
0010
1000
0001
0100
0001
1000
0100
1000
0100
0010
0001
0100
0001
0100
0001
1000
0010
,
1000
0100
1000
0001
0010
0001
1000
0010
1000
0001
0100
0001
1000
0100
1000
0100
0010
0001
0100
0001
1000
0010
1000
0001
,
1000
0100
1000
0001
0010
0001
1000
0010
1000
0001
0100
0001
1000
0100
1000
0100
0010
0001
1000
0010
1000
0001
0010
0001
,
1000
0010
1000
0001
0100
0001
1000
0100
1000
0001
0010
0001
1000
0010
1000
0010
0100
0001
0010
0001
0010
0001
1000
0100
,
1000
0010
1000
0001
0100
0001
1000
0100
1000
0001
0010
0001
1000
0010
1000
0010
0100
0001
0010
0001
0010
0001
1000
0100
,
1000
0010
1000
0001
0100
0001
1000
0100
1000
0001
0010
0001
1000
0010
1000
0010
0100
0001
0010
0001
1000
0100
1000
0001
,
1000
0010
1000
0001
0100
0001
1000
0100
1000
0001
0010
0001
1000
0010
1000
0010
0100
0001
1000
0100
1000
0100
0010
0001
,
1000
0010
0100
0001
0010
0001
0010
0001
1000
0100
1000
0010
1000
0001
0100
0001
,
1000
0100
1000
0001
1000
0010
1000
0001
1000
0100
0010
0001
0100
0001
0100
0001
,
1000
0100
1000
0001
1000
0010
1000
0001
1000
0100
0010
0001
0100
0001
0100
0001
,
1000
0100
1000
0001
1000
0010
1000
0001
1000
0100
0010
0001
1000
0010
0100
0010
,
1000
0100
0010
0001
0100
0001
0100
0001
1000
0010
1000
0100
1000
0001
0010
0001
,
1000
0010
1000
0001
1000
0100
1000
0001
1000
0010
0100
0001
0010
0001
0010
0001
,
1000
0010
1000
0001
1000
0100
1000
0001
1000
0010
0100
0001
0010
0001
0010
0001
,
1000
0010
1000
0001
1000
0100
1000
0001
1000
0010
0100
0001
1000
0100
0010
0100
,
1000
0001
0010
0001
0100
0001
0100
0001
1000
0010
1000
0100
1000
0001
0010
0001
,
1000
0010
1000
0001
1000
0100
0010
0001
0100
0010
0100
0010
1000
0001
0100
0001
,
1000
0100
0010
0001
0100
0001
0010
0001
0100
0010
0100
0010
1000
0001
0010
0001
,
0100
0001
0010
0001
0100
0010
0100
0010
1000
0100
0010
0001
0010
0100
1000
0001
,
1000
0001
0100
0001
0010
0001
0010
0001
1000
0100
1000
0010
1000
0001
0100
0001
,
1000
0100
1000
0001
1000
0010
0100
0001
0010
0100
0010
0100
1000
0001
0010
0001
,
1000
0000
0001
0000
1000
0010
1000
0000
0100
0000
1000
0000
0001
0010
0001
0000
,
1000
0000
0010
0000
0100
0001
0100
0000
0001
0000
0010
0000
0001
1000
0001
0000
;

//---------------dance-single - Gazebo----------------
#NOTES:
     dance-single:
     Gazebo:
     Medium:
     12:
     1.000,0.916,0.062,0.007,1.000,2015.000,18.000,2.000,0.000,0.000:
0001
0000
0000
0010
0000
0000
0001
0000
0000
0100
0000
0000
0001
0000
0000
1000
0100
0010
0001
0000
0000
0100
0000
0000
,
0010
1000
0001
1000
0100
1000
0001
1000
0010
0100
0001
0010
0100
0000
1000
0000
,
0001
0010
0001
1000
0001
0100
0001
1000
0001
0010
0100
1000
0010
0000
0100
0000
,
0001
1000
0010
1000
0001
1000
0100
1000
0001
0100
0001
0010
0100
0000
1000
0000
,
0001
0000
0000
0100
0000
0000
0001
0000
0000
0010
0000
0000
0001
0000
0000
1000
0010
0100
0001
0000
0000
0010
0000
0000
,
0100
1000
0001
1000
0010
1000
0001
1000
0100
0010
0001
0100
0010
0000
1000
0000
,
0001
0100
0001
1000
0001
0010
0001
1000
0001
0100
0010
1000
0100
0000
0010
0000
,
0001
1000
0100
1000
0001
1000
0010
1000
0001
0010
0100
1000
0001
0000
1000
0000
,
0001
0010
0001
0100
0001
1000
0010
1000
0001
0000
0000
0000
1000
0000
0001
0000
,
1000
0010
1000
0100
1000
0001
0010
0001
1000
0000
0000
0000
0001
0000
1000
0000
,
0001
0010
0001
0100
0001
1000
0010
1000
0001
0000
0000
0000
1000
0000
0001
0000
,
1000
0010
1000
0100
1000
0001
0010
0001
1000
0000
0000
0000
0001
0010
0100
0010
,
0001
0100
0001
0010
0001
1000
0100
1000
0001
0000
0000
0000
1000
0000
0001
0000
,
1000
0100
1000
0010
1000
0001
0100
0001
1000
0000
0000
0000
0001
0000
1000
0100
,
0010
0000
0001
0000
1000
0100
1000
0000
0010
0000
1000
0000
0001
0100
0001
0000
,
1000
0000
0100
0000
0010
0001
0010
0000
0001
0000
1000
0000
0010
0100
0010
0000
,
1000
0100
0010
0001
0100
0010
1000
0100
0010
0001
1000
0001
0100
0010
0100
0010
,
1000
0100
0010
0001
0100
0010
1000
0100
0010
0001
1000
0001
0100
0010
0100
0010
,
1000
0100
0010
0001
0100
0010
1000
0100
0010
0001
1000
0001
0100
0010
0100
0010
,
1000
0100
0010
0001
0100
0001
0010
0100
1000
0001
1000
0001
0100
0001
0010
0001
,
1000
0010
0100
0001
0010
0100
1000
0010
0100
0001
1000
0001
0010
0100
0010
0100
,
1000
0010
0100
0001
0010
0100
1000
0010
0100
0001
1000
0001
0010
0100
0010
0100
,
1000
0010
0100
0001
0010
0100
1000
0010
0100
0001
1000
0001
0010
0100
0010
0100
,
1000
0010
0100
0010
1000
0001
0010
0100
1000
0010
1000
0001
1000
0100
0010
0001
,
1000
0000
0010
0100
0010
0000
1000
0000
0001
0000
0000
0000
0000
0000
1000
0100
,
0010
0100
1000
0001
1000
0000
0000
0001
,
0100
0000
0010
0000
1000
0000
0001
0000
1000
0000
0000
0000
0000
0000
0001
0010
,
0100
0000
0010
0000
0001
0000
1000
0010
1000
0000
0000
0000
0000
0000
0001
0000
,
0100
0000
0001
0000
1000
0000
0100
0000
0010
0000
0000
0000
0000
0000
0001
1000
,
0010
0100
0010
0100
0001
0000
0000
1000
,
0100
0000
0010
0000
0001
1000
0001
0000
0100
0000
0000
0000
0000
0000
0010
0100
,
0001
0000
1000
0001
1000
0000
0100
0000
0010
0000
0000
0000
0000
0000
0001
1000
,
0001
0100
0001
1000
0010
1000
0100
1000
0001
0010
0100
1000
0010
1000
0001
0100
,
0001
0010
0001
1000
0100
1000
0010
1000
0001
0100
0010
1000
0100
0010
0100
0010
,
0001
0100
0001
1000
0010
1000
0100
1000
0001
0010
0100
1000
0010
1000
0001
0100
,
0001
0010
0001
1000
0100
1000
0010
1000
0001
0100
0010
1000
0100
0010
0001
1000
,
0001
0100
0001
1000
0010
1000
0100
1000
0001
0010
0100
1000
0010
1000
0001
0100
,
0001
0010
0001
1000
0100
1000
0010
1000
0001
0100
0010
1000
0100
0010
0100
1000
,
0001
0100
0001
1000
0010
1000
0100
1000
0001
0010
0100
1000
0010
1000
0001
0100
,
0001
0010
0001
1000
0100
1000
0010
1000
0001
0100
0010
1000
0100
1000
0001
0010
,
0001
0100
0001
1000
0010
1000
0100
1000
0001
0010
0100
1000
0010
1000
0001
0100
,
0001
0010
0001
1000
0100
1000
0010
1000
0001
0100
0010
1000
0100
1000
0010
1000
,
0001
0100
0001
1000
0010
1000
0100
1000
0001
0010
0100
1000
0010
1000
0001
0100
,
0001
0010
0001
1000
0100
1000
0010
1000
0001
0100
0010
1000
0100
0010
0001
1000
,
0001
0100
0001
1000
0010
1000
0100
1000
0001
0010
0100
1000
0010
1000
0001
0100
,
0001
0010
0001
1000
0100
1000
0010
1000
0001
0100
0010
1000
0100
0010
0100
1000
,
0001
0000
1000
0000
0001
0100
0001
0000
0010
0000
0001
0000
1000
0100
1000
0000
,
0001
0000
0100
0000
0010
1000
0010
0000
1000
0000
0001
0000
0001
0100
0001
0000
,
1000
0010
1000
0100
1000
0001
0010
0001
1000
0000
0000
0000
0001
0000
1000
0000
,
0001
0010
0001
0100
0001
1000
0010
1000
0001
0000
0000
0000
1000
0000
0001
0000
,
1000
0010
1000
0100
1000
0001
0010
0001
1000
0000
0000
0000
0001
0000
1000
0000
,
0001
0010
0001
0100
0001
1000
0010
1000
0001
0000
0000
0000
1000
0010
0100
0010
,
1000
0100
1000
0010
1000
0001
0100
0001
1000
0000
0000
0000
0001
0000
1000
0000
,
0001
0100
0001
0010
0001
1000
0100
1000
0001
0000
0000
0000
1000
0000
0001
0100
,
0010
0000
1000
0000
0001
0100
0001
0000
0010
0000
0001
0000
1000
0100
1000
0000
,
0001
0000
0100
0000
0010
1000
0010
0000
1000
0000
0001
0000
0010
0100
0010
0000
,
0001
0100
0010
1000
0100
0010
0001
0100
0010
1000
0001
1000
0100
0010
0100
0010
,
0001
0100
0010
1000
0100
0010
0001
0100
0010
1000
0001
1000
0100
0010
0100
0010
,
0001
0100
0010
1000
0100
0010
0001
0100
0010
1000
0001
1000
0100
0010
0100
0010
,
0001
0100
0010
1000
0100
1000
0010
0100
0001
1000
0001
1000
0100
1000
0010
1000
,
0001
0010
0100
1000
0010
0100
0001
0010
0100
1000
0001
1000
0010
0100
0010
0100
,
0001
0010
0100
1000
0010
0100
0001
0010
0100
1000
0001
1000
0010
0100
0010
0100
,
0001
0010
0100
1000
0010
0100
0001
0010
0100
1000
0001
1000
0010
0100
0010
0100
,
0001
0010
0100
0010
0001
1000
0010
0100
0001
0010
0001
1000
0001
0100
0010
1000
,
0001
0000
1000
0000
0100
0000
1000
0001
1000
0000
0010
0000
0110
0000
0000
0000
,
1000
0000
0000
0000
0000
0000
0001
0000
0000
0000
0000
0000
1000
0000
0000
0000
0000
0000
0100
0000
0000
0010
0000
0000
0001
0000
0000
0000
1000
0000
0000
0000
0001
0000
0000
0000
1000
0000
0000
0000
0010
0000
0000
0000
1000
0000
0000
0000
,
1001
0000
0001
0000
0100
0000
0010
1000
0010
0000
0000
0000
1010
0000
0000
0000
,
1000
0000
0000
0000
0000
0000
0001
0000
0000
0000
0000
0000
1000
0000
0000
0000
0000
0000
0100
0000
0000
0010
0000
0000
0001
0000
0000
0000
1000
0000
0000
0000
0001
0000
0000
0000
0100
0000
0000
0000
0010
0000
0000
0000
1000
0000
0000
0000
,
1001
0000
0001
0000
0010
0000
0001
1000
0001
0000
0100
0000
0110
0000
0000
0000
,
0001
0000
0000
0000
0000
0000
1000
0000
0000
0000
0000
0000
0001
0000
0000
0000
0000
0000
0010
0000
0000
0100
0000
0000
1000
0000
0000
0000
0001
0000
0000
0000
1000
0000
0000
0000
0001
0000
0000
0000
0100
0000
0000
0000
0000
0000
0000
0000
,
0010
0000
1000
0000
0001
0010
0001
0000
0100
0000
0001
0000
1000
0010
1000
0000
,
0001
0000
0010
0000
0100
1000
0100
0000
1000
0000
0001
0000
0100
0010
0100
0000
,
0000
0000
0000
1001
,
0010
0000
0000
1001
0000
0000
1000
0100
0010
0001
0100
0001
,
1001
0000
1000
0000
0100
0000
0010
0001
0010
0000
0001
0000
1001
0000
1000
0000
,
0001
0000
0000
0000
0000
0000
0100
0000
0000
0000
0000
0000
0110
0000
0000
0000
0000
0000
0010
0000
0000
1000
0000
0000
0001
0000
0000
0000
1000
0000
0000
0000
0001
0000
0000
0000
0010
0000
0000
0000
0100
0000
0000
0000
1000
0000
0000
0000
,
1001
0000
0001
0000
0100
0000
0001
1000
0001
0000
0010
0000
0110
0000
0000
0000
,
0001
0000
0000
0000
0000
0000
1000
0000
0000
0000
0000
0000
1001
0000
0000
0000
0000
0000
0001
0000
0000
0100
0000
0000
0010
0000
0000
0000
1000
0000
0000
0000
0001
0000
0000
0000
1000
0000
0000
0000
0100
0000
0000
0000
0010
0000
0000
0000
,
0001
0000
1000
0000
0001
0100
0001
0000
0010
0000
0001
0000
1000
0100
1000
0000
,
0001
0000
0100
0000
0010
1000
0010
0000
1000
0000
0001
0000
0010
0100
0010
0000
,
0001
1000
0100
1000
0001
1000
0010
0100
0001
1000
0010
1000
0001
0010
0100
1000
,
0001
0000
0000
1000
0000
0000
0010
0000
0000
1000
0000
0000
0001
0000
0000
1000
0000
0000
0100
0000
0000
0010
0000
0000
0001
0000
0000
0000
1000
0000
0000
0000
0001
0000
0000
0000
0100
0000
0000
0000
0001
0000
0000
0000
1000
0000
0000
0000
,
0001
1000
0100
1000
0001
1000
0010
0100
0001
1000
0010
1000
0001
0010
0100
1000
,
0001
0000
0000
1000
0000
0000
0010
0000
0000
1000
0000
0000
0001
0000
0000
1000
0000
0000
0100
0000
0000
0010
0000
0000
0001
0000
0000
0000
1000
0000
0000
0000
0001
0000
0000
0000
0100
0000
0000
0000
0001
0000
0000
0000
1000
0000
0000
0000
,
0001
1000
0100
1000
0001
1000
0010
0100
0001
1000
0010
1000
0001
0010
0100
1000
,
0001
0000
0000
1000
0000
0000
0010
0000
0000
1000
0000
0000
0001
0000
0000
1000
0000
0000
0100
0000
0000
0010
0000
0000
0001
0000
0000
0000
1000
0000
0000
0000
0010
0000
0000
0000
1000
0000
0000
0000
0001
0000
0000
0000
0000
0000
0000
0000
,
1000
0100
0010
0100
0010
0001
1000
0001
,
1000
0010
1000
0001
1000
0000
0010
0000
1000
0000
0001
0000
0010
0000
0100
0000
,
1000
0100
1000
0010
1000
0001
0100
0001
1000
0000
0000
0000
0001
0000
1000
0000
,
0001
0100
0001
0010
0001
1000
0100
1000
0001
0000
0000
0000
1000
0000
0001
0000
,
1000
0100
1000
0010
1000
0001
0100
0001
1000
0000
0000
0000
0001
0000
1000
0000
,
0001
0100
0001
0010
0001
1000
0100
1000
0001
0000
0000
0000
1000
0100
0010
0100
,
1000
0010
1000
0100
1000
0001
0010
0001
1000
0000
0000
0000
0001
0000
1000
0000
,
0001
0010
0001
0100
0001
1000
0010
1000
0001
0000
0000
0000
1000
0000
0001
0010
,
0100
0000
1000
0000
0001
0010
0001
0000
0100
0000
0001
0000
1000
0010
1000
0000
,
0001
0000
0010
0000
0100
1000
0100
0000
1000
0000
0001
0000
0100
0010
0100
0000
,
0001
0010
0100
1000
0010
0100
0001
0010
0100
1000
0001
1000
0010
0100
0010
0100
,
0001
0010
0100
1000
0010
0100
0001
0010
0100
1000
0001
1000
0010
0100
0010
0100
,
0001
0010
0100
1000
0010
0100
0001
0010
0100
1000
0001
1000
0010
0100
0010
0100
,
0001
0010
0100
1000
0010
1000
0100
0010
0001
1000
0001
1000
0010
1000
0100
1000
,
0001
0100
0010
1000
0100
0010
0001
0100
0010
1000
0001
1000
0100
0010
0100
0010
,
0001
0100
0010
1000
0100
0010
0001
0100
0010
1000
0001
1000
0100
0010
0100
0010
,
0001
0100
0010
1000
0100
0010
0001
0100
0010
1000
0001
1000
0100
0010
0100
0010
,
0001
0100
0010
0100
0001
1000
0100
0010
0001
0100
0001
1000
0001
0010
0100
1000
,
0001
0000
1000
0000
0010
0000
1000
0001
1000
0000
0100
0000
0110
0000
0000
0000
,
1000
0000
0000
0000
0000
0000
0001
0000
0000
0000
0000
0000
1000
0000
0000
0000
0000
0000
0010
0000
0000
0100
0000
0000
0001
0000
0000
0000
1000
0000
0000
0000
0001
0000
0000
0000
1000
0000
0000
0000
0100
0000
0000
0000
1000
0000
0000
0000
,
1001
0000
0001
0000
0010
0000
0100
1000
0100
0000
0000
0000
1100
0000
0000
0000
,
1000
0000
0000
0000
0000
0000
0001
0000
0000
0000
0000
0000
1000
0000
0000
0000
0000
0000
0010
0000
0000
0100
0000
0000
0001
0000
0000
0000
1000
0000
0000
0000
0001
0000
0000
0000
0010
0000
0000
0000
0100
0000
0000
0000
1000
0000
0000
0000
,
1001
0000
0001
0000
0100
0000
0001
1000
0001
0000
0010
0000
0110
0000
0000
0000
,
0001
0000
0000
0000
0000
0000
1000
0000
0000
0000
0000
0000
0001
0000
0000
0000
0000
0000
0100
0000
0000
0010
0000
0000
1000
0000
0000
0000
0001
0000
0000
0000
1000
0000
0000
0000
0001
0000
0000
0000
0010
0000
0000
0000
0000
0000
0000
0000
,
0100
0000
1000
0000
0001
0100
0001
0000
0010
0000
0001
0000
1000
0100
1000
0000
,
0001
0000
0100
0000
0010
1000
0010
0000
1000
0000
0001
0000
0010
0100
0010
0000
,
0001
1000
0010
1000
0001
1000
0100
0010
0001
1000
0100
1000
0001
0100
0010
1000
,
0001
1000
0100
1000
0001
1000
0010
0100
0001
0010
0001
0100
0010
1000
0100
1000
,
0001
0010
0100
1000
0001
1000
0010
0100
0001
1000
0010
1000
0001
0010
0100
1000
,
0001
1000
0010
1000
0001
1000
0100
0010
0001
0100
0001
0010
0100
1000
0010
1000
,
0001
0100
0010
1000
0001
1000
0100
0010
0001
1000
0100
1000
0001
0100
0010
1000
,
0001
1000
0100
1000
0001
1000
0010
0100
0001
0010
0001
0100
0010
1000
0100
1000
,
0001
0000
1000
0000
0001
0100
0001
0000
0010
0000
0001
0000
1000
0100
1000
0000
,
0001
0000
0100
0000
0010
1000
0010
0000
1000
0000
0001
0000
0010
0100
0010
0000
,
0001
1000
0010
1000
0001
0000
0000
1000
,
0100
1000
0001
0010
0001
0000
0000
1000
,
0010
0100
0001
1000
0001
0000
0000
1000
,
0100
0010
0001
0010
0002
0000
2003
0010
,
3010
0100
0001
1000
0001
0000
0000
0000
,
1000
0000
0100
0000
0010
0000
0001
0000
0010
0000
0000
0000
0000
0000
0001
0010
,
0001
0000
1000
0000
0001
0100
0001
0000
0010
0000
0001
0000
1000
0100
1000
0000
,
0001
0000
0100
0000
0010
1000
0010
0000
1000
0000
0001
0000
0010
0100
0010
0000
,
0001
0010
0001
0100
0001
1000
0010
1000
0001
0000
0000
0000
1000
0000
0001
0000
,
1000
0010
1000
0100
1000
0001
0010
0001
1000
0000
0000
0000
0001
0000
1000
0000
,
0001
0010
0001
0100
0001
1000
0010
1000
0001
0000
0000
0000
1000
0000
0001
0000
,
1000
0010
1000
0100
1000
0001
0010
0001
1000
0000
0000
0000
0001
0010
0100
0010
,
0001
0100
0001
0010
0001
1000
0100
1000
0001
0000
0000
0000
1000
0000
0001
0000
,
1000
0100
1000
0010
1000
0001
0100
0001
1000
0000
0000
0000
0001
0000
1000
0100
,
0010
0000
0001
0000
1000
0100
1000
0000
0010
0000
1000
0000
0001
0100
0001
0000
,
1000
0000
0100
0000
0010
0001
0010
0000
0001
0000
1000
0000
0010
0100
0010
0000
,
1000
0100
0010
0001
0100
0010
1000
0100
0010
0001
1000
0001
0100
0010
0100
0010
,
1000
0100
0010
0001
0100
0010
1000
0100
0010
0001
1000
0001
0100
0010
0100
0010
,
1000
0100
0010
0001
0100
0010
1000
0100
0010
0001
1000
0001
0100
0010
0100
0010
,
1000
0100
0010
0001
0100
0001
0010
0100
1000
0001
1000
0001
0100
0001
0010
0001
,
1000
0010
0100
0001
0010
0100
1000
0010
0100
0001
1000
0001
0010
0100
0010
0100
,
1000
0010
0100
0001
0010
0100
1000
0010
0100
0001
1000
0001
0010
0100
0010
0100
,
1000
0010
0100
0001
0010
0100
1000
0010
0100
0001
1000
0001
0010
0100
0010
0100
,
1000
0010
0100
0010
1000
0001
0010
0100
1000
0010
1000
0001
1000
0100
0010
0001
,
1000
0010
0100
0001
0010
0001
0010
0001
1000
0100
1000
0010
1000
0001
0100
0001
,
1000
0100
1000
0001
1000
0010
1000
0001
1000
0100
0010
0001
0100
0001
0100
0001
,
1000
0100
1000
0001
1000
0010
1000
0001
1000
0100
0010
0001
0100
0001
0100
0001
,
1000
0100
1000
0001
1000
0010
1000
0001
1000
0100
0010
0001
1000
0010
0100
0010
,
1000
0100
0010
0001
0100
0001
0100
0001
1000
0010
1000
0100
1000
0001
0010
0001
,
1000
0010
1000
0001
1000
0100
1000
0001
1000
0010
0100
0001
0010
0001
0010
0001
,
1000
0010
1000
0001
1000
0100
1000
0001
1000
0010
0100
0001
0010
0001
0010
0001
,
1000
0010
1000
0001
1000
0100
1000
0001
1000
0010
0100
0001
1000
0100
0010
0100
,
1000
0001
0010
0001
0100
0001
0100
0001
1000
0010
1000
0100
1000
0001
0010
0001
,
1000
0010
1000
0001
1000
0100
0010
0001
0100
0010
0100
0010
1000
0001
0100
0001
,
1000
0100
0010
0001
0100
0001
0010
0001
0100
0010
0100
0010
1000
0001
0010
0001
,
0100
0001
0010
0001
0100
0010
0100
0010
1000
0100
0010
0001
0010
0100
1000
0001
,
1000
0001
0100
0001
0010
0001
0010
0001
1000
0100
1000
0010
1000
0001
0100
0001
,
1000
0100
1000
0001
1000
0010
0100
0001
0010
0100
0010
0100
1000
0001
0010
0001
,
1000
0000
0001
0000
1000
0010
1000
0000
0100
0000
1000
0000
0001
0010
0001
0000
,
1000
0000
0010
0000
0100
0001
0100
0000
0001
0000
0010
0000
0001
1000
0001
0000
;
