#TITLE:Memoria Reborn;
#SUBTITLE:;
#ARTIST:Helblinde;
#TITLETRANSLIT:;
#SUBTITLETRANSLIT:;
#ARTISTTRANSLIT:;
#CREDIT:;
#BANNER:../banner.png;
#BACKGROUND:../bg.png;
#LYRICSPATH:;
#CDTITLE:;
#MUSIC:Memoria Reborn.ogg;
#OFFSET:1.036;
#SAMPLESTART:87.760;
#SAMPLELENGTH:20.600;
#SELECTABLE:YES;
#BPMS:0.000=200.000;
#STOPS:;
#BGCHANGES:;
// cache tags:
#FIRSTBEAT:4.000;
#LASTBEAT:468.000;
#SONGFILENAME:Songs/Cirque du Lykan/Memoria Reborn - [Zaia]/Memoria Reborn.sm;
#HASMUSIC:1;
#HASBANNER:1;
#MUSICLENGTH:139.546;
// end cache tags

//---------------dance-single - Zaia - 15(low-mid)----------------
#NOTES:
     dance-single:
     Zaia - 15(low-mid):
     Challenge:
     15:
     1.000,1.000,0.014,0.079,1.000,1247.000,2.000,11.000,0.000,0.000:
0000
0000
0000
0000
,
1000
0001
1000
0001
0100
0001
1000
0010
,
0100
0001
0100
0001
1000
0100
0010
0001
,
1000
0100
1000
0001
1000
0100
0010
0001
,
1000
0001
0100
0001
1000
0010
0100
0001
,
0010
0100
0010
0100
1000
0001
1000
0010
,
0100
0001
1000
0100
0010
0001
1000
0010
,
1000
0001
0010
0001
1000
0010
0100
0010
,
1000
0001
0010
0001
1000
0010
0000
0000
,
1000
0001
0100
0010
1000
0100
1000
0001
1000
0010
0100
0010
1000
0100
1000
0001
,
1000
0001
0100
0010
1000
0100
1000
0001
1000
0010
0100
0010
1000
0100
1000
0001
,
1000
0001
1000
0100
0010
0001
0100
0001
1000
0001
0010
0100
0010
0001
0100
0001
,
1000
0001
1000
0100
0010
0001
0100
0001
1000
0001
0010
0100
0010
0001
0100
0001
,
1000
0001
0010
0100
1000
0010
1000
0001
1000
0100
0010
0100
1000
0010
1000
0001
,
1000
0001
0010
0100
1000
0010
1000
0001
1000
0100
0010
0100
1000
0010
1000
0001
,
1000
0001
1000
0010
0100
0001
0010
0001
1000
0001
0100
0010
0100
0001
0010
0001
,
1000
0001
1000
0010
0100
0001
0010
0001
1000
0001
0100
0010
1000
0000
0000
0000
,
0001
0100
0010
1000
0001
0010
0100
1000
0100
0010
0001
1000
0001
0100
0010
0100
,
0001
1000
0001
1000
0100
0010
0100
1000
0001
1000
0010
0100
0001
0010
0100
1000
,
0100
1000
0001
1000
0010
0100
0001
1000
0001
0010
0001
1000
0010
1000
0001
0100
,
0010
1000
0001
0010
0100
0010
0001
1000
0010
0100
0001
1000
0010
1000
0001
1000
,
0100
0010
0100
1000
0001
0100
0010
1000
0010
0100
0001
1000
0001
0010
0100
0010
,
0001
1000
0001
1000
0010
0100
0010
1000
0001
1000
0100
0010
0001
0100
0010
1000
,
0010
1000
0001
1000
0100
0010
0001
1000
0001
0100
0001
1000
0100
1000
0001
0010
,
0200
0000
1300
0000
0001
1000
0010
1000
,
0001
0100
0001
1000
0100
0010
0001
0010
0100
1000
0001
1000
0010
0100
0010
1000
,
0001
1000
0001
0010
0100
0010
0001
1000
0001
0100
0010
1000
0100
0010
0001
0010
,
0001
1000
0001
0100
0010
1000
0001
1000
0100
1000
0001
0100
0001
1000
0010
0100
,
0001
1000
0100
0010
0100
1000
0001
0100
0010
1000
0001
0100
0001
1000
0001
0010
,
0100
0010
0001
1000
0010
0100
0001
0100
0010
1000
0001
1000
0100
0010
0100
1000
,
0001
1000
0001
0100
0010
0100
0001
1000
0001
0010
0100
1000
0010
0100
0001
0100
,
0001
1000
0001
0010
0100
1000
0001
1000
0010
1000
0001
0010
0001
1000
0100
0010
,
0001
1000
0010
0100
0010
1000
0001
0010
0100
1000
0001
0010
0001
1000
0001
0100
,
0010
1000
0001
1000
0100
0010
0100
1000
,
0001
0000
1000
0000
0010
0100
0001
0100
,
0010
0000
1000
0000
0001
0010
0100
1000
,
0001
0000
0100
0000
0010
1000
0100
1000
,
0001
0000
0100
0000
0001
0010
0100
1000
,
0001
0000
1000
0000
0100
1000
0010
1000
,
0001
0000
0000
0000
,
0000
0000
0000
0000
,
2000
0000
0010
0001
,
3100
0000
0000
0000
0000
0000
1000
0001
,
0200
0000
0000
0310
,
1000
0000
0010
0100
,
0002
0000
0000
1003
,
0100
0000
0010
0001
,
2000
0000
3010
0000
,
0100
0001
1000
0001
,
0020
0000
0000
0030
,
0100
0000
1000
0001
,
0020
0000
0000
0030
,
0001
0000
1000
0010
,
0200
0000
0000
0300
,
0001
0000
0000
1000
0000
0000
0000
0000
,
0020
0000
0000
0030
,
0100
0000
0001
0000
,
1001
0001
0010
0000
0001
1000
0000
0001
,
0100
0000
0010
1000
0000
0001
1000
0000
,
0100
0010
0100
0000
1000
0001
0000
1000
,
0010
0000
0100
0001
0000
0010
0100
0000
,
1000
0001
0010
0000
0100
1000
0000
0001
,
0010
0000
0001
1000
0000
0010
1000
0000
,
0001
0100
0010
0000
0100
0001
0000
0010
,
0100
0000
1000
0001
0000
1000
0100
0000
,
0010
0010
0001
1000
0001
0100
0001
1000
,
0001
0100
0010
0100
0001
1000
0100
0010
,
0100
0100
1000
0001
1000
0010
1000
0001
,
1000
0010
0100
0010
1000
0001
0010
0100
,
1000
1000
0001
0100
0010
1000
0001
0010
,
0001
1000
0001
0100
0010
1000
0010
0100
,
0001
0001
1000
0100
0010
0001
1000
0010
,
1000
0001
1000
0100
0010
0001
0010
0100
,
1000
0100
0010
0001
0100
0010
1000
0100
,
0010
0001
0010
0001
0010
0001
1000
0000
,
0001
0100
0001
0010
0100
1000
0001
0100
0001
0010
0100
1000
0001
0100
0001
0010
,
0100
1000
0001
0100
0001
0010
0100
1000
0001
0100
0001
0010
0100
1000
0001
1000
,
0001
0100
0010
1000
0100
1000
0001
0100
0010
1000
0100
1000
0001
0100
0010
1000
,
0100
1000
0001
0100
0010
1000
0100
1000
0001
0100
0010
1000
0001
1000
0001
1000
,
0100
1000
0010
0100
0001
1000
0100
1000
0010
0100
0001
1000
0100
1000
0010
0100
,
0001
1000
0100
1000
0010
0100
0001
1000
0100
1000
0010
0100
0001
1000
0001
1000
,
0100
0010
0001
0100
0001
1000
0100
0010
0001
0100
0001
1000
0100
0010
0001
0100
,
0001
1000
0000
0001
0000
1000
0000
0001
,
1000
0010
1000
0100
0010
0001
1000
0010
1000
0100
0010
0001
1000
0010
1000
0100
,
0010
0001
1000
0010
1000
0100
0010
0001
1000
0010
1000
0100
0010
0001
1000
0001
,
1000
0010
0100
0001
0010
0001
1000
0010
0100
0001
0010
0001
1000
0010
0100
0001
,
0010
0001
1000
0010
0100
0001
0010
0001
1000
0010
0100
0001
1000
0001
1000
0001
,
0010
0001
0100
0010
1000
0001
0010
0001
0100
0010
1000
0001
0010
0001
0100
0010
,
1000
0001
0010
0001
0100
0010
1000
0001
0010
0001
0100
0010
1000
0001
1000
0001
,
0010
0100
1000
0010
1000
0001
0010
0100
1000
0010
1000
0001
0010
0100
1000
0010
,
1000
0001
0010
0100
1000
0010
1000
0001
0010
0100
1000
0010
1000
0001
1000
0001
,
1000
0100
0010
0100
1000
0001
0010
0001
1000
0001
0100
0010
0100
0001
1000
0001
,
0010
0100
1000
0001
1000
0010
0100
0001
1000
0100
1000
0001
0010
0001
1000
0010
,
0100
0001
0010
0100
1000
0001
1000
0010
1000
0001
0010
0100
1000
0001
1000
0010
,
0100
0010
1000
0001
0100
0001
1000
0100
0010
0001
1000
0010
1000
0001
0010
0001
,
0100
0010
1000
0010
1000
0001
0100
0001
1000
0001
0010
0100
0010
0001
1000
0001
,
0100
0010
1000
0001
1000
0100
0010
0001
1000
0010
1000
0001
0100
0001
1000
0010
,
0100
0001
0010
0100
1000
0001
1000
0100
1000
0001
0100
0010
1000
0001
1000
0100
,
0010
0100
1000
0001
1000
0010
0100
0001
1000
0100
0010
0001
1000
0001
0100
0010
,
1000
0001
0010
0100
0010
0001
1000
0100
1000
0001
1000
0010
0100
0010
1000
0001
,
1000
0100
0010
0001
1000
0001
0100
0010
1000
0001
0010
0001
1000
0100
1000
0001
,
0100
0010
1000
0100
0010
0001
1000
0001
0100
0001
1000
0100
0010
0001
1000
0001
,
0100
0010
0100
0001
1000
0010
1000
0001
0010
0100
1000
0001
0100
0001
1000
0100
,
1000
0010
0100
0001
0100
0001
1000
0010
1000
0001
1000
0100
0010
0100
1000
0001
,
1000
0010
0100
0001
1000
0001
0010
0100
1000
0001
0100
0001
1000
0010
1000
0001
,
0100
0010
1000
0100
0010
0001
1000
0001
0010
0001
1000
0010
0100
0001
1000
0001
,
0010
0000
0000
0000
0100
1000
0100
1000
,
0001
1000
0010
0100
0001
0010
0001
1000
0001
0100
0010
0100
0001
0010
0001
1000
,
0001
1000
0010
0100
0001
0010
0001
1000
0001
0100
0010
0100
0001
0010
0001
1000
,
0001
1000
0001
0010
0100
1000
0010
1000
0001
1000
0100
0010
0100
1000
0010
1000
,
0001
1000
0001
0010
0100
1000
0010
1000
0001
1000
0100
0010
0100
1000
0010
1000
,
0001
1000
0100
0010
0001
0100
0001
1000
0001
0010
0100
0010
0001
0100
0001
1000
,
0001
1000
0100
0010
0001
0100
0001
1000
0001
0010
0100
0010
0001
0100
0001
1000
,
0001
1000
0001
0100
0010
1000
0100
1000
0001
1000
0010
0100
0010
1000
0100
1000
,
0001
1000
0001
0100
0010
1000
0100
1000
0001
1000
0010
0100
0001
0000
0000
0000
,
2002
0000
0000
0000
,
0000
0000
0000
0000
,
3003
0000
0000
0000
;

//---------------dance-single - Zaia - 13(mid-high)----------------
#NOTES:
     dance-single:
     Zaia - 13(mid-high):
     Hard:
     13:
     1.000,1.000,0.279,0.079,0.924,987.000,39.000,11.000,0.000,0.000:
0000
0000
0000
0000
,
1000
0001
1000
0001
0100
0001
1000
0010
,
0100
0001
0100
0001
1000
0100
0010
0001
,
1000
0100
1000
0001
1000
0100
0010
0001
,
1000
0001
0100
0001
1000
0010
0100
0001
,
0010
0100
0010
0100
1000
0001
1000
0010
,
0100
0001
1000
0100
0010
0001
1000
0010
,
1000
0001
0010
0001
1000
0010
0100
0010
,
1000
0001
0010
0001
1000
0010
0000
0000
,
1000
0001
0100
0010
1000
0100
1000
0001
1000
0010
0100
0010
1000
0100
1000
0001
,
1000
0001
0100
0010
1000
0100
1000
0001
1000
0010
0100
0010
1000
0100
1000
0001
,
1000
0001
1000
0100
0010
0001
0100
0001
1000
0001
0010
0100
0010
0001
0100
0001
,
1000
0001
1000
0100
0010
0001
0100
0001
1000
0001
0010
0100
0010
0001
0100
0001
,
1000
0001
0010
0100
1000
0010
1000
0001
1000
0100
0010
0100
1000
0010
1000
0001
,
1000
0001
0010
0100
1000
0010
1000
0001
1000
0100
0010
0100
1000
0010
1000
0001
,
1000
0001
1000
0010
0100
0001
0010
0001
1000
0001
0100
0010
0100
0001
0010
0001
,
1000
0010
0100
0001
0010
0001
1000
0000
,
1001
1001
1010
0101
,
0101
0000
0101
0000
0001
0010
0100
1000
,
1100
0110
0011
1100
,
1100
0000
0110
0000
1001
0001
0100
0010
,
1010
1010
0101
0110
,
0110
0000
0110
0000
1010
1000
0010
1000
,
1001
1100
0011
0110
,
0200
0000
1300
0000
0001
1000
0010
1000
,
1001
1001
1100
0011
,
0011
0000
0011
0000
0001
0100
0010
1000
,
1010
0110
0101
1010
,
1010
0000
0110
0000
1001
0001
0010
0100
,
1000
0000
0001
0000
1000
0000
0001
0000
1000
0010
0100
0001
1000
0000
0100
0000
,
0010
0000
0001
0000
0100
0000
0001
0000
1000
0100
0010
0100
1000
0000
0001
0000
,
1000
0001
1000
0100
0010
0001
1000
0001
0100
0001
1000
0100
1000
0001
0010
0100
,
1000
0001
0100
0010
0100
0001
1000
0100
0010
0001
1000
0100
1000
0001
1000
0010
,
0100
0001
1000
0001
0010
0100
0010
0001
,
1000
0000
0001
0000
0100
0010
1000
0010
,
0100
0000
0001
0000
1000
0100
0010
0001
,
1000
0000
0010
0000
0100
0001
0010
0001
,
1000
0000
0010
0000
1000
0100
0010
0001
,
1000
0000
0001
0000
0010
0001
0100
0001
,
1000
0000
0000
0000
,
0000
0000
0000
0000
,
0002
0000
0100
1000
,
0013
0000
0000
0000
0000
0000
0001
1000
,
0020
0000
0000
0130
,
0001
0000
0100
0010
,
2000
0000
0000
3001
,
0010
0000
0100
1000
,
0002
0000
0103
0000
,
0010
1000
0001
1000
,
0200
0000
0000
0300
,
0010
0000
0001
1000
,
0200
0000
0000
0300
,
1000
0000
0001
0100
,
0020
0000
0000
0030
,
1000
0000
0000
0001
0000
0000
0000
0000
,
0200
0000
0000
0300
,
0010
0000
1000
0000
,
1001
1000
0100
0000
1000
0001
0000
1000
,
0010
0000
0100
0001
0000
1000
0001
0000
,
0010
0100
0010
0000
0001
1000
0000
0001
,
0100
0000
0010
1000
0000
0100
0010
0000
,
0001
1000
0100
0000
0010
0001
0000
1000
,
0100
0000
1000
0001
0000
0100
0001
0000
,
1000
0010
0100
0000
0010
1000
0000
0100
,
0010
0000
0001
1000
0000
0001
0010
0000
,
0100
0100
1000
0001
1000
0010
1000
0001
,
1000
0010
0100
0010
1000
0001
0010
0100
,
0010
0010
0001
1000
0001
0100
0001
1000
,
0001
0100
0010
0100
0001
1000
0100
0010
,
0001
0001
1000
0010
0100
0001
1000
0100
,
1000
0001
1000
0010
0100
0001
0100
0010
,
1000
1000
0001
0010
0100
1000
0001
0100
,
0001
1000
0001
0010
0100
1000
0100
0010
,
0001
0010
0100
1000
0010
0100
0001
0010
,
0100
1000
0100
1000
0100
1000
0001
0000
,
1000
0010
1000
0100
0010
0001
1000
0010
1000
0100
0010
0001
1000
0010
1000
0100
,
0010
0001
1000
0010
1000
0100
0010
0001
1000
0010
1000
0100
0010
0001
1000
0001
,
1000
0010
0100
0001
0010
0001
1000
0010
0100
0001
0010
0001
1000
0010
0100
0001
,
0010
0001
1000
0010
0100
0001
0010
0001
1000
0010
0100
0001
1000
0001
1000
0001
,
0010
0001
0100
0010
1000
0001
0010
0001
0100
0010
1000
0001
0010
0001
0100
0010
,
1000
0001
0010
0001
0100
0010
1000
0001
0010
0001
0100
0010
1000
0001
1000
0001
,
0010
0100
1000
0010
1000
0001
0010
0100
1000
0010
1000
0001
0010
0100
1000
0010
,
1000
0001
0000
1000
0000
0001
0000
1000
,
0001
0100
0001
0010
0100
1000
0001
0100
0001
0010
0100
1000
0001
0100
0001
0010
,
0100
1000
0001
0100
0001
0010
0100
1000
0001
0100
0001
0010
0100
1000
0001
1000
,
0001
0100
0010
1000
0100
1000
0001
0100
0010
1000
0100
1000
0001
0100
0010
1000
,
0100
1000
0001
0100
0010
1000
0100
1000
0001
0100
0010
1000
0001
1000
0001
1000
,
0100
1000
0010
0100
0001
1000
0100
1000
0010
0100
0001
1000
0100
1000
0010
0100
,
0001
1000
0100
1000
0010
0100
0001
1000
0100
1000
0010
0100
0001
1000
0001
1000
,
0100
0010
0001
0100
0001
1000
0100
0010
0001
0100
0001
1000
0100
0010
0001
0100
,
0001
1000
0100
0010
0001
0100
0001
1000
0100
0010
0001
0100
0001
1000
0001
1000
,
0001
0010
0100
1000
0010
0100
0001
0010
,
0100
1000
0010
0100
0001
0010
0100
0010
,
0001
0100
0010
1000
0100
0010
0001
0100
,
0010
1000
0100
0010
0001
0100
0010
0100
,
0001
1000
0100
1000
0001
0100
0001
1000
,
0100
1000
0001
0100
0001
1000
0100
0010
,
0001
0100
0010
1000
0001
0010
0100
1000
,
0010
0100
0001
1000
0100
0010
0001
1000
,
0001
0100
0010
1000
0100
0010
0001
0100
,
0010
1000
0100
0010
0001
0100
0010
0100
,
0001
0010
0100
1000
0010
0100
0001
0010
,
0100
1000
0010
0100
0001
0010
0100
0010
,
0001
1000
0010
1000
0001
0010
0001
1000
,
0010
1000
0001
0010
0001
1000
0010
0100
,
0001
0010
0100
1000
0001
0100
0010
1000
,
0100
0000
0000
0000
0010
0100
1000
0001
,
0010
0001
0100
0010
1000
0100
1000
0001
1000
0010
0100
0010
1000
0100
1000
0001
,
1000
0001
0100
0010
1000
0100
1000
0001
1000
0010
0100
0010
1000
0100
1000
0001
,
1000
0001
1000
0100
0010
0001
0100
0001
1000
0001
0010
0100
0010
0001
0100
0001
,
1000
0001
1000
0100
0010
0001
0100
0001
1000
0001
0010
0100
0010
0001
0100
0001
,
1000
0001
0010
0100
1000
0010
1000
0001
1000
0100
0010
0100
1000
0010
1000
0001
,
1000
0001
0010
0100
1000
0010
1000
0001
1000
0100
0010
0100
1000
0010
1000
0001
,
1000
0001
1000
0010
0100
0001
0010
0001
1000
0001
0100
0010
0100
0001
0010
0001
,
1000
0001
1000
0010
0100
0001
0010
0001
1000
0001
0100
0010
1000
0000
0000
0000
,
2002
0000
0000
0000
,
0000
0000
0000
0000
,
3003
0000
0000
0000
;

//---------------dance-single - Zaia - 10(high) FS----------------
#NOTES:
     dance-single:
     Zaia - 10(high) FS:
     Medium:
     10:
     0.792,0.797,0.279,0.093,0.004,722.000,39.000,13.000,2.000,0.000:
0000
0000
0000
0000
,
1000
0001
1000
0001
0100
0001
1000
0010
,
0100
0001
0100
0001
1000
0100
0010
0001
,
1000
0100
1000
0001
1000
0100
0010
0001
,
1000
0001
0100
0001
1000
0010
0100
0001
,
0010
0100
0010
0100
1000
0001
1000
0010
,
0100
0001
1000
0100
0010
0001
1000
0010
,
1000
0001
0010
0001
1000
0010
0100
0010
,
1000
0001
0010
0001
1000
0010
0000
0000
,
1000
0010
0100
0001
1000
0100
1000
0001
,
0100
0001
1000
0100
0010
0001
1000
0010
,
0100
0001
1000
0001
1000
0010
0100
0001
,
0010
0001
1000
0001
0100
0010
1000
0001
,
1000
0100
1000
0010
0100
0001
1000
0100
,
0010
0100
1000
0001
0100
0010
0100
0001
,
1000
0001
0010
0100
1000
0001
0010
0001
,
1000
0010
0100
0001
0010
0001
1000
0000
,
1001
1001
1010
0101
,
0101
0000
0101
0000
0001
0010
0100
1000
,
1100
0110
0011
1100
,
1100
0000
0110
0000
1001
0001
0100
0010
,
1010
1010
0101
0110
,
0110
0000
0110
0000
1010
1000
0010
1000
,
1001
1100
0011
0110
,
0200
0000
1300
0000
0001
1000
0010
1000
,
1001
1001
1100
0011
,
0011
0000
0011
0000
0001
0100
0010
1000
,
1010
0110
0101
1010
,
1010
0000
0110
0000
1001
0001
0010
0100
,
1000
0001
1000
0001
1000
0001
1000
0100
,
0010
0001
0010
0001
1000
0010
1000
0001
,
1000
0100
0010
0001
0100
0010
1000
0100
,
0020
0000
0230
0000
,
0310
0001
1000
0001
0010
0100
0010
0001
,
1000
0000
0001
0000
0100
0010
1000
0010
,
0100
0000
0001
0000
1000
0100
0010
0001
,
1000
0000
0010
0000
0100
0001
0010
0001
,
1000
0000
0010
0000
1000
0100
0010
0001
,
1000
0000
0001
0000
0010
0001
0100
0001
,
1000
0000
0000
0000
,
0000
0000
0000
0000
,
0002
0000
0100
1000
,
0013
0000
0000
0000
0000
0000
0001
1000
,
0020
0000
0000
0130
,
0001
0000
0100
0010
,
2000
0000
0000
3001
,
0010
0000
0100
1000
,
0002
0000
0103
0000
,
0010
1000
0001
1000
,
0200
0000
0000
0300
,
0010
0000
0001
1000
,
0200
0000
0000
0300
,
1000
0000
0001
0100
,
0020
0000
0000
0030
,
1000
0000
0000
0001
0000
0000
0000
0000
,
0200
0000
0000
0300
,
0010
0000
1000
0000
,
1001
1000
0100
0000
1000
0001
0000
1000
,
0010
0000
0100
0001
0000
1000
0001
0000
,
0010
0100
0010
0000
0001
1000
0000
0001
,
0100
0000
0010
1000
0000
0100
0010
0000
,
0001
1000
0100
0000
0010
0001
0000
1000
,
0100
0000
1000
0001
0000
0100
0001
0000
,
1000
0010
0100
0000
0010
1000
0000
0100
,
0010
0000
0001
1000
0000
0001
0010
0000
,
0100
0100
1000
0001
1000
0010
1000
0001
,
1000
0010
0100
0010
1000
0001
0010
0100
,
0010
0010
0001
1000
0001
0100
0001
1000
,
0001
0100
0010
0100
0001
1000
0100
0010
,
0001
0001
1000
0010
0100
0001
1000
0100
,
1000
0001
1000
0010
0100
0001
0100
0010
,
1000
1000
0001
0010
0100
1000
0001
0100
,
0001
1000
0001
0010
0100
1000
0100
0010
,
0001
0010
0100
1000
0010
0100
0001
0010
,
0100
1000
0100
1000
0100
1000
0001
0000
,
1000
0000
0100
M00M
0100
0000
0001
0000
0100
0000
0100
0000
1000
0000
0100
0000
,
0100
0001
0100
0100
1000
0100
0100
0001
,
1000
0010
0010
0001
0010
0010
1000
0010
,
0010
0001
0010
0010
1000
0010
0010
0001
,
1000
0100
0100
0001
0010
0010
1000
0100
,
0100
0001
0010
0010
1000
0100
0100
0001
,
1000
0010
0010
0001
0100
0100
1000
0010
,
0010
0001
0000
1000
0000
0001
0000
1000
,
0001
0010
0010
1000
0010
0010
0001
0010
,
0010
1000
0010
0010
0001
0010
0010
1000
,
0001
0100
0100
1000
0100
0100
0001
0100
,
0100
1000
0100
0100
0001
0100
0100
1000
,
0001
0010
0010
1000
0100
0100
0001
0010
,
0010
1000
0100
0100
0001
0010
0010
1000
,
0001
0100
0100
1000
0010
0010
0001
0100
,
0100
0010
0100
0100
0001
0010
0010
1000
,
0001
0010
0100
1000
0010
0100
0001
0010
,
0100
1000
0010
0100
0001
0010
0100
0010
,
0001
0100
0010
1000
0100
0010
0001
0100
,
0010
1000
0100
0010
0001
0100
0010
0100
,
0001
1000
0100
1000
0001
0100
0001
1000
,
0100
1000
0001
0100
0001
1000
0100
0010
,
0001
0100
0010
1000
0001
0010
0100
1000
,
0010
0100
0001
1000
0100
0010
0001
1000
,
0001
0100
0010
1000
0100
0010
0001
0100
,
0010
1000
0100
0010
0001
0100
0010
0100
,
0001
0010
0100
1000
0010
0100
0001
0010
,
0100
1000
0010
0100
0001
0010
0100
0010
,
0001
1000
0010
1000
0001
0010
0001
1000
,
0010
1000
0001
0010
0001
1000
0010
0100
,
0001
0010
0100
1000
0001
0100
0010
1000
,
0100
0000
0000
0000
0010
0100
1000
0001
,
0010
0001
0100
0100
1000
0100
0100
0001
,
1000
0100
0100
0001
1000
0010
0010
0001
,
1000
0100
0100
0001
1000
0010
0010
0001
,
1000
0100
0100
0001
1000
0010
1000
0001
,
1000
0010
0010
0001
1000
0100
0100
0010
,
1000
0010
0010
0100
1000
0100
0100
0001
,
1000
0010
0010
0001
1000
0100
0100
0010
,
1000
0010
0010
0100
1000
0010
0000
0000
,
2002
0000
0000
0000
,
0000
0000
0000
0000
,
3003
0000
0000
0000
;
