#TITLE:Model DD5;
#SUBTITLE:;
#ARTIST:GF&DM;
#TITLETRANSLIT:;
#SUBTITLETRANSLIT:;
#ARTISTTRANSLIT:;
#CREDIT:;
#BANNER:Model DD5 Banner.bmp;
#BACKGROUND:Model DD5BG.jpg;
#LYRICSPATH:;
#CDTITLE:Baku2CD.bmp;
#MUSIC:[GUITARFREAKS 10thMIX & drummania 9thMIX] MODEL DD5.mp3;
#OFFSET:-0.320;
#SAMPLESTART:31.177;
#SAMPLELENGTH:12.000;
#SELECTABLE:YES;
#BPMS:0.000=300.000;
#STOPS:;
#BGCHANGES:;
// cache tags:
#FIRSTBEAT:8.000;
#LASTBEAT:504.000;
#SONGFILENAME:Songs/Beyond Legends/Model DD5/Model DD5.SM;
#HASMUSIC:1;
#HASBANNER:1;
#MUSICLENGTH:103.029;
// end cache tags

//---------------dance-single - ----------------
#NOTES:
     dance-single:
     :
     Hard:
     12:
     1.000,1.000,1.000,0.650,0.000,589.000,182.000,67.000,0.000,0.000:

0000
0000
0000
0000
,
0000
0000
0000
0000
,
1000
0100
1000
0100
0000
1000
0100
0010
,
0001
0100
0010
0100
0010
0002
0003
0000
,
1000
1000
0000
0002
0003
0000
0000
1000
,
1000
0000
0020
0030
0000
0000
0000
0000
,
0000
0000
0000
0000
1000
2100
0000
0000
,
3000
0000
0000
0000
0000
0000
1000
0100
,
1000
0100
0000
0110
0000
0110
0000
1001
,
0000
1000
0200
0300
0010
0010
0001
0001
,
0000
0110
0000
0011
0000
1001
0000
0100
,
0200
0300
0001
0001
0010
0100
0000
1100
,
0000
0110
0000
0011
0000
0100
0200
0300
,
1000
0100
1000
0100
0000
0110
0000
0011
,
0000
1001
0000
0100
0020
0030
1000
0100
,
0010
0001
0000
1100
0000
0011
0000
1100
,
0000
0011
0002
0003
0100
1000
0010
1000
,
0000
0110
0000
1100
0000
0101
0000
1010
,
0020
0030
1100
1000
1100
1000
0000
1100
,
0000
0101
0000
1100
0000
0100
0100
0000
,
0011
0001
0011
0001
0000
0110
0000
1100
,
0000
0110
0000
0110
0020
0030
1000
0110
,
0001
0110
0000
1100
0000
0110
0000
0011
,
0000
1100
0200
0300
0110
0012
0003
1100
,
2000
3000
1100
0120
0030
0011
0210
0000
,
0000
0300
1000
0100
1000
0100
0000
0011
,
0000
0110
0000
0011
0000
1100
0200
0300
,
0001
0010
0001
0010
0000
0011
0000
0110
,
0000
1100
0000
1001
2002
3003
1100
0000
,
1100
0100
0000
0110
0000
1100
0000
0110
,
0000
0021
0030
0000
0100
0000
0110
0020
,
0030
2100
0000
0010
0000
0001
3000
0002
,
0003
0000
1100
0000
1010
0100
0000
0110
,
0000
0110
0000
0110
0000
2100
3000
0000
,
0110
0000
1100
0001
0000
1100
0000
0100
,
0000
0010
0000
0001
0002
0003
1000
0100
,
1000
0100
0000
0011
0000
1000
0000
0100
,
0000
0001
0010
0000
1000
0010
1000
0001
,
0000
1100
0000
0110
0000
1100
0000
0110
,
0020
0030
1000
0100
1000
0100
0000
0110
,
0000
1100
0000
0011
0000
1010
0020
0030
,
1000
0100
0010
0001
0000
0011
0000
0011
,
0000
1100
0000
1100
0200
0300
1001
0001
,
1001
0001
0000
1010
0000
1100
0000
1010
,
0000
0110
0021
0030
0011
0210
0300
1100
,
0210
0300
0011
0210
0300
1100
0210
0000
,
0300
0000
0011
0010
0100
1100
0000
0110
,
0000
0011
0000
0001
0000
0011
0002
0003
,
0101
0010
0101
0010
0000
1100
0000
0100
,
0000
0110
0000
1100
2000
0000
3000
0020
,
0030
1000
0100
1000
0000
0100
1000
0100
,
0000
0010
0010
0010
0000
0100
1000
0001
,
0000
1000
0100
0010
0000
0001
0010
0100
,
0000
1000
0100
0010
0000
0001
0010
0100
,
0000
0100
0100
0100
0000
0010
0010
0010
,
0000
1100
0000
0110
0000
1100
0000
0011
,
0000
0100
0010
0010
0000
1000
0100
0010
,
0000
0001
0010
0100
0000
0100
0010
0001
,
0000
0010
0100
1000
0000
0100
0010
1000
,
0000
0010
0001
0010
0000
0100
1000
0100
,
0000
1100
0000
0110
0000
1100
0000
0120
,
0030
1000
0000
0100
0000
0010
0000
0010
,
0000
0001
0000
0010
0001
0010
0000
0100
,
1000
0100
0000
0010
0001
0000
2100
0000
,
3000
0010
0100
0010
0100
1000
0100
0020
,
0030
0000
0010
0100
0010
0200
0300
0000
,
1000
0100
1000
0200
0300
0000
0001
0010
,
0001
0200
0300
0000
1000
0100
0010
2000
,
3000
0001
1001
0001
,
0010
0010
0100
0001
,
1000
0000
0010
0000
0100
0100
1000
0100
,
0020
0030
1000
0100
1000
0010
0002
0003
,
1000
1000
1000
0100
0020
0030
0010
0001
,
0100
0110
0002
0003
0010
0100
1000
0100
,
2000
3000
0010
0100
0010
0100
0020
0030
,
1100
0110
0011
1100
,
0011
0001
0101
0000
1100
0000
0110
0000
,
1100
0011
0110
0000
0110
0000
1010
0000
,
0011
0001
0001
0000
0100
0000
1000
0000
,
0010
0100
0010
0000
1000
0000
0100
0000
,
0010
0001
0001
0000
0001
0000
0010
0000
,
0100
1000
0100
0000
0001
0010
0001
0000
,
0100
1000
0100
0000
0100
0010
1000
0000
,
0010
0001
0100
0100
0100
0010
1000
0010
,
0200
0000
0000
0300
0001
1000
0001
0000
,
0011
0000
0011
0000
0100
1000
0100
0000
,
0110
0000
0110
0000
1000
0100
0001
0000
,
0110
0000
0011
0000
1000
0010
0100
0010
,
0100
0100
1000
0100
0010
0001
0100
0010
,
1000
0010
0010
0100
1000
0100
0010
0100
,
1000
1000
0010
0010
0100
1000
0100
0010
,
0100
0010
1000
0010
0010
0100
2000
0000
,
0000
0000
0000
0000
,
3000
0000
0000
0000
,
0000
0000
0000
0000
,
0000
0000
0000
0000
,
0000
0000
0000
0000
,
0000
0000
0000
0000
0000
0100
1001
0100
,
1000
0110
0011
1001
,
0001
0001
0000
1100
1000
0100
0010
0000
,
0110
0000
1100
0000
0011
0000
0011
1000
,
0000
1000
0100
0010
0110
0000
1000
0000
,
1100
0000
0110
0000
0011
0001
0000
1000
,
0001
1000
0020
0030
0110
0000
1100
0000
,
1001
0000
1010
0200
0300
1000
0001
1000
,
0001
0010
0100
0010
,
0100
0020
0030
1000
0001
1000
0001
0000
,
0010
0000
0100
0000
0100
0000
1000
1000
,
0000
1000
0100
0100
0010
0000
0011
0000
,
0110
0000
1100
0000
0110
0020
0030
1000
,
0100
1100
0110
0000
0001
0000
0010
0000
,
0100
0000
0100
2000
3000
0010
0100
0010
,
0100
0110
1100
0110
,
0011
0010
0000
1100
0100
0000
0110
0100
,
0000
1100
0100
0000
0011
0020
0030
0000
,
1100
1000
0000
0110
0100
0000
0000
0101
,
0100
0000
1001
0002
0000
0000
0000
0000
,
0003
0000
0000
0000
,
0000
0000
0000
0000
,
1000
0100
1000
0200
0300
1000
1000
0100
,
0100
0100
0010
0001
0010
0001
0000
0000
,
0000
1100
1100
0000
2002
3003
0000
1001
,
1001
0000
2002
3003
0000
0000
0000
0000
,
0000
0000
0000
0000
0000
0010
2000
0000
,
0000
0000
0000
3000
0000
0000
0000
1000
,
0001
0200
0300
0000
2200
0000
0000
0000
,
3300
0000
0000
0000
,;
