#TITLE:California Gurls;
#SUBTITLE:~Speedy Mix~;
#ARTIST:Katy Perry;
#TITLETRANSLIT:;
#SUBTITLETRANSLIT:;
#ARTISTTRANSLIT:;
#CREDIT:;
#BANNER:../fallback - bn.png;
#BACKGROUND:../fallback - bg.png;
#LYRICSPATH:;
#CDTITLE:;
#MUSIC:California Gurls.ogg;
#OFFSET:0.000;
#SAMPLESTART:45.158;
#SAMPLELENGTH:12.000;
#SELECTABLE:YES;
#BPMS:0.000=150.000;
#STOPS:;
#BGCHANGES:;
// cache tags:
#FIRSTBEAT:17.000;
#LASTBEAT:388.500;
#SONGFILENAME:Songs/Beast Aoreo BEAST!/California Gurls - [Aoreo]/California.sm;
#HASMUSIC:1;
#HASBANNER:1;
#MUSICLENGTH:155.660;
// end cache tags

//---------------dance-single - J. Nero----------------
#NOTES:
     dance-single:
     J. Nero:
     Challenge:
     11:
     0.866,0.967,0.572,0.231,0.729,809.000,89.000,36.000,2.000,4.000:
0000
0000
0000
0000
,
0000
0000
0000
0000
,
0000
0000
0000
0000
,
0000
0000
0000
0000
,
0000
0000
0000
0000
2002
0000
3003
0000
0101
0000
0000
0100
0000
0010
1000
0000
,
0100
0000
1000
0000
0001
0000
0000
0000
1000
0000
0000
0010
0100
0000
0001
0000
,
0011
0010
0100
1000
0010
0100
0002
0000
,
1003
0000
0000
0000
1010
0000
0000
0000
0010
0000
0000
0100
0000
0000
0001
0000
,
0010
0000
0100
1000
0200
0300
0000
0000
1001
0000
0000
0100
0000
0000
0010
0000
,
0100
0000
0001
0000
0010
0000
0000
0000
1100
0000
0000
1000
0000
0000
0010
0000
,
0100
0001
1000
0100
0001
0100
2000
0000
,
3010
0000
0000
0000
0110
0000
0000
0000
0100
0000
0000
0001
0010
0100
1000
0000
,
0100
0000
1000
0000
1010
0000
0000
0000
0110
0000
0000
0100
0001
0000
0020
0030
,
0100
0000
1000
0000
1001
0000
0000
0000
0101
0000
0000
0100
0010
0000
2000
3000
,
0010
0000
0200
0300
0001
0000
0000
0000
0011
0000
0000
0010
0100
0000
2000
3000
,
0010
0000
0000
0000
0101
0000
0000
0000
0100
0000
0000
0010
1000
0000
0100
0000
,
0001
0100
2000
3020
0030
0000
0000
0100
,
0100
0000
0100
0000
0001
0000
0000
0000
0101
0000
0000
0100
0010
0000
2000
3000
,
0010
0000
0200
0300
0001
0000
0000
0000
0011
0000
0000
0010
0100
0000
2000
3000
,
0010
0000
0000
0000
1001
0000
0000
0000
1010
0000
0000
0010
0100
0001
1000
0000
,
0100
1000
1010
0010
0101
0100
0001
0010
,
1100
1000
0010
0100
0101
0001
1000
0010
,
0110
0100
0001
1000
0100
0000
1000
0000
,
0010
0100
0002
0000
0023
0000
0430
0000
,
0000
0300
1100
1000
1001
0001
0100
0010
,
1010
1000
0100
0010
0011
0001
0100
0010
,
0110
0100
0001
1000
1010
0010
0100
0001
,
1001
0000
0000
0000
0101
0000
0000
0000
1001
0000
0000
1000
0010
0100
0001
0000
,
1000
0000
0001
0000
1000
0001
0010
0100
1000
0100
0010
0001
0010
0100
1000
0010
,
0100
0001
1000
0001
1000
0010
0100
0001
1000
0100
0010
0001
0100
0010
1000
0100
,
1000
0010
0100
1001
,
0001
0020
0000
0130
1000
0000
1111
0000
,
0001
0000
0100
0000
0010
1000
0010
0100
0001
1000
0001
1000
0001
0010
0100
1000
,
0100
0010
0001
0100
0010
0100
0001
1000
0100
0010
0001
0010
0100
1000
0010
0100
,
0001
0000
0000
0000
0000
0000
1001
0000
0000
1000
0100
1000
0100
0000
0000
1000
0001
1000
0001
0000
0000
1000
0000
0000
,
0010
0000
0000
0000
0000
0000
0100
0000
0000
0000
0000
0000
0101
0000
0000
0000
0000
0000
0001
0000
0100
0000
0001
0000
0100
0000
0000
0000
0000
0000
0010
0000
1000
0000
0010
0000
1000
0000
0000
0010
0000
0000
1000
0000
0000
0100
0000
0000
,
0010
0000
0001
0000
0100
0001
0010
0100
1000
0100
0010
0001
0100
0010
1000
0001
,
0100
0010
1000
0001
0010
0100
1000
0001
1000
0001
0100
0010
0100
0001
0010
0100
,
1000
0001
0100
1010
,
0010
0200
0000
0301
1000
0000
1111
0000
,
0001
0000
1000
0000
0010
1000
0010
0100
0001
0100
0001
0010
0100
1000
0100
1000
,
0010
0100
0001
0100
0010
1000
0100
1000
0001
1000
0010
0100
0001
1000
0100
1000
,
0010
0000
0000
0000
0000
0000
1010
0000
0000
1000
0010
1000
0010
0000
0000
0100
0001
0100
0001
0000
0000
0010
0000
0000
,
0100
0000
0000
0000
0000
0000
1000
0000
0000
0000
0000
0000
1001
0000
0000
0000
0000
0000
0001
0000
0100
0000
0001
0000
0100
0000
0000
0000
0000
0000
0010
0000
1000
0000
0010
0000
1000
0000
0000
0010
0000
0000
0100
0000
0000
0001
0000
0000
,
1000
0000
0001
0000
0101
0000
0000
0000
0110
0000
0000
0010
1000
0000
0200
0300
,
0010
0000
0000
0000
0011
0000
0000
0000
0101
0000
0000
0100
0010
0000
2000
3000
,
0010
0000
0200
0300
0001
0000
0010
0000
0100
0000
1000
0000
0020
0000
0000
0000
,
0130
0000
0000
0000
0101
0000
0000
0000
0001
0000
0000
1000
0000
0000
0010
0000
,
0100
0000
0001
0000
0040
0000
0000
0000
0130
0000
1000
0010
0000
0010
0100
0000
,
0101
0000
0000
0000
1001
0000
0000
0000
1000
0000
0010
0100
0000
0001
0020
0030
,
0100
0000
2000
3000
0010
0000
0000
0000
0110
0000
0000
0100
0001
0000
1000
0000
,
0200
0000
0300
0000
1100
0000
0000
0000
1010
0000
0000
0010
0100
0001
0010
0000
,
0110
0100
1000
0010
0101
0100
0001
1000
,
1100
0010
0001
0100
0110
0010
1000
0001
,
0011
0010
0100
1000
0010
0000
0100
0000
,
0001
1000
0200
0000
2300
0000
3040
0000
,
0000
0030
0110
0100
0101
0001
1000
0100
,
0011
0010
0100
1000
1010
0001
0100
0010
,
1100
1000
0001
0100
0011
0010
0100
1000
,
1010
0000
0010
0000
0110
0000
0000
0000
0101
0000
0000
0001
1000
0010
0100
0000
,
0001
0000
1000
0000
0010
1000
0010
0100
0001
1000
0001
0010
0100
1000
0100
0010
,
0001
1000
0010
0100
0001
1000
0100
0010
0001
1000
0001
0100
0001
0010
0100
1000
,
0100
1000
0010
0100
0001
0000
0000
0000
0100
0000
0000
0000
1010
0000
0000
0000
,
1000
0002
0000
0103
0010
0000
1111
0000
,
0100
0000
0001
0000
1000
0100
1000
0010
0100
0001
0010
0100
1000
0100
1000
0001
,
0100
0001
0100
0010
1000
0010
0100
0001
1000
0001
0010
0100
1000
0010
0100
0001
,
1000
0000
0000
0000
0000
0000
1001
0000
0000
1000
0001
1000
0001
0000
0000
1000
0100
1000
0100
0000
0000
1000
0000
0000
,
0010
0000
0000
0000
0000
0000
0100
0000
0000
0000
0000
0000
0110
0000
0000
0000
0000
0000
0010
0000
1000
0000
0010
0000
1000
0000
0000
0000
0000
0000
0001
0000
1000
0000
0001
0000
1000
0000
0000
0001
0000
0000
1000
0000
0000
0010
0000
0000
,
0100
0000
0001
0000
1000
0010
0100
0001
0010
0100
1000
0010
0100
0001
1000
0100
,
1000
0010
0100
0010
0100
0001
0100
0001
0010
0100
0010
0100
1000
0100
1000
0001
,
0100
0010
0100
0001
1000
0000
0000
0000
0010
0000
0000
0000
0101
0000
0000
0000
,
1000
0020
0000
0130
0001
0000
1111
0000
,
1000
0000
0010
0000
0100
0001
0010
0100
1000
0010
0100
0001
1000
0100
0010
0001
,
0010
0100
1000
0010
0100
0001
1000
0010
0100
0001
0100
0010
1000
0001
0100
0010
,
1000
0000
0000
0000
0000
0000
1100
0000
0000
0100
1000
0100
1000
0000
0000
0001
1000
0001
1000
0000
0000
0001
0000
0000
,
0100
0000
0000
0000
0000
0000
0010
0000
0000
0000
0000
0000
1010
0000
0000
0000
0000
0000
1000
0000
0001
0000
1000
0000
0001
0000
0000
0000
0000
0000
0100
0000
0010
0000
1000
0000
0001
0000
0000
0010
0000
0000
0100
0000
0000
1000
0000
0000
,
0010
0000
0100
0000
0001
0000
0000
0000
1000
0000
0000
0000
0010
0000
0000
0100
,
0001
1000
0000
0000
0000
0000
0100
1000
0100
0000
1000
0000
0010
0000
0100
0000
,
0001
1000
1010
0000
0110
0000
0101
0000
,
1001
0000
0000
0000
1000
0001
0000
1000
0100
0000
1000
0100
0000
0100
0010
0000
,
0001
0010
0100
1000
0010
0000
0100
0010
0000
0100
0001
1000
0100
0000
1000
0000
,
0010
0000
0100
0100
0001
0001
1000
1000
,
1001
0000
0000
0000
M1M1
0000
0000
0000
0000
0000
0000
0001
1000
0000
0100
1000
,
0000
0010
0100
0000
0001
1000
0000
0000
0100
0000
0000
1000
0000
0000
0020
0030
,
0100
0000
0002
0003
0010
0000
0100
0000
1000
0000
0010
0100
0000
0100
0001
0000
,
1000
0000
0010
0000
0100
0000
0001
0000
1000
0000
0100
1000
0000
1000
0010
0000
,
0100
0000
0000
0000
0101
0000
0000
0000
0000
0000
0000
1000
0000
0000
0010
0000
,
0000
0000
0000
0000
0101
0000
0000
0000
1001
0000
0000
1000
0100
0010
0001
0000
,
0010
0000
0100
0000
1100
0000
0000
1010
0000
0000
0000
0000
0001
0100
0001
0000
,
1000
0000
0000
0000
1001
0000
1001
0000
1001
0000
0000
0000
0110
0000
0010
0100
,
0000
0100
0001
0000
1000
0000
0001
0000
0010
0000
0100
1000
0000
1000
0010
0000
,
0100
0000
0001
0000
0010
0000
0100
0000
1000
0000
0100
0010
0000
0010
0100
0000
,
1000
0000
0010
0000
0100
0000
0001
0000
1000
0000
0010
0100
0000
0100
0001
0000
,
2000
0000
3010
0000
0100
0000
0001
0000
0010
0000
0100
1000
0000
1000
0010
0000
,
0100
0000
0002
0000
2003
0000
3010
0000
0100
0000
0001
0010
0000
0100
1000
0000
,
0010
0000
0100
0000
0110
0000
0000
0000
1001
0000
0000
0001
0100
0010
1000
0000
,
0100
1000
0020
0000
0000
0200
0000
0000
,
0000
0330
0000
0000
0000
0000
0000
0000
;
