#TITLE:M.A.M.A.;
#SUBTITLE:;
#ARTIST:DJ Sharpnel;
#TITLETRANSLIT:;
#SUBTITLETRANSLIT:;
#ARTISTTRANSLIT:;
#CREDIT:;
#BANNER:MAMA-bn.png;
#BACKGROUND:M.jpg;
#LYRICSPATH:;
#CDTITLE:!asshat-cdtitle2.png;
#MUSIC:DJ Sharpnel - Rave Spector - 08 - M.A.M.A..mp3;
#OFFSET:-3.620;
#SAMPLESTART:34.286;
#SAMPLELENGTH:11.900;
#SELECTABLE:YES;
#BPMS:0.000=175.000;
#STOPS:;
#BGCHANGES:;
// cache tags:
#FIRSTBEAT:0.000;
#LASTBEAT:399.000;
#SONGFILENAME:Songs/cedric step/(Asshat) M.A.M.A (released)/M.A.M.A..sm;
#HASMUSIC:1;
#HASBANNER:1;
#MUSICLENGTH:143.098;
// end cache tags

//---------------dance-single - (Released Steps)----------------
#NOTES:
     dance-single:
     (Released Steps):
     Hard:
     12:
     1.000,1.000,0.922,0.014,1.000,1192.000,132.000,2.000,0.000,0.000:
0001
0010
0100
0010
0001
0010
0001
0010
0100
1000
0100
0010
0001
0100
0010
1000
,
0010
0100
0001
0010
0001
0100
0010
0100
0010
1000
0010
0100
0001
0010
0100
0010
,
0001
0010
0001
0010
0100
1000
0010
0100
0010
1000
0010
0100
0001
0100
0010
0100
,
0001
1000
0010
0100
0010
1000
0010
0100
0001
0100
0010
0100
0010
1000
0100
0010
,
1001
0000
0000
0000
0010
0000
0000
0000
0100
0000
0000
1000
0100
0000
0010
0000
,
0001
0000
1000
0000
0100
0000
0001
0010
,
1001
0000
0000
0000
0100
0000
0000
0000
0001
0000
0000
0010
0100
0000
1000
0000
,
0101
0000
0010
0000
0001
0000
0100
0010
,
0001
1010
0100
1001
0010
0101
1000
0110
,
0001
1100
0001
1010
0100
0011
1000
0110
,
1000
0011
1000
0110
0001
1100
0010
1001
,
0010
1100
0001
1010
0100
0011
1000
0101
,
0110
1001
0011
1100
0101
0110
1010
0101
,
0110
1010
1100
1001
1010
0101
0110
0011
,
1001
0100
0010
0100
0001
0010
0100
0010
0001
1000
0010
0100
0010
1000
0001
0100
,
0010
0000
0000
0000
0000
0000
0000
0000
1000
0000
0000
0000
0000
0000
0000
0000
0001
0000
0000
0000
0000
0000
0000
0000
0100
0000
0000
0000
0000
0000
0000
0000
0010
0000
0000
0000
0000
0000
0000
0000
1000
0000
0000
0000
0000
0000
0000
0000
0100
0000
0000
0000
0000
0000
0000
0000
0010
0000
0000
0000
0000
0000
0000
0000
0001
0000
0000
0000
0000
0000
0000
0000
0010
0000
0000
0000
0000
0000
0000
0000
0100
0000
0000
0000
0000
0000
0000
0000
0010
0000
0000
0000
0000
0000
0000
0000
0001
0000
0000
0000
0000
0000
1000
0000
0000
0000
0000
0000
0001
0000
0000
0000
0000
0000
1000
0000
0000
0000
0000
0000
0001
0000
0000
0000
0000
0000
1000
0000
0000
0000
0000
0000
0001
0000
0000
0000
0000
0000
1000
0000
0000
0000
0000
0000
0001
0000
0000
0000
0000
0000
1000
0000
0000
0000
0000
0000
0001
0000
0000
0000
0000
0000
1000
0000
0000
0000
0000
0000
0001
0000
0000
0000
0000
0000
1000
0000
0000
0000
0000
0000
0001
0000
0000
0000
0000
0000
1000
0000
0000
0000
0000
0000
,
0001
1010
0100
1100
0001
0110
1000
0011
,
0100
1010
0100
1001
0010
0101
1001
0011
,
0110
1010
0100
1001
0010
0101
1000
0110
,
0001
0010
0100
0000
0001
0000
0110
0000
1000
0000
0101
0000
0010
0000
0011
0000
,
0001
1000
0010
0000
0100
0000
1001
0000
0100
0000
0011
0000
1000
0000
0110
0000
,
0001
1010
0100
1010
0001
1010
0100
0011
,
0100
1010
0001
0101
0010
1001
0010
1010
,
0100
0000
0000
0000
0001
0000
1000
0000
0001
0010
0100
0000
1000
0100
0010
0000
,
1000
0101
0010
1100
0001
1010
0100
0011
,
1000
0110
1000
0101
0010
1001
0100
0011
,
0001
0110
1000
0101
0010
1001
0100
1010
,
0001
0000
1010
0000
0100
0000
0011
0000
1000
0000
0001
0100
0010
0000
1100
0000
,
0001
0110
0001
1010
0100
1001
0010
1100
,
1000
0110
0001
1010
0100
1001
0010
0101
,
0010
0101
0010
1100
0001
1010
0100
1001
,
1000
0101
0010
1100
0001
1010
0100
0011
,
1000
0000
0001
0000
1000
0010
0000
1000
0000
0001
0100
0010
1000
0000
0001
0000
,
1000
0000
0001
0000
0001
0010
0000
0010
0000
0001
0010
0100
1000
0000
1000
0000
,
0001
0000
0100
0000
0010
0100
0000
0001
0000
1000
0010
0100
0001
0000
0010
0000
,
0001
0000
0001
0000
0100
0100
0000
1000
0000
1000
0100
0010
0001
0000
0001
0000
,
0001
0000
1000
0000
0001
0100
0000
0001
0000
1000
0010
0100
0001
0000
1000
0000
,
0001
0000
1000
0000
1000
0100
0000
0100
0000
1000
0100
0010
0001
0000
0001
0000
,
1000
0000
0010
0000
0100
0010
0000
1000
0000
0001
0100
0010
1000
0000
0100
0000
,
1000
0000
1000
0000
0010
0010
0000
0100
0000
0100
0001
0010
1000
0000
1000
0000
,
0001
0000
0010
0000
0100
0000
0010
0000
0001
0010
0100
1000
0100
0010
0001
0010
,
0100
0000
0010
0000
0001
0000
0010
0000
0100
0001
1000
0010
0100
0001
1000
0010
,
0100
0000
0010
0000
1000
0000
0100
0000
0010
0001
0010
0001
1000
0100
1000
0100
,
0010
0000
0001
0000
0100
0000
1000
0000
0100
1000
0010
0100
0001
0010
0100
0010
,
0001
0000
0100
0000
0010
0000
0100
0000
1000
0100
0010
0001
0010
0100
1000
0100
,
0010
0000
0100
0000
1000
0000
0100
0000
0010
0001
1000
0100
1000
0001
0010
0100
,
1000
0000
0100
0000
1000
0000
0010
0000
0100
0001
0100
0001
0010
0100
0010
0100
,
0010
0000
0100
0000
0010
0000
0001
0000
0010
0001
0100
0010
1000
0100
0010
0100
,
1000
0000
0100
0000
0010
0000
0100
0000
1000
0100
0010
0001
0010
0100
1000
0100
,
0010
0000
0100
0000
1000
0000
0100
0000
0010
0001
1000
0010
0100
0001
1000
0010
,
0100
0000
1000
0000
0001
0000
0010
0000
0100
1000
0100
1000
0001
0010
0001
0010
,
0100
0000
1000
0000
0010
0000
0001
0000
0010
0001
0100
0010
1000
0100
0010
0100
,
1000
0000
0010
0000
0100
0000
0010
0000
0001
0010
0100
1000
0100
0010
0001
0010
,
0001
0000
0010
0000
0001
0000
0010
0000
0100
1000
0001
0010
0001
1000
0100
0010
,
0001
0000
0010
0000
0001
0000
0100
0000
0010
1000
0010
1000
0100
0010
0100
0010
,
0001
0000
0010
0000
0100
0000
1000
0000
0100
1000
0010
0100
0001
0010
0100
0010
,
0100
0000
0001
0000
1000
0000
0001
0000
0100
0001
1000
0010
1000
0001
0100
0001
,
1000
0000
0001
0000
0100
0000
0001
0000
1000
0100
0010
0001
1000
0100
0010
0001
,
0100
0000
0001
0000
0010
0000
1000
0000
0001
0100
0001
0100
0010
1000
0010
1000
,
0001
0000
0100
0000
1000
0000
0010
0000
1000
0010
0100
0001
1000
0001
0100
0001
,
1000
0000
0010
0000
0001
0000
1000
0000
0010
1000
0001
0100
0001
1000
0010
1000
,
0001
0000
1000
0000
0010
0000
1000
0000
0001
0100
0010
1000
0010
0100
0001
1000
,
0010
0000
1000
0000
0010
0000
0001
0000
1000
0100
1000
0100
0010
0001
0010
0001
,
0100
0000
0001
0000
0100
0000
1000
0000
0010
0100
0001
1000
0100
0010
0001
1000
,
0100
0000
1000
0000
0001
0000
1000
0000
0010
1000
0001
0100
0001
1000
0010
1000
,
0100
0000
0001
0000
0010
0000
0100
0000
1000
0100
0010
0001
1000
0100
0010
0001
,
0010
0000
1000
0000
0100
0000
0001
0000
1000
0010
1000
0010
0100
0001
0100
0001
,
1000
0000
0100
0000
0001
0000
0100
0000
0010
0100
0010
0100
0001
1000
0001
1000
,
0010
0000
0001
0000
1000
0000
0001
0000
0100
0001
1000
0010
1000
0001
0100
0001
,
1000
0000
0001
0000
0100
0000
0001
0000
1000
0010
0100
0001
0100
0010
1000
0001
,
0100
0000
0001
0000
0100
0000
1000
0000
0001
0010
0001
0010
0100
1000
0100
1000
,
0100
0000
0001
0000
1000
0000
0010
0000
0001
0010
0100
0010
0001
0100
0010
0100
,
1001
0100
0010
0100
1000
0100
1000
0100
0010
0001
0010
0100
1000
0010
0100
0001
,
0100
0010
1000
0100
1000
0010
0100
0010
0100
0001
0100
0010
1000
0100
0010
0100
,
1000
0100
1000
0100
0010
0001
0100
0010
0100
0001
0100
0010
1000
0010
0100
0010
,
0100
0001
1000
0001
0100
0001
0100
0001
1000
0010
1000
0001
0100
0001
1000
0010
,
1001
0100
0010
0100
1000
0100
1000
0100
0010
0001
0010
0100
1000
0010
0100
0001
,
0100
0001
1000
0010
0100
0001
1000
0010
0100
0010
1000
0100
0010
0001
0010
0100
,
1000
0010
0100
0001
1000
0010
1000
0001
1000
0010
0100
0001
0010
0100
1000
0010
,
1000
0100
0010
0100
1000
0100
1000
0100
0010
0001
0010
0100
1000
0010
0100
0001
,
1001
0100
0010
0100
0001
0010
0100
0010
0100
1000
0100
0010
0001
0100
0010
0100
,
0010
0100
0001
0100
0010
1000
0100
0010
0100
1000
0100
0010
0001
0010
0100
0010
,
0100
1000
0010
1000
0010
1000
0100
0010
0001
0010
0100
1000
0010
1000
0001
0010
,
0001
0100
0010
0100
0001
0010
0100
0010
0100
1000
0100
0010
0001
0100
0010
0100
,
0010
0100
0001
0100
0010
1000
0100
0010
0100
1000
0100
0010
0001
0010
0100
0010
,
0100
1000
0010
1000
0010
1000
0100
0010
0001
0010
0100
1000
0010
1000
0001
0010
,
0001
0100
0010
0100
1000
0100
1000
0100
0010
0001
0010
0100
1000
0010
0100
0001
,
0100
0010
1000
0100
1000
0010
0100
0010
0100
0001
0100
0010
1000
0100
0010
0100
,
1100
0110
0011
1010
0101
1010
1001
0110
,
1010
0000
0110
0000
1010
0000
1100
0000
0110
0000
1010
0000
1010
0000
0011
1001
,
1010
0101
1010
0101
1100
0110
1100
0011
,
1010
0101
1010
1001
1010
0101
1001
0011
,
1000
0100
0010
0001
1000
0100
0010
0001
1000
0010
0100
0001
0010
0100
1000
0100
,
0010
0100
1000
0100
0010
0001
0010
0001
0010
0100
1000
0001
0100
0010
0100
0001
,
1000
0100
1000
0100
1000
0100
0010
0001
0010
0001
0010
0001
0100
0010
0100
0010
0100
0010
1000
0100
1000
0100
1000
0100
,
0010
0001
0010
0001
0010
0001
1000
0010
1000
0010
1000
0010
0100
0010
0100
0010
0100
0010
1000
0001
1000
0001
1000
0001
,
1000
0100
0010
0001
0010
0100
1000
0010
0100
0001
1000
0010
0100
0010
1000
0010
0100
0001
0100
0001
1000
0010
1000
0010
,
1000
0010
0100
0001
0100
0010
1000
0100
0010
0100
1000
0100
0010
0100
1000
0100
0010
0001
0010
0100
1000
0100
0010
0001
,
2002
0000
0000
0000
,
0000
0000
0000
3003
;

//---------------dance-single - ----------------
#NOTES:
     dance-single:
     :
     Challenge:
     1:
     0.000,0.000,0.000,0.000,0.000,0.000,0.000,0.000,0.000,0.000:
0000
0000
0000
0000
;

//---------------dance-single - ----------------
#NOTES:
     dance-single:
     :
     Easy:
     1:
     0.000,0.000,0.000,0.000,0.000,0.000,0.000,0.000,0.000,0.000:
0000
0000
0000
0000
;
