#TITLE:Blow Me Away;
#SUBTITLE:;
#ARTIST:Breaking Benjamin;
#TITLETRANSLIT:;
#SUBTITLETRANSLIT:;
#ARTISTTRANSLIT:;
#CREDIT:owenviau1;
#BANNER:../Banner.png;
#BACKGROUND:BG.PNG;
#LYRICSPATH:;
#CDTITLE:../CDTitleOV1.png;
#MUSIC:Blow Me Away.mp3;
#OFFSET:-0.576;
#SAMPLESTART:114.972;
#SAMPLELENGTH:12.000;
#SELECTABLE:YES;
#DISPLAYBPM:99.129;
#BPMS:0.000=99.129;
#STOPS:;
#BGCHANGES:;
// cache tags:
#FIRSTBEAT:0.000;
#LASTBEAT:333.500;
#SONGFILENAME:Songs/owenviau1 Simfiles 7/Blow Me Away - [owenviau1] v1.0.3/Blow Me Away.sm;
#HASMUSIC:1;
#HASBANNER:1;
#MUSICLENGTH:207.934;
// end cache tags

//---------------dance-single - 16.13 (16) (owenviau----------------
#NOTES:
     dance-single:
     16.13 (16) (owenviau:
     Challenge:
     16:
     1.000,1.000,0.154,0.317,1.000,1994.000,32.000,66.000,11.000,24.000:
0000
0000
0000
0000
,
0000
0000
0000
00MM
0000
0000
0000
0000
,
0000
0000
0000
0000
0000
0000
0000
0000
0000
0000
M000
0000
0000
00M0
0000
0000
,
0000
0000
0000
0000
,
0000
0000
0000
0000
0000
0000
0000
0000
0000
M00M
0000
0000
0000
0000
0000
0000
0000
0000
0000
0000
0000
0000
0000
0000
0000
0000
0000
0000
0000
0000
0000
0000
,
0000
0000
0000
0000
0000
0000
0000
0000
0000
0000
0000
0000
0000
0000
0000
0000
0000
0000
0000
0000
0000
0000
0000
0000
0000
0000
0000
0000
0000
0000
0000
0000
0000
0000
0000
0000
0000
0000
M000
0000
0000
0000
0000
0000
0000
0000
0000
0000
0000
0M00
0000
0000
0000
0000
0000
0000
0000
0000
0000
0000
0000
0000
0000
0000
,
0000
0000
0000
0000
,
0000
0000
0000
0000
2001
0000
3100
0010
0002
0000
2103
0000
3010
0100
0020
0000
,
1032
0000
1023
0000
1230
0000
1300
0001
0020
0000
2130
0000
3001
0010
0002
0000
,
2013
0000
3120
0000
0132
0000
1003
0010
0200
0000
1302
0000
0013
0100
2000
0000
,
3120
0000
0132
0000
2103
0000
3010
0100
0002
0000
2013
0000
3010
0100
0020
0000
,
0132
0000
0000
0000
1023
0000
0000
0000
1030
0100
0010
0001
0100
0010
1000
0001
0100
0001
0010
0100
1000
0010
0100
0001
0100
0010
1000
0001
0010
0100
1000
0010
,
0100
0001
1000
0100
1000
0010
0100
0001
0010
0100
1000
0001
0010
0001
1000
0100
0010
0001
1000
0010
1000
0100
0010
0001
0100
0001
1000
0010
0100
0010
1000
0001
,
0010
0001
1000
0100
0010
0001
0100
0010
1000
0010
0100
0001
1000
0100
1000
0010
0100
0001
1000
0100
0010
0001
0100
0010
1000
0001
0010
0001
0100
0010
1000
0010
,
0100
0001
1000
0100
0010
0001
1000
0010
1000
0001
0100
0010
1000
0010
0100
0001
1000
0100
0010
0001
0100
0010
1000
0001
1000
0000
0010
0000
0100
0000
0010
0000
,
1000
0000
0001
0000
0010
0000
0100
0000
1000
0100
0010
0001
0100
0010
1000
0001
0100
0001
0010
0100
1000
0010
0100
0001
0100
0010
1000
0001
0010
0100
1000
0010
,
0100
0001
1000
0100
1000
0010
0100
0001
0010
0100
1000
0001
0010
0001
1000
0100
0010
0001
1000
0010
1000
0100
0010
0001
0100
0001
1000
0010
0100
0010
1000
0001
,
0010
0001
1000
0100
0010
0001
0100
0010
1000
0010
0100
0001
1000
0100
1000
0010
0100
0001
1000
0100
0010
0001
0100
0010
1000
0001
0010
0001
0100
0010
1000
0010
,
0100
0001
1000
0100
0010
0001
1000
0010
1000
0001
0100
0010
1000
0010
0100
0001
1000
0100
0010
0001
0100
0010
1000
0001
1000
0100
0010
0001
0100
0000
0010
0000
,
1000
0000
0100
0000
0010
0000
0001
0000
1000
0100
0010
0001
0100
0010
1000
0001
0100
0001
0010
0100
1000
0010
0100
0001
0100
0010
1000
0001
0010
0100
1000
0010
,
0100
0001
1000
0100
1000
0010
0100
0001
0010
0100
1000
0001
0010
0001
1000
0100
0010
0001
1000
0010
1000
0100
0010
0001
0100
0001
1000
0010
0100
0010
1000
0001
,
0010
0000
0000
0001
0000
0000
1000
0000
0000
0100
0000
0000
0010
0000
0000
0001
0000
0000
0100
0000
0000
0010
0000
0000
1000
0000
0000
0000
0001
0000
0000
0000
0010
0000
0000
0000
0001
0000
0000
0000
0100
0000
0000
0000
0010
0000
0000
0000
1000
0000
0000
0000
0001
0000
0000
0000
0010
0000
0000
0000
0100
0000
0000
0000
1000
0000
0000
0000
0010
0000
0000
0000
0100
0000
0000
0000
0001
0000
0000
0000
1000
0000
0000
0000
0100
0000
0000
0000
1000
0000
0000
0000
0001
0000
0000
0000
,
0100
0010
1000
0010
0100
0001
1000
0100
0010
0001
1000
0010
1000
0001
0100
0010
1000
0001
0010
0100
1000
0001
0010
0000
,
1002
0000
0000
0000
0123
0000
0000
0000
1030
0001
0100
0010
1000
0100
1000
0010
0100
0001
0010
0100
1000
0010
0100
0001
0100
0010
1000
0001
0010
0100
1000
0010
,
0100
0001
1000
0100
1000
0010
0100
0001
0010
0100
1000
0001
0010
0001
1000
0100
0010
0001
1000
0010
1000
0100
0010
0001
0100
0001
1000
0010
0100
0010
1000
0001
,
0010
0001
1000
0100
0010
0001
0100
0010
1000
0010
0100
0001
1000
0100
1000
0010
0100
0001
1000
0100
0010
0001
0100
0010
1000
0001
0010
0001
0100
0010
1000
0010
,
0100
0001
1000
0100
0010
0001
1000
0010
1000
0001
0100
0010
1000
0010
0100
0001
1000
0100
0010
0001
0100
0010
1000
0001
1000
0100
0010
0001
0100
0010
1000
0001
,
0100
0001
0010
0100
1000
0010
0100
0001
0100
0010
1000
0001
0010
0100
1000
0010
0100
0001
1000
0100
1000
0010
0100
0001
0010
0100
1000
0001
0010
0001
1000
0100
,
0010
0001
1000
0010
1000
0100
0010
0001
0100
0001
1000
0010
0100
0010
1000
0001
0010
0001
1000
0100
0010
0001
0100
0010
1000
0010
0100
0001
1000
0100
1000
0010
,
0100
0001
1000
0100
0010
0001
0100
0010
1000
0001
0010
0001
0100
0010
1000
0010
0100
0001
1000
0100
0010
0001
1000
0010
1000
0001
0100
0010
1000
0010
0100
0001
,
1000
0100
0010
0001
0100
0010
1000
0001
0100
0001
0010
0100
1000
0010
0100
0001
0100
0010
1000
0001
0010
0100
1000
0010
0100
0001
1000
0100
1000
0010
0100
0001
,
0010
0100
1000
0001
0010
0001
1000
0100
0010
0001
1000
0010
1000
0100
0010
0001
0100
0001
1000
0010
0100
0010
1000
0001
0010
0001
1000
0100
0010
0001
0100
0010
,
1000
0010
0100
0001
1000
0100
1000
0010
0100
0001
1000
0100
0010
0001
0100
0010
1000
0001
0010
0001
0100
0010
1000
0010
0100
0001
1000
0100
0010
0001
1000
0010
,
1000
0001
0100
0010
1000
0010
0100
0000
2001
0000
0000
0000
3100
0000
0010
0000
0002
0000
0000
0000
2103
0000
0000
0000
3010
0000
0100
0000
0020
0000
0000
0000
,
1032
0000
1023
0000
1230
0000
1300
0001
0020
0000
2130
0000
3001
0010
0002
0000
,
2013
0000
0000
0000
3120
0000
0000
0000
1030
0001
0100
0010
1000
0100
1000
0010
0100
0001
0010
0100
1000
0010
0100
0001
0100
0010
1000
0001
0010
0100
1000
0010
,
0100
0001
1000
0100
1000
0010
0100
0001
0010
0100
1000
0001
0010
0001
1000
0100
0010
0001
1000
0010
1000
0100
0010
0001
0100
0001
1000
0010
0100
0010
1000
0001
,
0010
0001
1000
0100
0010
0001
0100
0010
1000
0010
0100
0001
1000
0100
1000
0010
0100
0001
1000
0100
0010
0001
0100
0010
1000
0001
0010
0001
0100
0010
1000
0010
,
0100
0001
1000
0100
0010
0001
1000
0010
1000
0001
0100
0010
1000
0010
0100
0001
1000
0100
0010
0001
0100
0010
1000
0001
1000
0000
0100
0000
0010
0000
0001
0000
,
1000
0000
0010
0000
0100
0000
0001
0000
1000
0010
0100
0001
0010
0100
1000
0010
0100
0001
1000
0100
1000
0010
0100
0001
0010
0100
1000
0001
0010
0001
1000
0100
,
0010
0001
1000
0010
1000
0100
0010
0001
0100
0001
1000
0010
0100
0010
1000
0001
0010
0001
1000
0100
0010
0001
0100
0010
1000
0010
0100
0001
1000
0100
1000
0010
,
0100
0001
1000
0100
0010
0001
0100
0010
1000
0001
0010
0001
0100
0010
1000
0010
0100
0001
1000
0100
0010
0001
1000
0010
1000
0001
0100
0010
1000
0010
0100
0001
,
1000
0100
0010
0001
0100
0010
1000
0001
0100
0001
0010
0100
1000
0010
0100
0001
0100
0010
1000
0001
0010
0100
1000
0010
0100
0001
1000
0100
1000
0000
0010
0000
,
0100
0000
0001
0000
1000
0000
0100
0000
1000
0100
0010
0001
0100
0010
1000
0001
0100
0001
0010
0100
1000
0010
0100
0001
0100
0010
1000
0001
0010
0100
1000
0010
,
0100
0001
1000
0100
1000
0010
0100
0001
0010
0100
1000
0001
0010
0001
1000
0100
0010
0001
1000
0010
1000
0100
0010
0001
0100
0001
1000
0010
0100
0010
1000
0001
,
0010
0000
0000
0001
0000
0000
1000
0000
0000
0100
0000
0000
0010
0000
0000
0001
0000
0000
0100
0000
0000
0010
0000
0000
1000
0000
0000
0000
0001
0000
0000
0000
0010
0000
0000
0000
0001
0000
0000
0000
0100
0000
0000
0000
0010
0000
0000
0000
1000
0000
0000
0000
0001
0000
0000
0000
0010
0000
0000
0000
0100
0000
0000
0000
1000
0000
0000
0000
0010
0000
0000
0000
0100
0000
0000
0000
0001
0000
0000
0000
1000
0000
0000
0000
0100
0000
0000
0000
1000
0000
0000
0000
0001
0000
0000
0000
,
0100
0010
1000
0010
0100
0001
1000
0100
0010
0001
1000
0010
1000
0001
0100
0010
1000
0001
0010
0100
1000
0001
0010
0000
,
1002
0000
0000
0000
0123
0000
0000
0000
1030
0001
0100
0010
1000
0100
1000
0010
0100
0001
0010
0100
1000
0010
0100
0001
0100
0010
1000
0001
0010
0100
1000
0010
,
0100
0001
1000
0100
1000
0010
0100
0001
0010
0100
1000
0001
0010
0001
1000
0100
0010
0001
1000
0010
1000
0100
0010
0001
0200
0000
0000
0000
0320
0000
0000
0000
,
2030
0000
0000
0000
3002
0000
0000
0000
1003
0010
0100
0001
1000
0100
1000
0010
0100
0001
1000
0100
0010
0001
0100
0010
1000
0001
0010
0001
0100
0010
1000
0010
,
0100
0001
1000
0100
0010
0001
1000
0010
1000
0001
0100
0010
1000
0010
0100
0001
1000
0100
0010
0001
0100
0010
1000
0001
1000
0100
0010
0001
0100
0010
1000
0001
,
0100
0001
0010
0100
1000
0010
0100
0001
0100
0010
1000
0001
0010
0100
1000
0010
0100
0001
1000
0100
1000
0010
0100
0001
0010
0100
1000
0001
0010
0001
1000
0100
,
0010
0001
1000
0010
1000
0100
0010
0001
0100
0001
1000
0010
0100
0010
1000
0001
0010
0001
1000
0100
0010
0001
0100
0010
1000
0010
0100
0001
1000
0100
1000
0010
,
0100
0001
1000
0100
0010
0001
0100
0010
1000
0001
0010
0001
0100
0010
1000
0010
0100
0001
1000
0100
0010
0001
1000
0010
1000
0001
0100
0010
1000
0010
0100
0001
,
1000
0100
0010
0001
0100
0010
1000
0001
0100
0001
0010
0100
1000
0010
0100
0001
0100
0010
1000
0001
0010
0100
1000
0010
0100
0001
1000
0100
1000
0010
0100
0001
,
0010
0100
1000
0001
0010
0001
1000
0100
0010
0001
1000
0010
1000
0100
0010
0001
0100
0001
1000
0010
0100
0010
1000
0001
0010
0001
1000
0100
0010
0001
0100
0010
,
1000
0010
0100
0001
1000
0100
1000
0010
0100
0001
1000
0100
0010
0001
0100
0010
1000
0001
0010
0001
0100
0010
1000
0010
0100
0001
1000
0100
0010
0001
1000
0010
,
1000
0100
0010
0001
0100
0010
1000
0001
0100
0001
0010
0100
1000
0010
0100
0001
0100
0010
1000
0001
0010
0100
1000
0010
0100
0001
1000
0100
1000
0010
0100
0001
,
0010
0100
1000
0001
0010
0001
1000
0100
0010
0001
1000
0010
1000
0100
0010
0001
0100
0001
1000
0010
0100
0010
1000
0001
0010
0001
1000
0100
0010
0001
0100
0010
,
1000
0010
0100
0001
1000
0100
0010
0001
0100
0010
1000
0001
0010
0001
0100
0010
,
1000
0000
0100
0000
0010
0000
0001
0000
2000
3000
0020
0030
0200
0300
0002
0003
2000
0000
3200
0000
0320
0000
0032
0000
2003
0000
3020
0000
0230
0000
0320
0000
,
2030
3002
0023
0230
1300
0010
0100
0001
1000
0100
0010
0001
1001
0000
1000
0010
,
0100
0001
1000
0100
1000
0001
0010
0100
1000
0010
0100
0001
0011
0000
0001
0100
,
0020
0000
0000
0000
1030
0001
0100
0001
1000
0100
0010
0001
1001
0000
1000
0010
,
0100
0001
1000
0100
1000
0001
0010
0100
1000
0010
0100
0001
0011
0000
2000
0000
,
3010
0000
0200
0000
0000
0000
0000
0000
0301
0000
1000
0000
0010
0000
0100
0000
0010
0000
1000
0000
0001
0010
0100
1000
0010
0000
0100
0000
0001
0000
1000
0000
,
0100
0000
1000
0000
0001
0000
0010
0000
0100
0000
1000
0000
0010
0000
0100
0000
0001
0000
1000
0000
0100
0010
0001
1000
0010
0000
0100
0000
0001
0000
1000
0000
,
0200
0000
0000
0000
0000
0000
0000
0000
0000
0000
0000
0000
0310
0000
0000
0001
0000
0000
1000
0000
0000
0010
0000
0000
0100
0000
0000
0001
0000
0000
0010
0000
0100
0000
1000
0000
0001
0000
0000
0100
0000
0000
0010
0000
0000
1000
0000
0000
,
0001
0000
0000
0010
0000
0000
0001
0000
0000
1000
0000
0000
0100
0000
0000
1000
0000
0000
0010
0000
0000
0100
0000
0000
0001
0000
0000
1000
0000
0000
0100
0000
0010
0000
0001
0000
1000
0000
0000
0010
0000
0000
0100
0000
0000
0001
0000
0000
,
2000
0000
0000
0000
0000
0000
0000
0000
0000
0000
0000
0000
3010
0000
0000
0100
0000
0000
0001
0000
0000
1000
0000
0000
0100
0000
0000
1000
0000
0000
0001
0000
0010
0000
0100
0000
1000
0000
0000
0010
0000
0000
1000
0000
0000
0001
0000
0000
,
0010
0000
0000
0100
0000
0000
1000
0000
0000
0001
0000
0000
0100
0000
0000
0010
0000
0000
1000
0000
0000
0001
0000
0000
0010
0000
0000
0001
0000
0000
0100
0000
0010
0000
1000
0000
0001
0000
0000
0100
0000
0000
0020
0000
0000
0000
0000
0000
,
0000
0000
0000
0000
0000
0000
0000
0000
0000
0000
0000
0000
0000
0000
0000
0000
0000
0000
0000
0030
00M0
00M0
00M0
0000
1000
0001
0100
0010
1000
0100
1000
0010
,
0100
0001
0010
0100
1000
0010
0100
0001
0100
0010
1000
0001
0010
0100
1000
0010
0100
0001
1000
0100
1000
0010
0100
0001
0010
0100
1000
0001
0010
0001
1000
0100
,
0010
0001
1000
0010
1000
0100
0010
0001
0100
0001
1000
0010
0100
0010
1000
0001
0010
0001
1000
0100
0010
0001
0100
0010
1000
0010
0100
0001
1000
0100
1000
0010
,
0100
0001
1000
0100
0010
0001
0100
0010
1000
0001
0010
0001
0100
0010
1000
0010
0100
0001
1000
0100
0010
0001
1000
0010
1000
0001
0100
0010
1000
0010
0100
0001
,
1000
0100
0010
0001
0100
0010
1000
0001
1000
0100
0010
0001
0100
0010
1000
0001
0100
0001
0010
0100
1000
0010
0100
0001
0100
0010
1000
0001
0010
0100
1000
0010
,
0100
0001
1000
0100
1000
0010
0100
0001
0010
0100
1000
0001
0010
0001
1000
0100
0010
0001
1000
0010
1000
0100
0010
0001
0100
0001
1000
0010
0100
0010
1000
0001
,
0010
0001
1000
0100
0010
0001
0100
0010
1000
0010
0100
0001
1000
0100
1000
0010
0100
0001
1000
0100
0010
0001
0100
0010
1000
0001
0010
0001
0100
0010
1000
0010
,
0100
0001
1000
0100
0010
0001
1000
0010
1000
0001
0100
0010
1000
0010
0100
0001
1000
0100
0010
0001
0100
0010
1000
0001
0100
0001
0010
0100
1000
0010
0100
0001
,
0100
0010
1000
0001
0010
0100
1000
0010
0100
0001
1000
0100
1000
0010
0100
0001
0010
0100
1000
0001
0010
0001
1000
0100
0010
0001
1000
0010
1000
0100
0010
0001
,
0100
0001
1000
0010
0100
0010
1000
0001
0010
0001
1000
0100
0010
0001
0100
0010
1000
0010
0100
0001
1000
0100
1000
0010
0100
0001
1000
0100
0010
0001
0100
0010
,
1000
0001
0100
0010
1000
0100
1000
0010
0100
0001
0010
0100
1000
0010
0100
0001
0100
0010
1000
0001
0010
0100
1000
0010
0100
0001
1000
0100
1000
0010
0100
0001
,
0010
0100
1000
0001
0010
0001
1000
0100
0010
0001
1000
0010
1000
0100
0010
0001
0100
0001
1000
0010
0100
0010
1000
0001
0010
0001
1000
0100
0010
0001
0100
0010
,
1000
0010
0100
0001
1000
0100
1000
0001
0010
0000
0000
0000
0100
0000
0000
0000
0000
0000
0000
0000
0000
0000
0000
0000
0000
0000
0000
0000
0000
0000
0000
0000
,
0000
0000
0000
0000
,
0000
0000
0000
0000
;

//---------------dance-single - ----------------
#NOTES:
     dance-single:
     :
     Hard:
     9:
     0.630,0.982,0.346,0.404,0.558,761.000,72.000,84.000,11.000,15.000:
0000
0000
0000
0000
,
0000
0000
0000
00MM
0000
0000
0000
0000
,
0000
0000
0000
0000
0000
0000
0000
0000
0000
0000
M000
0000
0000
00M0
0000
0000
,
0000
0000
0000
0000
,
0000
0000
0000
0000
0000
0000
0000
0000
0000
M00M
0000
0000
0000
0000
0000
0000
0000
0000
0000
0000
0000
0000
0000
0000
0000
0000
0000
0000
0000
0000
0000
0000
,
0000
0000
0000
0000
0000
0000
0000
0000
0000
0000
0000
0000
0000
0000
0000
0000
0000
0000
0000
0000
0000
0000
0000
0000
0000
0000
0000
0000
0000
0000
0000
0000
0000
0000
0000
0000
0000
0000
M000
0000
0000
0000
0000
0000
0000
0000
0000
0000
0000
0M00
0000
0000
0000
0000
0000
0000
0000
0000
0000
0000
0000
0000
0000
0000
,
0000
0000
0000
0000
,
0000
0000
0000
0000
2001
0000
3100
0010
0002
0000
2103
0000
3010
0100
0020
0000
,
1032
0000
1023
0000
1230
0000
1300
0001
0020
0000
2130
0000
3001
0010
0002
0000
,
2013
0000
3120
0000
0132
0000
1003
0010
0200
0000
1302
0000
0013
0100
2000
0000
,
3120
0000
0132
0000
2103
0000
3010
0100
0002
0000
2013
0000
3010
0100
0020
0000
,
0132
0000
1023
0000
1030
0100
0010
0001
0010
0100
1000
0001
0100
0010
1000
0001
,
0010
0001
1000
0100
0010
0100
1000
0001
0010
0001
1000
0010
0100
0001
0010
0001
,
1000
0100
0010
0100
1000
0001
0100
0010
1000
0001
0010
0001
0100
0010
1000
0001
,
0010
0100
1000
0100
0010
0001
1000
0010
0100
0001
0100
0010
1000
0001
0100
0010
,
1000
0010
0100
0010
1000
0001
0010
0100
1000
0001
0010
0001
0100
0010
0100
0001
,
1000
0100
1000
0001
0100
0010
1000
0001
0010
0100
0010
0001
1000
0010
0100
0001
,
0010
0001
1000
0100
1000
0001
0100
0010
1000
0001
0010
0001
1000
0000
0000
0000
,
1000
0000
0000
0000
0001
0100
0001
0100
0010
1000
0010
1000
0001
0100
0001
0100
,
0010
1000
0010
1000
0001
0000
0100
0000
0001
0000
1000
0000
0010
0000
1000
0000
,
0001
0100
0001
0010
0001
0100
0010
1000
,
0010
0100
0010
1000
0001
0100
0010
1000
,
0100
0010
0001
0100
0010
1000
0001
0010
,
0001
0000
1000
0001
0100
0010
1000
0001
,
0010
0100
1000
0001
0010
0100
1000
0010
,
0100
0001
0011
0000
0001
2000
0000
3010
,
0100
0002
0000
0023
0000
0230
0000
1300
,
0002
0000
0003
0000
0000
0120
0000
2030
,
3010
0200
0000
0302
0000
0023
0000
0130
,
2000
3000
1001
0000
0001
0200
0000
0310
,
1000
0002
0000
0023
0000
0230
0000
1300
,
0002
0000
0103
0000
0010
1000
0000
0010
,
0100
0020
0000
2030
0000
3002
0000
0103
,
0010
0000
1000
0000
0010
0000
0100
0010
0100
0000
1001
0000
0010
0100
0010
0000
,
1001
0000
1100
0000
0011
0000
0001
0100
0001
0000
1001
0000
0010
1000
0010
0000
,
1001
0000
0101
0000
0011
0000
0000
0000
0001
0010
0001
0100
0010
1000
0001
0010
,
0001
0100
0010
1000
0001
0010
0100
0010
0001
1000
0010
0100
0001
0010
0001
1000
,
0100
0010
0100
1000
0001
0100
0010
1000
0001
0010
0001
1000
0010
0100
0001
0010
,
0001
0100
0010
1000
0001
0010
0100
0010
0001
1000
0010
0100
0001
0100
0010
1000
,
1000
0100
0010
0001
1000
0010
0100
0001
1000
0000
0010
0000
0100
0000
0001
0000
,
0010
0100
1000
0100
0010
0001
0010
0001
,
0100
0000
0010
0000
1000
0000
0000
0001
1000
0001
1000
0001
1000
0000
0010
0000
,
0100
0010
0100
0010
0100
0000
0001
0000
0010
0001
0010
0001
0010
0000
0001
0000
,
0100
0001
0100
0001
0100
0000
0010
0000
1000
0000
0010
0000
0110
0000
0010
0000
,
1010
0001
0100
0001
0011
0001
0100
0010
,
1000
0010
1000
0010
1000
0000
0001
0100
0001
0000
0010
0000
0001
0000
1000
0000
,
0010
0100
0001
0010
0100
1000
0100
0010
,
0100
1000
0100
0100
0110
0010
0010
0010
,
0011
0001
0001
0001
0101
0100
0010
0000
,
0000
0000
0000
0000
0110
0000
0010
1000
0010
0000
0010
0000
0100
0000
0001
0000
,
0010
0011
0001
0110
0010
1010
0001
0011
,
1001
0010
0100
0001
0010
0011
0001
0101
,
0011
0101
0010
1010
0001
0011
0001
0101
,
1001
0011
0001
1000
0010
0110
0001
0011
,
1001
0110
0100
1100
0001
0011
0001
1010
,
1010
0001
0101
0001
0010
0110
0100
1100
,
1001
0101
0001
0011
0001
0101
0010
1010
,
0001
0100
0001
0010
0001
0100
0010
1000
,
0001
0100
0001
1001
0001
1001
0001
1001
,
1000
0010
0100
0001
1000
0100
0010
0001
0100
0010
1000
0001
0010
0001
0100
0010
,
1000
0000
0100
0000
0010
0000
0001
0000
2000
3000
0020
0030
0200
0300
0002
0003
2000
0000
3200
0000
0320
0000
0032
0000
2003
0000
3020
0000
0230
0000
0320
0000
,
2030
3002
0023
0230
1300
0010
0100
0001
1000
0100
0010
0001
1001
0000
1000
0010
,
0100
0001
1000
0100
1000
0001
0010
0100
1000
0010
0100
0001
0011
0000
0001
0100
,
0020
0000
0000
0000
1030
0001
0100
0001
1000
0100
0010
0001
1001
0000
1000
0010
,
0100
0001
1000
0100
1000
0001
0010
0100
1000
0010
0100
0001
0011
0000
2000
0000
,
3010
0000
0200
0000
0000
0000
0000
0000
0301
0000
1000
0000
0010
0000
0100
0000
0010
0000
1000
0000
0001
0010
0100
1000
0010
0000
0100
0000
0001
0000
1000
0000
,
0100
0000
1000
0000
0001
0000
0010
0000
0100
0000
1000
0000
0010
0000
0100
0000
0001
0000
1000
0000
0100
0010
0001
1000
0010
0000
0100
0000
0001
0000
1000
0000
,
0200
0000
0000
0000
0000
0000
0000
0000
0000
0000
0000
0000
0310
0000
0000
0001
0000
0000
1000
0000
0000
0010
0000
0000
0100
0000
0000
0001
0000
0000
0010
0000
0100
0000
1000
0000
0001
0000
0000
0100
0000
0000
0010
0000
0000
1000
0000
0000
,
0001
0000
0000
0010
0000
0000
0001
0000
0000
1000
0000
0000
0100
0000
0000
1000
0000
0000
0010
0000
0000
0100
0000
0000
0001
0000
0000
1000
0000
0000
0100
0000
0010
0000
0001
0000
1000
0000
0000
0010
0000
0000
0100
0000
0000
0001
0000
0000
,
2000
0000
0000
0000
0000
0000
0000
0000
0000
0000
0000
0000
3010
0000
0000
0100
0000
0000
0001
0000
0000
1000
0000
0000
0100
0000
0000
1000
0000
0000
0001
0000
0010
0000
0100
0000
1000
0000
0000
0010
0000
0000
1000
0000
0000
0001
0000
0000
,
0010
0000
0000
0100
0000
0000
1000
0000
0000
0001
0000
0000
0100
0000
0000
0010
0000
0000
1000
0000
0000
0001
0000
0000
0010
0000
0000
0001
0000
0000
0100
0000
0010
0000
1000
0000
0001
0000
0000
0100
0000
0000
0020
0000
0000
0000
0000
0000
,
0000
0000
0000
0000
0000
0000
0000
0000
0000
0000
0000
0000
0000
0000
0000
0000
0000
0000
0000
0030
00M0
00M0
00M0
0000
1000
0000
0000
0000
0000
0000
0000
0000
,
0001
0200
0000
0310
1000
0020
0000
0230
,
0000
0302
0000
0013
0100
0000
0010
1000
,
0010
0100
0000
0001
0010
0200
0000
2300
,
0000
3002
0000
0103
0010
1000
0002
0000
,
0000
0023
0000
0130
1000
0002
0000
0023
,
0000
0230
0000
1300
0002
0000
0203
0000
,
0000
0320
0000
2030
0001
3200
0000
0320
,
0000
0000
2030
0000
0000
0000
0001
0000
3001
0000
0000
0000
0100
0100
0000
0010
,
0000
1000
0001
0010
0001
0000
0100
0000
0010
1000
0010
0000
0100
0001
0000
0100
,
0000
0010
1000
0001
0100
0000
0010
0000
1001
0000
0001
0000
0100
0010
0000
0010
,
0000
1000
0010
1000
0010
0000
0100
0000
0001
0010
0001
0000
0100
0010
0000
0010
,
0000
1000
0010
1000
0010
0000
1000
0000
0000
0000
0000
0000
0000
0000
0000
0000
;

//---------------dance-single - ----------------
#NOTES:
     dance-single:
     :
     Medium:
     5:
     0.280,0.301,0.125,0.000,0.000,382.000,26.000,0.000,0.000,0.000:
0000
0000
0000
0000
,
0000
0000
0000
0000
,
0000
0000
0000
0000
,
0000
0000
0000
0000
,
0000
0000
0000
0000
,
0000
0000
0000
0000
,
0000
0000
0000
0000
,
0000
0000
0000
0000
,
0010
0010
0010
0000
0000
1000
0000
0000
,
0010
0100
0010
0000
0000
1000
0000
0000
,
0001
1000
1001
0000
0000
0010
0000
0000
,
0100
0001
0100
0010
1000
0010
0100
0000
,
0001
0010
0100
1000
0000
0000
0001
0100
,
0010
1000
0000
0000
0000
0001
0000
0100
,
0000
0010
0000
1000
0000
0100
0000
0010
,
0001
0100
0010
1000
0001
0100
0001
0000
,
0100
0010
1000
0001
0000
0000
0100
0010
,
1000
0001
0000
0000
0000
0010
0000
0100
,
0000
1000
0000
0001
0000
0100
0000
0010
,
1000
0010
1000
0010
0100
0001
0010
0000
,
0001
0100
0010
1000
0000
0000
0001
0010
,
0100
1000
0000
0000
0000
0001
0000
0100
,
0000
0010
0000
1000
0000
0001
0000
0100
,
0000
0010
0000
1000
0100
1000
0001
0000
,
0100
0010
1000
0010
0000
0000
0100
0001
,
0010
0001
0000
0000
0000
0101
0000
0001
,
0100
0001
0000
0001
0000
1000
0000
0001
,
0100
0000
1010
0000
0000
0001
0000
0001
,
0100
0001
0000
0001
0000
1000
0000
0010
,
1000
0000
1001
0000
0001
0100
0000
0100
,
0010
1000
0000
0001
0000
0100
0000
0010
,
1000
0000
1001
0000
0000
0001
0000
0010
,
0100
0010
0000
0001
0000
1000
0000
0010
,
0000
0000
1000
0001
1000
0010
0100
0000
,
0001
0001
0001
0000
1000
0000
0010
0000
,
0100
0001
0100
0000
0010
1000
0010
0000
,
0100
0001
0100
0001
0100
0000
0010
1000
,
0001
1000
0001
0000
0100
0010
0000
1000
,
0000
0001
0000
0100
0000
0010
0000
1000
,
0001
0000
0100
0010
0100
0010
1000
0000
,
0001
0100
0001
1000
0000
0000
0010
0100
,
0001
1000
0010
0000
0100
0001
0000
0001
,
0000
0001
0000
0001
0000
0001
0000
0100
,
0010
1000
0010
1000
0001
0100
0001
0100
,
0001
0010
0001
0010
0001
0100
0010
1000
,
0001
0100
0010
0000
1000
0001
0000
0001
,
0000
0100
0000
0010
0000
1000
0000
0100
,
0000
0010
0001
0100
0001
0100
0001
0000
,
1000
0010
1000
0010
1000
0000
0001
0000
,
0000
0000
1001
0000
0001
0100
0000
0010
,
1000
0001
0000
0010
0000
0100
0000
1000
,
0001
0000
0101
0000
0000
0010
0000
1000
,
0001
0100
0000
0010
0000
1000
0000
0001
,
0100
0000
0101
0000
0010
1000
0000
1000
,
0010
0100
0000
0001
0000
0010
0000
0100
,
1000
0000
1001
0000
0010
0100
0000
0100
,
0001
1000
0000
1001
0000
0010
0000
1000
,
0001
1000
1000
1000
,
1000
0010
0010
0010
,
0010
0000
1000
0100
0001
0100
1000
0000
,
0001
0000
1000
0010
0001
0010
1000
0000
,
0100
0000
1001
0000
0000
0000
0101
0001
,
0100
0001
0100
0100
0100
0010
0000
1000
,
0001
0000
0100
0010
1000
0001
0000
0010
,
0010
0000
0100
1000
0001
0100
0000
0010
,
1001
0000
0001
0000
0000
0000
0001
0100
,
0001
0000
1000
0000
0000
0000
0010
1000
,
0010
0000
0100
0000
0001
0000
0010
0001
,
0101
0000
0010
0000
1000
0000
0001
0100
,
0101
0000
0010
0000
1001
0000
0010
0010
,
1001
0000
0100
0000
1001
0000
0010
1001
,
0000
0000
0000
1001
,
0001
0100
0000
0010
1000
0010
0000
0100
,
0000
0001
0000
0010
0001
0000
1001
0000
,
0010
0100
0000
0100
0001
0010
0000
0010
,
0000
0001
0000
0100
0010
0000
1010
0000
,
1000
0010
0000
0010
0100
0001
0000
0010
,
0000
0100
0000
1000
0001
0000
1001
0000
,
0001
1000
0000
1000
0010
0100
0000
0100
,
0000
0001
0000
0010
0100
0000
1000
0000
,
0000
1000
0001
0000
0100
0000
0010
0000
,
0000
1000
0010
0000
0101
0000
0010
0000
,
0000
0000
1000
0010
0100
0001
0010
0000
,
0001
0000
1001
1001
0000
0000
0000
0000
;

//---------------dance-single - ----------------
#NOTES:
     dance-single:
     :
     Easy:
     3:
     0.143,0.180,0.005,0.000,0.000,207.000,1.000,0.000,0.000,0.000:
0001
0000
0001
0001
,
0001
0000
0000
0000
,
0000
0000
0000
0000
,
0000
0000
0000
0000
,
0000
0000
0000
0000
,
0000
0000
0000
0000
,
0000
0000
0000
0000
,
0000
0000
0000
0000
,
0000
0000
0001
0000
,
0000
0001
0000
0001
,
0000
0001
0000
0100
,
0000
0010
1000
0010
,
0100
0001
0010
0100
,
1000
0001
0100
0010
,
1000
0001
0100
0010
,
1000
0001
0001
1000
,
1000
0010
0010
0100
,
0001
0010
0100
1000
,
0001
0100
0010
1000
,
0001
0010
0010
0100
,
0100
1000
1000
0001
,
0100
0010
0000
1000
,
0000
0001
0000
0100
,
0000
0010
1000
0010
,
1000
0001
0100
0001
,
0100
0010
0000
1000
,
0000
0001
0000
0100
,
0000
0010
0000
1000
,
0000
0001
0000
0100
,
0000
0010
0000
1000
,
0000
0000
0000
0010
,
0000
0100
0000
1000
,
0000
0010
0000
0100
,
0000
0001
1000
0001
,
0100
0100
0010
1000
,
0010
0100
0001
0010
,
0001
0100
0010
1000
,
0010
0100
0001
0010
,
0100
1000
0001
0100
,
0010
1000
0000
0000
,
0000
0000
0000
0000
,
0000
0001
0100
0010
,
0000
1000
0001
0100
,
0000
0010
0010
0010
,
0000
1000
1000
1000
,
0000
0001
1000
0001
,
0100
0010
1000
0001
,
0010
0100
1000
0100
,
0010
0100
1000
0001
,
0000
0000
0000
1001
,
0000
0010
0000
0100
,
0000
0001
0000
0010
,
0000
0100
0000
1000
,
0000
0010
0000
0100
,
0000
0001
0000
0010
,
0000
0100
0000
1000
,
0000
0010
0000
0100
,
0000
0001
1000
0001
,
0100
0010
1000
0001
,
0000
0000
0001
1000
0001
0000
0000
0000
,
0000
0000
0100
0010
0100
0000
0000
0000
,
0000
0000
0001
0010
0001
0000
0000
0000
,
0000
0000
0100
0010
0100
0000
0000
0000
,
0000
0000
0001
1000
0001
0000
0000
0000
,
0000
0000
0100
0010
0100
0000
0000
0000
,
0000
0000
0001
0010
0001
0000
0000
0000
,
0000
0000
1000
0100
1000
0000
0000
0000
,
0000
0001
0000
1000
,
0000
0010
0000
0100
,
0000
0001
0000
0010
,
0000
0100
0000
0100
,
0000
0000
0000
0000
,
0000
0000
0000
0010
,
0000
0100
0000
0001
,
0000
0010
0000
0100
,
0000
1000
0001
0100
,
0000
0100
0000
0010
,
0000
1000
0000
0001
,
0000
1000
0000
0010
,
0000
0100
0000
0001
,
0000
1000
0010
0100
,
0000
0001
0000
1000
,
0000
0010
0000
0100
,
0000
0000
0001
0001
0000
0000
0000
0000
;

//---------------dance-single - ----------------
#NOTES:
     dance-single:
     :
     Beginner:
     1:
     0.110,0.120,0.091,0.000,0.000,141.000,19.000,0.000,0.000,0.000:

0000
0000
0000
0000
,
0000
0000
0000
0000
,
0000
0000
0000
0000
,
0000
0000
0000
0000
,
0000
0000
0000
0000
,
0000
0000
0000
0000
,
0000
0000
0000
0000
,
0000
0000
0000
0000
,
0000
0000
0000
0000
,
0000
0010
0000
0000
,
0000
0100
0000
0000
,
0000
0100
0000
0000
,
0000
0010
0000
0000
,
0000
1000
0000
0000
,
0000
0010
0000
0000
,
0000
0100
0000
0000
,
0000
0001
0000
0000
,
0000
1000
0000
0000
,
0000
0100
0000
0000
,
0000
0010
0000
0000
,
0000
0100
0000
0000
,
0000
0001
0000
0000
,
0000
1000
0000
0000
,
0000
0010
0000
0000
,
0000
0100
0000
0000
,
0000
0001
0000
0001
,
0000
1000
0000
1000
,
0000
0010
0000
0010
,
0000
0100
0000
0100
,
0000
0001
0000
1000
,
0000
0010
0000
0010
,
0000
0100
0000
0100
,
0000
0001
0000
0001
,
0000
1000
1000
1000
,
0000
0010
0010
0010
,
0000
0100
0000
0100
,
0000
0001
0000
0001
,
0000
1000
0000
1000
,
0000
0001
0000
1000
,
0000
0000
0000
0000
,
0000
0000
0000
0000
,
0000
1000
0000
0001
,
0000
0100
0000
0010
,
0000
1000
1000
1000
,
0000
0001
0001
0001
,
0000
0100
0100
0100
,
0000
0010
0010
0010
,
0000
1000
1000
1000
,
0000
0001
0001
0001
,
0000
0100
0000
0010
,
0000
1001
0000
0010
,
0000
0100
0000
1001
,
0000
0010
0000
1001
,
0000
0100
0100
0100
,
0000
0010
0000
1001
,
0000
0010
0000
1001
,
0000
0100
0000
0010
,
0000
1000
0000
1000
,
0000
0001
0000
0001
,
0000
1000
1000
1000
,
0000
0010
0010
0010
,
0000
0100
0000
1001
,
0000
0010
0000
1001
,
0000
0100
0000
0110
,
0000
0001
0000
1001
,
0000
0010
0000
1001
,
0000
0100
0000
1001
,
0000
0010
0000
1001
,
0000
0100
0000
1001
,
0000
0010
0000
1001
,
0000
0100
0000
0010
,
0000
0000
0000
1001
,
0000
1000
0000
0001
,
0000
0100
0000
0010
,
0010
0010
0000
1000
,
1000
1000
0000
0001
,
0000
0001
0000
0100
,
0000
0100
0000
0010
,
0000
0010
0000
1000
,
0000
1000
0000
0001
,
0000
1001
0000
0010
,
0000
1001
0000
0100
,
0000
1001
0000
0010
,
0000
0110
0000
0000
;
