#TITLE:Revolutions;
#SUBTITLE:;
#ARTIST:Dimrain47;
#TITLETRANSLIT:;
#SUBTITLETRANSLIT:;
#ARTISTTRANSLIT:;
#CREDIT:;
#BANNER:Revolutions.banner.jpg;
#BACKGROUND:Revolutions.bg.jpg;
#LYRICSPATH:;
#CDTITLE:CDTITLE.jpg;
#MUSIC:005 - REVOLUTIONS.mp3;
#OFFSET:-0.040;
#SAMPLESTART:100.000;
#SAMPLELENGTH:12.000;
#SELECTABLE:YES;
#BPMS:0.000=150.000,168.000=75.000,184.000=150.000;
#STOPS:;
#BGCHANGES:;
// cache tags:
#FIRSTBEAT:4.000;
#LASTBEAT:414.500;
#SONGFILENAME:Songs/Definitive Keyboard Megapack/REVOLUTIONS - Dimrain47(Leone510)/005 - REVOLUTIONS.sm;
#HASMUSIC:1;
#HASBANNER:1;
#MUSICLENGTH:176.203;
// end cache tags

//---------------dance-single - ----------------
#NOTES:
     dance-single:
     :
     Hard:
     11:
     1.000,1.000,0.068,0.573,1.000,1285.000,12.000,101.000,0.000,0.000:
0000
0000
0000
0000
,
1000
0000
0001
0000
1000
0000
0001
0100
0001
0000
1000
0000
0001
0000
1000
0001
,
1000
0000
0010
0000
0100
0000
0010
0100
0010
0000
0100
0000
0010
0000
0100
0010
,
0100
0000
0001
0000
1000
0000
0100
0001
1000
0000
0001
0000
1000
0000
0001
0100
,
0001
0000
1000
0000
0001
0000
1000
0001
1000
0000
0010
0000
0100
0000
0010
0100
,
0010
0000
0100
0000
0010
0000
0100
0010
0100
0000
0001
0000
1000
0000
0100
0001
,
1000
0000
0001
0000
1000
0000
0001
0100
0001
0000
1000
0000
0001
0000
1000
0001
,
1000
0000
0010
0000
0100
0000
0010
0100
0010
0000
0100
0000
0010
0000
0100
0010
,
0100
0000
0001
0000
1000
0000
0100
0001
1000
0000
0001
0000
1000
0000
0001
1000
,
0001
0000
0001
0000
1000
0000
0001
1000
0000
0000
1000
0000
0001
0000
1000
0001
,
0000
0000
1000
0000
0010
0000
1000
0010
0000
0000
0001
0000
0100
0000
0001
0100
,
0000
0000
0100
0000
0010
0000
0010
0100
0000
0000
0010
0000
0100
0000
0100
0010
,
0000
0000
1000
0000
0010
0000
0010
1000
0000
0000
0001
0000
0100
0000
0100
0001
,
0000
0000
1000
0000
0001
0000
1000
0001
0000
0000
1000
0000
0010
0000
1000
0010
,
0000
0000
0001
0000
0100
0000
0001
0100
0000
0000
0100
0000
0010
0000
0010
0100
,
0000
0000
0010
0000
0100
0000
0100
0010
0000
0000
1000
0000
0010
0000
0010
1000
,
0000
0000
0001
0000
0100
0000
0100
0001
0000
0000
1000
0000
0010
0000
0001
0200
,
0000
0000
0000
0000
0000
0000
0300
0000
0010
0010
0010
1000
1000
0001
1000
0010
,
1000
0001
1000
0001
0010
0001
0010
0100
1000
0001
0100
0001
1000
0010
0100
0010
,
1000
0010
1000
0100
0001
1000
0001
0100
0001
0100
0001
0010
0100
1000
0100
0010
,
0001
1000
0001
1000
0001
1000
0001
0010
0001
0100
1000
0010
0100
1000
0010
0001
,
0010
0100
1000
0001
0100
0001
1000
0001
1000
0010
1000
0100
0010
0001
0010
0100
,
1000
0001
1000
0001
0010
0001
0010
0100
1000
0001
0100
0001
1000
0010
0100
0010
,
1000
0010
1000
0100
0001
1000
0001
0100
0001
0100
0001
0010
0100
1000
0100
0010
,
0001
1000
0001
1000
0001
1000
0001
0010
0001
0100
1000
0010
0100
1000
0010
0001
,
0010
0100
1000
0001
0100
0001
1000
0001
1000
0010
1000
0100
0010
0001
0010
0100
,
0020
0001
0100
1000
0100
0001
1000
0001
0230
0010
0001
1000
0310
0000
0001
0010
,
0001
0000
0010
0001
0010
0000
0001
1000
0001
0000
1000
0100
1000
0100
0010
0001
,
0100
0001
0100
1000
0100
0010
0001
0010
0100
1000
0001
0010
0100
1000
0010
0100
,
0010
0001
0100
0010
0001
1000
0001
0010
1000
0010
0001
0010
0001
0010
0100
1000
,
0020
0001
0100
1000
0100
0001
1000
0001
0230
0010
0001
1000
0310
0000
0001
0010
,
0001
0000
0010
0001
0010
0000
0001
1000
0001
0000
1000
0100
1000
0100
0010
0001
,
0100
0001
0100
1000
0100
0010
0001
0010
0100
1000
0001
0010
0100
1000
0010
0100
,
0010
0001
0100
0010
0001
1000
0001
0010
1000
0010
0001
0010
0001
0010
0100
1000
,
0020
0000
0000
0000
0000
0000
0230
0000
0320
0000
0030
0000
0000
0000
0100
0001
,
0100
0000
0001
0000
1000
0000
0010
0001
1000
0000
0010
0000
0100
0000
0010
0000
,
0001
1000
1100
1000
0101
1000
0110
1000
,
1100
0101
1001
1100
1001
0101
0011
1001
,
0020
0001
0100
1000
0100
0001
1000
0001
0230
0010
0001
1000
0310
0000
0001
0010
,
0001
0000
0010
0001
0010
0000
0001
1000
0001
0000
1000
0100
1000
0100
0010
0001
,
0100
0001
0100
1000
0100
0010
0001
0010
0100
1000
0001
0010
0100
1000
0010
0100
,
0010
0001
0100
0010
0001
1000
0001
0010
1000
0010
0001
0010
0001
0010
0100
1000
,
0010
0000
0000
0001
0000
0000
0100
0000
1000
0000
0000
0100
0000
0000
0010
0000
0001
0000
0000
0010
0000
0000
0100
0000
0010
0000
0000
1000
0000
0000
0100
0000
,
0001
0000
0000
0001
0000
0000
0010
0000
1000
0000
0000
1000
0000
0000
0100
0000
0001
0000
0000
0010
0000
0000
0010
0000
1000
0000
0000
0100
0000
0000
0100
0000
,
0001
0010
0100
1000
0001
0010
0100
1000
0100
0010
0001
1000
0001
0100
0010
0001
0100
0010
1000
0100
0010
0001
1000
0100
0001
0010
0100
1000
0001
0010
0100
1000
,
0100
0010
0001
1000
0001
0100
0010
0001
0100
0010
1000
0100
0010
0001
1000
0100
0001
0010
0100
1000
0001
0010
0100
1000
0010
0001
0010
0100
0010
1000
0100
0001
,
1000
0001
1000
0001
0010
0001
0010
0100
1000
0001
0100
0001
1000
0010
0100
0010
,
1000
0010
1000
0100
0001
1000
0001
0100
0001
0100
0001
0010
0100
1000
0100
0010
,
0001
1000
0001
1000
0001
1000
0001
0010
0001
0100
1000
0010
0100
1000
0010
0001
,
0010
0100
1000
0001
0100
0001
1000
0001
1000
0010
1000
0100
0010
0001
0010
0100
,
1000
0001
1000
0001
0010
0001
0010
0100
1000
0001
0100
0001
1000
0010
0100
0010
,
1000
0010
1000
0100
0001
1000
0001
0100
0001
0100
0001
0010
0100
1000
0100
0010
,
0001
1000
0001
1000
0001
1000
0001
0010
0001
0100
1000
0010
0100
1000
0010
0001
,
0010
0100
1000
0001
0100
0001
1000
0001
1000
0010
1000
0100
0010
0001
0010
0100
,
1000
0001
1000
0001
0010
0001
0010
0100
1000
0001
0100
0001
1000
0010
0100
0010
,
1000
0010
1000
0100
0001
1000
0001
0100
0001
0100
0001
0010
0100
1000
0100
0010
,
0001
1000
0001
1000
0001
1000
0001
0010
0001
0100
1000
0010
0100
1000
0010
0001
,
0010
0100
1000
0001
0100
0001
1000
0001
1000
0010
1000
0100
0010
0001
0010
0100
,
1000
0001
1000
0001
0010
0001
0010
0100
1000
0001
0100
0001
1000
0010
0100
0010
,
1000
0010
1000
0100
0001
1000
0001
0100
0001
0100
0001
0010
0100
1000
0100
0010
,
0001
1000
0001
1000
0001
1000
0001
0010
0001
0100
1000
0010
0100
1000
0010
0001
,
0010
0100
1000
0001
0100
0001
1000
0001
1000
0010
1000
0100
0010
0001
0010
0100
,
0001
1000
0001
1000
0001
0100
0001
0100
0001
1000
0001
0100
0001
1000
0001
0100
,
1000
0010
1000
0010
0100
0001
0100
0001
0100
0010
1000
0001
0100
0010
1000
0010
,
0001
1000
0001
1000
0001
0100
0001
0100
0001
1000
0001
0100
0001
1000
0001
0100
,
1000
0010
1000
0010
0100
0001
0100
0001
0100
0010
1000
0001
0100
0010
1000
0010
,
0100
1000
0100
0010
0100
1000
0100
0001
0100
0010
1000
0010
1000
0010
1000
0100
,
0001
1000
0010
0100
0001
1000
0010
0100
0001
1000
0100
1000
0010
1000
0010
0100
,
0001
0010
0100
1000
0001
0010
0100
1000
0001
0100
0010
0100
0001
0100
0001
1000
,
0010
0001
0100
1000
0010
0001
0100
1000
0001
0010
0001
1000
0001
1000
0001
0100
,
1000
0100
0001
0010
1000
0100
0001
0010
0100
0001
1000
0010
1000
0010
1000
0100
,
0010
0100
0001
1000
0010
0100
0001
1000
0010
0001
0010
1000
0100
1000
0100
1000
,
0010
0001
0100
0001
0100
0001
0010
0001
0010
0100
1000
0100
0010
0001
1000
0001
,
1000
0010
1000
0010
1000
0001
1000
0100
0010
0001
0010
0100
1000
0100
0010
0001
,
0200
0000
0000
0000
0000
0000
0000
0000
0320
0000
0000
0000
0032
0000
0000
0000
0000
0000
0000
0003
0002
0000
0000
0000
2003
0000
0000
3000
2000
0000
0000
0000
,
3200
0000
0000
0000
0000
0000
0000
0300
0200
0000
0000
0000
0320
0000
0000
0000
0000
0000
0000
0030
0020
0000
0000
0000
0230
0000
0000
0000
0302
0000
0000
0003
,
0002
0000
0203
2300
0000
3200
2300
3200
,
2300
0000
3200
2300
0000
3200
2300
3200
,
0320
0032
0023
2030
0000
3020
0000
0230
,
0302
2003
3002
0203
0000
0320
0000
0230
,
2300
0000
3200
2300
0000
3200
0000
0302
,
0000
2003
3002
2003
3200
0320
0032
0203
,
0320
0000
0230
0320
0000
0230
2300
3002
,
2003
0000
3002
2003
0000
3002
2003
3200
,
0320
0032
0000
2003
0000
3020
0000
2030
,
0000
3002
0000
0203
0000
0320
0000
0230
,
2300
3020
0032
0203
0302
0203
2300
3020
,
0000
0000
0000
0000
0230
0000
0000
0000
0000
0000
0000
0000
0302
0000
0000
0000
0000
0000
0000
0000
0203
0000
0000
0000
0000
0000
0000
0300
0200
0000
0000
0000
,
2300
0000
0000
0000
3002
0203
2300
3020
,
0000
0000
0230
0320
,
0130
1000
0001
0100
1000
0001
0010
0100
1000
0100
1000
0001
1000
0010
0100
0001
,
0010
0100
0001
0100
0010
1000
0010
0001
0010
0001
0010
0100
0010
1000
0001
0010
,
0100
1000
0001
0100
1000
0001
0010
0100
1000
0100
1000
0001
1000
0010
0100
0001
,
0010
0100
0001
0100
0010
1000
0010
0001
0010
0001
0010
0100
0010
1000
0001
0010
,
0100
0000
0001
0000
1000
0000
0001
1000
0000
0000
1000
0000
0001
0000
1000
0001
,
0000
0000
1000
0000
0010
0000
1000
0010
0000
0000
0001
0000
0100
0000
0001
0100
,
0000
0000
0100
0000
0010
0000
0010
0100
0000
0000
0010
0000
0100
0000
0100
0010
,
0000
0000
1000
0000
0010
0000
0010
1000
0000
0000
0001
0000
0100
0000
0100
0001
,
0001
0010
1000
0010
0001
0100
1000
0001
0010
0100
1000
0001
0010
0001
1000
0010
,
0100
1000
0001
1000
0100
0010
0001
0100
0001
0010
1000
0010
0001
0100
1000
0001
,
0010
0100
1000
0001
0010
0001
1000
0010
0100
1000
0001
1000
0100
0010
0001
0100
,
0001
0010
1000
0010
0001
0100
1000
0001
0010
0100
1000
0001
0010
0001
1000
0200
,
0000
0000
0000
0000
0000
0000
0000
0300
0010
0010
0010
1000
1000
0001
1000
0010
,
2002
0000
0000
0000
0000
3003
0000
0000
;

//---------------dance-single - Copied from----------------
#NOTES:
     dance-single:
     Copied from:
     Challenge:
     13:
     1.000,1.000,1.000,0.573,1.000,1285.000,309.000,101.000,0.000,0.000:
0000
0000
0000
0000
,
1010
0000
0001
0000
1100
0000
0001
0100
0001
0000
1000
0000
0101
0000
1000
0001
,
1000
0000
0010
0000
1100
0000
0010
0100
0010
0000
0100
0000
0011
0000
0100
0010
,
0100
0000
0001
0000
1010
0000
0100
0001
1000
0000
0001
0000
1100
0000
0001
0100
,
0001
0000
1000
0000
0011
0000
1000
0001
1000
0000
0010
0000
1100
0000
0010
0100
,
0010
0000
0001
0000
1100
0000
0001
0100
0001
0000
1000
0000
0101
0000
1000
0001
,
1000
0000
0010
0000
1100
0000
0010
0100
0010
0000
0100
0000
0011
0000
0100
0010
,
0100
0000
0001
0000
1010
0000
0100
0001
1000
0000
0001
0000
1100
0000
0001
0100
,
0001
0000
1000
0000
0011
0000
1000
0001
1000
0000
0010
0000
1100
0000
0010
0100
,
0010
0000
0101
0000
1010
0000
0001
1000
0000
0000
1100
0000
0101
0000
1000
0001
,
0000
0000
1100
0000
0011
0000
1000
0010
0000
0000
1001
0000
0101
0000
0001
0100
,
0000
0000
0110
0000
1010
0000
0010
0100
0000
0000
1010
0000
0110
0000
0100
0010
,
0000
0000
1001
0000
0011
0000
0010
1000
0000
0000
0101
0000
1100
0000
0100
0001
,
0000
0000
1001
0000
0101
0000
1000
0001
0000
0000
1100
0000
1010
0000
1000
0010
,
0000
0000
0101
0000
0101
0000
0001
0100
0000
0000
0110
0000
0011
0000
0010
0100
,
0000
0000
1010
0000
0101
0000
0100
0010
0000
0000
1001
0000
0011
0000
0010
1000
,
0000
0000
1001
0000
1100
0000
0100
0001
0000
0000
1001
0000
1010
0000
0001
0200
,
0000
0000
0000
0000
0000
0000
0300
0000
0010
0010
0010
1000
1000
0001
1000
0010
,
1010
0001
1000
0001
0110
0001
0010
0100
1010
0001
0100
0001
1100
0010
0100
0010
,
1001
0010
1000
0100
0011
1000
0001
0100
1001
0100
0001
0010
0101
1000
0100
0010
,
0101
1000
0001
1000
0011
1000
0001
0010
1001
0100
1000
0010
0101
1000
0010
0001
,
1010
0100
1000
0001
0110
0001
1000
0001
1100
0010
1000
0100
1010
0001
0010
0100
,
1010
0001
1000
0001
0110
0001
0010
0100
1010
0001
0100
0001
1100
0010
0100
0010
,
1001
0010
1000
0100
0011
1000
0001
0100
1001
0100
0001
0010
0101
1000
0100
0010
,
0101
1000
0001
1000
0011
1000
0001
0010
1001
0100
1000
0010
0101
1000
0010
0001
,
1010
0100
1000
0001
0110
0001
1000
0001
1100
0010
1000
0100
1010
0001
0010
0100
,
0020
0001
0100
1000
0100
0001
1000
0001
0230
0010
0001
1000
0310
0000
0001
0010
,
1001
0000
0010
0001
1010
0000
0001
1000
0011
0000
1000
0100
1001
0100
0010
0001
,
1100
0001
0100
1000
0101
0010
0001
0010
0101
1000
0001
0010
0101
1000
0010
0100
,
1010
0001
0100
0010
0101
1000
0001
0010
1100
0010
0001
0010
1001
0010
0100
1000
,
0020
0001
0100
1000
0100
0001
1000
0001
0230
0010
0001
1000
0310
0000
0001
0010
,
1001
0000
0010
0001
1010
0000
0001
1000
0011
0000
1000
0100
1001
0100
0010
0001
,
1100
0001
0100
1000
0101
0010
0001
0010
0101
1000
0001
0010
0101
1000
0010
0100
,
1010
0001
0100
0010
0101
1000
0001
0010
1100
0010
0001
0010
1001
0010
0100
1000
,
0020
0000
0000
0000
0000
0000
0230
0000
0320
0000
0030
0000
0000
0000
0100
0001
,
1100
0000
0001
0000
1100
0000
0010
0001
1010
0000
0010
0000
0101
0000
0010
0000
,
0101
1000
1100
1000
0101
1000
0110
1000
,
1100
0101
1001
1100
1001
0101
0011
1001
,
0020
0001
0100
1000
0100
0001
1000
0001
0230
0010
0001
1000
0310
0000
0001
0010
,
1001
0000
0010
0001
1010
0000
0001
1000
0011
0000
1000
0100
1001
0100
0010
0001
,
1100
0001
0100
1000
0101
0010
0001
0010
0101
1000
0001
0010
0101
1000
0010
0100
,
1010
0001
0100
0010
0101
1000
0001
0010
1100
0010
0001
0010
1001
0010
0100
1000
,
0010
0000
0000
0001
0000
0000
0100
0000
1000
0000
0000
0100
0000
0000
0010
0000
0001
0000
0000
0010
0000
0000
0100
0000
0010
0000
0000
1000
0000
0000
0100
0000
,
0001
0000
0000
0001
0000
0000
0010
0000
1000
0000
0000
1000
0000
0000
0100
0000
0001
0000
0000
0010
0000
0000
0010
0000
1000
0000
0000
0100
0000
0000
0100
0000
,
1001
0010
0100
1000
0001
0010
0100
1000
0100
0010
0101
1000
0001
0100
0010
0001
1100
0010
1000
0100
0010
0001
1000
0100
0001
0010
0101
1000
0001
0010
0100
1000
,
0101
0010
0001
1000
0001
0100
0010
0001
0100
0010
1001
0100
0010
0001
1000
0100
1001
0010
0100
1000
0001
0010
0100
1000
0010
0001
0010
0100
0010
1000
0100
0001
,
1010
0001
1000
0001
0110
0001
0010
0100
1010
0001
0100
0001
1100
0010
0100
0010
,
1001
0010
1000
0100
0011
1000
0001
0100
1001
0100
0001
0010
0101
1000
0100
0010
,
0101
1000
0001
1000
0011
1000
0001
0010
1001
0100
1000
0010
0101
1000
0010
0001
,
1010
0100
1000
0001
0110
0001
1000
0001
1100
0010
1000
0100
1010
0001
0010
0100
,
1010
0001
1000
0001
0110
0001
0010
0100
1010
0001
0100
0001
1100
0010
0100
0010
,
1001
0010
1000
0100
0011
1000
0001
0100
1001
0100
0001
0010
0101
1000
0100
0010
,
0101
1000
0001
1000
0011
1000
0001
0010
1001
0100
1000
0010
0101
1000
0010
0001
,
1010
0100
1000
0001
0110
0001
1000
0001
1100
0010
1000
0100
1010
0001
0010
0100
,
1010
0001
1000
0001
0110
0001
0010
0100
1010
0001
0100
0001
1100
0010
0100
0010
,
1001
0010
1000
0100
0011
1000
0001
0100
1001
0100
0001
0010
0101
1000
0100
0010
,
0101
1000
0001
1000
0011
1000
0001
0010
1001
0100
1000
0010
0101
1000
0010
0001
,
1010
0100
1000
0001
0110
0001
1000
0001
1100
0010
1000
0100
1010
0001
0010
0100
,
1010
0001
1000
0001
0110
0001
0010
0100
1010
0001
0100
0001
1100
0010
0100
0010
,
1001
0010
1000
0100
0011
1000
0001
0100
1001
0100
0001
0010
0101
1000
0100
0010
,
0101
1000
0001
1000
0011
1000
0001
0010
1001
0100
1000
0010
0101
1000
0010
0001
,
1010
0100
1000
0001
0110
0001
1000
0001
1100
0010
1000
0100
1010
0001
0010
0100
,
0011
1000
0011
1000
0011
0100
0011
0100
0011
1000
0011
0100
0011
1000
0011
0100
,
1001
0010
1001
0010
1100
0001
1100
0001
1100
0010
1100
0001
1100
0010
1100
0010
,
0101
1000
0101
1000
0011
0100
0011
0100
0011
1000
0011
0100
0011
1000
0011
0100
,
1001
0010
1001
0010
1100
0001
1100
0001
1100
0010
1100
0001
1100
0010
1001
0010
,
0101
1000
0100
0010
0101
1000
0100
0001
1100
0010
1000
0010
1100
0010
1000
0100
,
0011
1000
0010
0100
0011
1000
0010
0100
0011
1000
0100
1000
0011
1000
0010
0100
,
1001
0010
0100
1000
0101
0010
0100
1000
0011
0100
0010
0100
1001
0100
0001
1000
,
0110
0001
0100
1000
0110
0001
0100
1000
0101
0010
0001
1000
0101
1000
0001
0100
,
1001
0100
0001
0010
1001
0100
0001
0010
1100
0001
1000
0010
1100
0010
1000
0100
,
0011
0100
0001
1000
0011
0100
0001
1000
0110
0001
0010
1000
0110
1000
0100
1000
,
0110
0001
1100
0001
1010
0001
0110
0001
1010
0100
1001
0100
1010
0001
1010
0001
,
1100
0010
1001
0010
1100
0001
1010
0100
1010
0001
1010
0100
1001
0100
1010
0001
,
0200
0000
0000
0000
0000
0000
0000
0000
0320
0000
0000
0000
0032
0000
0000
0000
0000
0000
0000
0003
0002
0000
0000
0000
2003
0000
0000
3000
2000
0000
0000
0000
,
3200
0000
0000
0000
0000
0000
0000
0300
0200
0000
0000
0000
0320
0000
0000
0000
0000
0000
0000
0030
0020
0000
0000
0000
0230
0000
0000
0000
0302
0000
0000
0003
,
0002
0000
0203
2300
0000
3200
2300
3200
,
2300
0000
3200
2300
0000
3200
2300
3200
,
0320
0032
0023
2030
0000
3020
0000
0230
,
0302
2003
3002
0203
0000
0320
0000
0230
,
2300
0000
3200
2300
0000
3200
0000
0302
,
0000
2003
3002
2003
3200
0320
0032
0203
,
0320
0000
0230
0320
0000
0230
2300
3002
,
2003
0000
3002
2003
0000
3002
2003
3200
,
0320
0032
0000
2003
0000
3020
0000
2030
,
0000
3002
0000
0203
0000
0320
0000
0230
,
2300
3020
0032
0203
0302
0203
2300
3020
,
0000
0000
0000
0000
0230
0000
0000
0000
0000
0000
0000
0000
0302
0000
0000
0000
0000
0000
0000
0000
0203
0000
0000
0000
0000
0000
0000
0300
0200
0000
0000
0000
,
2300
0000
0000
0000
3002
0203
2300
3020
,
0000
0000
0230
0320
,
0130
1000
0001
0100
1000
0001
0010
0100
1000
0100
1000
0001
1000
0010
0100
0001
,
0010
0100
0001
0100
0010
1000
0010
0001
0010
0001
0010
0100
0010
1000
0001
0010
,
0100
1000
0001
0100
1000
0001
0010
0100
1000
0100
1000
0001
1000
0010
0100
0001
,
0010
0100
0001
0100
0010
1000
0010
0001
0010
0001
0010
0100
0010
1000
0001
0010
,
0100
0000
0101
0000
1010
0000
0001
1000
0000
0000
1100
0000
0101
0000
1000
0001
,
0000
0000
1100
0000
0011
0000
1000
0010
0000
0000
1001
0000
0101
0000
0001
0100
,
0000
0000
0110
0000
1010
0000
0010
0100
0000
0000
1010
0000
0110
0000
0100
0010
,
0000
0000
1001
0000
0011
0000
0010
1000
0000
0000
0101
0000
1100
0000
0100
0001
,
1001
0010
1000
0010
1001
0100
1000
0001
1010
0100
1000
0001
0110
0001
1000
0010
,
0101
1000
0001
1000
0101
0010
0001
0100
1001
0010
1000
0010
1001
0100
1000
0001
,
1010
0100
1000
0001
0110
0001
1000
0010
0101
1000
0001
1000
0101
0010
0001
0100
,
1001
0010
1000
0010
1001
0100
1000
0001
1010
0100
1000
0001
0110
0001
1000
0200
,
0000
0000
0000
0000
0000
0000
0000
0300
0010
0010
0010
1000
1000
0001
1000
0010
,
2002
0000
0000
0000
0000
3003
0000
0000
;
