#TITLE:Connect;
#SUBTITLE:;
#ARTIST:Plazma feat. Nahoko;
#TITLETRANSLIT:;
#SUBTITLETRANSLIT:;
#ARTISTTRANSLIT:;
#CREDIT:Hazelnut;
#BANNER:../bn.png;
#BACKGROUND:../bg.png;
#LYRICSPATH:;
#CDTITLE:;
#MUSIC:Nightcore - Connect.ogg;
#OFFSET:-0.464;
#SAMPLESTART:183.185;
#SAMPLELENGTH:18.880;
#SELECTABLE:YES;
#DISPLAYBPM:216.000;
#BPMS:0.000=216.000;
#STOPS:;
#BGCHANGES:;
// cache tags:
#FIRSTBEAT:4.000;
#LASTBEAT:783.000;
#SONGFILENAME:Songs/Cirque du Zonda/Zaia - Connect/Connect.sm;
#HASMUSIC:1;
#HASBANNER:1;
#MUSICLENGTH:218.256;
// end cache tags

//---------------dance-single - Zaia - 18.1----------------
#NOTES:
     dance-single:
     Zaia - 18.1:
     Challenge:
     18:
     1.000,1.000,0.027,0.192,1.000,2543.000,6.000,42.000,55.000,0.000:
0000
0000
0000
0000
,
1000
0100
0010
0001
1000
0001
0100
0010
0100
0001
1000
0100
1000
0001
0010
0001
,
1000
0010
0100
0001
1000
0001
0100
0001
1000
0100
0010
0001
1000
0001
0100
0010
,
0100
0001
1000
0001
0010
0001
1000
0010
1000
0001
0100
0010
1000
0001
1000
0100
,
0010
0100
1000
0001
1000
0010
0100
0010
1000
0001
1000
0100
0010
0001
1000
0001
,
0100
0010
1000
0001
0100
0001
1000
0100
,
0010
0100
1000
0010
0100
0001
0010
0001
,
1000
0010
1000
0000
0001
0010
0001
0000
1000
0100
1000
0000
0001
0100
0001
0000
,
1000
0100
0010
0001
1000
0001
0010
0001
1000
0010
0100
0010
1000
0001
1000
0010
,
0200
0000
0300
0001
0100
0020
0000
1030
,
0100
0000
0010
0000
0000
0000
0022
0033
0000
0000
2002
3003
0000
0000
2020
3030
,
0000
0000
0000
0100
0001
1000
0000
0100
,
0010
0001
1000
0010
0000
0100
0001
1000
,
0020
0000
0030
0100
0001
0020
0000
0130
,
1000
0000
0010
0000
0000
0000
2020
3030
0000
0000
2002
3003
0000
0000
2200
3300
,
0000
0000
0000
0000
0000
0100
0010
0002
,
0000
0000
0000
0000
0000
0000
0000
0000
0000
0000
0000
0000
0000
0000
0000
0000
0000
0000
0000
0000
0000
0000
0000
0000
0000
0000
0000
0000
0000
0000
0000
0000
0003
0000
0000
0000
0000
0000
0000
0000
000M
0000
0000
0000
0000
0000
0000
0000
000M
0000
0000
0000
0000
0000
0000
0000
000M
0000
0000
0000
0000
0000
0000
000M
,
0000
0000
0000
0000
0000
0000
000M
0000
0000
0000
0000
0000
0000
000M
0000
0000
0000
0000
0000
000M
0000
0000
0000
0000
0000
000M
0000
0000
0000
0000
0000
000M
0000
0000
0000
0000
000M
0000
0000
0000
0000
000M
0000
0000
0000
0000
000M
0000
0000
0000
0000
000M
0000
0000
0000
000M
0000
0000
0000
000M
0000
0000
0000
000M
,
0000
0000
0000
000M
0000
0000
000M
0000
0000
000M
0000
0000
000M
0000
0000
000M
0000
0000
000M
0000
0000
000M
0000
000M
0000
000M
0000
000M
0000
000M
0000
000M
0000
000M
0000
000M
0000
000M
0000
000M
000M
000M
000M
000M
000M
000M
000M
000M
000M
000M
000M
000M
000M
000M
000M
000M
0000
0000
0000
0000
0000
0000
0000
0000
,
1000
0100
1000
0001
1000
0100
0010
0001
1000
0001
0100
0010
0100
0001
1000
0100
,
1000
0001
0100
0010
0100
0001
1000
0001
0010
0100
1000
0001
1000
0010
1000
0001
,
0100
0010
0100
0001
1000
0100
1000
0001
0010
0100
1000
0001
1000
0010
0100
0010
,
1000
0001
1000
0100
0010
0100
1000
0001
0100
0010
1000
0001
0100
0010
0100
0001
,
1000
0001
0010
0100
1000
0100
0010
0001
1000
0010
0100
0001
1000
0100
1000
0001
,
1000
0010
0100
0001
0100
0010
1000
0001
1000
0100
0010
0100
1000
0001
1000
0010
,
0100
0001
1000
0100
1000
0001
0010
0100
0010
0001
1000
0001
0100
0001
1000
0100
,
0010
0000
0001
0000
0000
0000
1000
0000
0000
0010
0100
0000
0001
0000
1000
0000
,
0001
0010
0001
1000
0100
1000
0001
1000
0010
0100
0001
1000
0001
0010
0100
0010
,
0001
1000
0001
0100
0010
1000
0001
0010
0001
1000
0010
1000
0001
0010
0100
1000
,
0001
1000
0010
0100
0010
1000
0001
1000
0100
0010
0100
1000
0001
0100
0010
1000
,
0001
0100
0001
1000
0100
1000
0001
0010
0100
1000
0001
1000
0010
0100
0010
1000
,
0001
0010
0001
1000
0100
0010
0001
1000
0001
0100
0010
1000
0001
0010
0001
1000
,
0010
1000
0001
1000
0100
0010
0001
1000
0001
0100
0010
0100
0001
1000
0001
0010
,
0100
1000
0001
0100
0001
1000
0100
1000
0001
0100
0010
1000
0001
1000
0100
0010
,
0100
1000
0001
1000
0010
0100
0001
1000
0100
0000
1000
0000
0001
0000
1000
0000
,
0010
0000
0100
0000
0001
0020
0000
0230
,
0000
0300
1000
0002
0000
0203
0000
0320
,
0000
0030
2000
0000
3100
0020
0000
0032
,
0000
0000
0000
0003
0000
0020
0000
0130
,
1000
0000
0001
0000
0001
1000
0000
0100
,
0000
1000
0001
0100
0000
0010
0000
1000
,
0002
0000
2003
0000
,
3200
0000
0320
0000
,
0031
0100
0001
1000
0010
1000
0100
0010
,
0001
1000
0001
0100
0010
1000
0100
0010
,
0001
1000
0001
1000
0100
1000
0010
0100
,
0001
1000
0001
1000
0100
1000
0010
0100
,
0001
1000
0001
0010
0100
1000
0010
0100
,
0001
1000
0001
1000
0010
1000
0100
0010
,
0002
0000
0000
0203
0000
0000
0320
0000
,
M030
000M
00M0
0M00
000M
00M0
0M00
0000
,
0001
0010
0100
1000
0001
1000
0100
0010
0001
1000
0100
1000
0001
0100
0010
1000
,
0001
1000
0100
1000
0001
0010
0100
1000
0001
0100
0010
1000
0001
0010
0100
0010
,
0001
1000
0010
1000
0001
0100
0001
1000
0100
0010
0100
1000
0001
0100
0010
1000
,
0001
1000
0010
0100
0001
1000
0001
0100
0010
1000
0001
0100
0001
1000
0010
0100
,
0001
1000
0100
1000
0001
1000
0010
0100
0001
1000
0100
1000
0001
0100
0010
0100
,
0001
1000
0001
0010
0100
0010
0001
1000
0001
0100
0010
1000
0001
1000
0100
1000
,
0001
0100
0010
0100
0001
1000
0010
1000
0001
0010
0100
0010
0001
1000
0010
0100
,
0001
0100
0010
1000
0001
1000
0100
1000
0010
1000
0001
1000
0100
0010
0001
1000
,
0010
0100
0010
1000
0001
1000
0010
0100
0001
1000
0010
1000
0001
0010
0100
1000
,
0001
1000
0010
1000
0001
0100
0010
1000
0001
0010
0100
1000
0001
0100
0010
0100
,
0001
1000
0100
1000
0001
0010
0001
1000
0001
0100
0010
1000
0001
1000
0100
0010
,
0001
0010
0100
1000
0001
1000
0010
1000
0100
1000
0001
1000
0010
0100
0001
1000
,
0100
1000
0001
0100
0001
0010
0001
1000
,
0010
1000
0100
0010
0001
0100
0001
1000
,
0001
0010
0001
0000
1000
0100
1000
0000
0001
0100
0010
1000
0001
1000
0100
1000
,
0002
0000
0000
0003
,
1000
0100
0010
0001
1000
0001
0100
0010
1000
0100
0010
0100
1000
0001
0100
0010
,
1000
0100
0010
0100
1000
0001
0100
0010
0100
0001
1000
0100
0010
0001
1000
0001
,
0100
0010
0100
0001
1000
0010
1000
0001
0010
0001
0100
0010
1000
0001
1000
0001
,
0100
0010
0100
0001
1000
0100
0010
0100
1000
0001
0100
0010
1000
0001
0010
0100
,
1000
0001
0100
0010
1000
0001
1000
0100
0010
0001
0100
0010
1000
0001
1000
0100
,
0010
0001
0100
0010
1000
0001
1000
0100
0010
0001
1000
0010
0100
0001
1000
0100
,
0010
0100
1000
0001
0010
0100
1000
0001
1000
0010
1000
0001
0010
0100
1000
0100
,
0010
0001
1000
0001
1000
0010
0100
0010
1000
0001
1000
0100
0010
0001
1000
0001
,
1000
0010
0100
0001
1000
0001
0010
0100
1000
0010
0100
0010
1000
0001
0010
0100
,
1000
0010
0100
0010
1000
0001
0010
0100
0010
0001
1000
0010
0100
0001
1000
0001
,
0010
0100
0010
0001
1000
0100
1000
0001
0100
0001
0010
0100
1000
0001
1000
0001
,
0010
0100
0010
0001
1000
0010
0100
0010
1000
0001
0010
0100
1000
0001
0100
0010
,
1000
0001
0010
0100
1000
0001
1000
0010
0100
0001
0100
0001
1000
0001
1000
0001
,
1000
0100
1000
0100
0010
0001
1000
0001
0100
0010
1000
0010
0100
0001
1000
0001
,
1000
0100
1000
0001
0100
0001
1000
0010
1000
0001
0010
0100
1000
0001
0010
0001
,
2000
0000
0000
0000
0000
0000
0000
0000
0000
0000
0000
0000
0000
0000
0000
3000
,
0001
0100
0010
1000
0001
1000
0100
1000
0001
0100
0001
1000
0100
0010
0001
1000
,
0001
0100
0010
0100
0001
1000
0001
0010
0100
1000
0001
0100
0001
1000
0100
0010
,
0100
1000
0001
1000
0010
0100
0001
1000
0100
1000
0001
0100
0010
0100
0001
1000
,
0001
0010
0100
0010
0001
1000
0010
0100
0001
1000
0001
0010
0100
1000
0001
0100
,
0010
1000
0001
1000
0100
0010
0001
1000
0010
1000
0001
0010
0100
1000
0001
1000
,
0010
0100
0001
1000
0100
1000
0001
0010
0100
0010
0001
1000
0001
0100
0010
0100
,
0001
1000
0010
0100
0001
1000
0100
1000
0001
0100
0001
1000
0100
0010
0001
1000
,
0001
0010
0100
0010
0001
1000
0001
1000
,
0001
0100
0001
1000
0001
1000
0100
0010
0100
1000
0001
0100
0001
1000
0001
0010
,
0100
1000
0001
1000
0010
0100
0010
1000
0001
1000
0100
0010
0001
1000
0010
1000
,
0001
0100
0010
1000
0001
0010
0100
1000
0001
1000
0010
0100
0010
1000
0001
0010
,
0100
1000
0001
0100
0010
1000
0010
0100
0001
1000
0001
0010
0100
1000
0001
0010
,
0001
1000
0010
0100
0010
1000
0001
0010
0001
1000
0001
0010
0100
0010
0001
1000
,
0010
0100
0010
1000
0001
0100
0001
1000
0100
0010
0001
1000
0010
0100
0001
1000
,
0100
0010
0001
1000
0001
0010
0100
1000
0001
1000
0010
0100
0001
1000
0001
0100
,
0010
1000
0001
1000
0100
0010
0100
1000
0001
1000
0010
0100
0001
1000
0020
0000
,
0000
0000
0000
0000
0130
0001
1000
0100
0010
0100
1000
0001
1000
0010
0100
0001
,
1000
0100
1000
0001
0100
0010
1000
0001
0010
0100
1000
0100
0010
0001
1000
0010
,
1000
0001
0010
0001
1000
0001
0100
0010
1000
0001
0010
0100
0010
0001
1000
0001
,
0100
0010
1000
0001
1000
0100
1000
0001
0100
0001
1000
0010
0100
0001
1000
0001
,
0010
0100
1000
0001
0010
0001
1000
0010
0100
0001
0100
0010
1000
0001
0010
0001
,
1000
0100
1000
0001
0100
0010
1000
0001
1000
0100
0010
0100
1000
0001
1000
0010
,
0100
0001
1000
0001
0100
0010
1000
0001
1000
0100
0010
0001
1000
0001
0100
0010
,
2000
0000
3002
0000
0000
1003
0000
0100
0000
0010
0000
0001
1000
0000
0200
0000
,
1300
0001
0100
0010
0100
0001
1000
0010
1000
0001
0100
0001
1000
0100
0010
0001
,
1000
0001
0100
0001
1000
0010
0100
0001
1000
0100
0010
0001
1000
0010
0100
0010
,
1000
0001
0010
0001
1000
0100
1000
0001
0100
0010
0100
0001
1000
0100
0010
0001
,
1000
0001
0010
0100
1000
0001
1000
0100
0010
0001
1000
0100
1000
0001
0010
0100
,
1000
0001
0100
0001
1000
0001
0010
0100
1000
0001
0100
0001
1000
0100
0010
0100
,
1000
0001
1000
0010
0100
0010
1000
0001
1000
0100
0010
0001
1000
0001
0100
0001
,
1000
0100
0010
0100
1000
0001
0010
0001
1000
0010
0100
0010
1000
0001
0010
0100
,
1000
0001
0100
0010
0100
0001
1000
0100
1000
0001
1000
0001
0100
0010
1000
0001
,
0010
0100
0010
0001
1000
0001
0010
0100
1000
0001
0010
0001
1000
0010
0100
0001
,
1000
0001
0010
0001
1000
0100
0010
0001
1000
0010
0100
0001
1000
0100
0010
0100
,
1000
0001
0100
0001
1000
0010
1000
0001
1000
0100
0010
0001
1000
0001
0100
0010
,
1000
0001
0010
0100
0010
0001
1000
0010
1000
0001
0010
0100
0010
0001
1000
0100
,
1000
0010
0100
0001
1000
0100
0010
0100
,
1000
0010
0100
0001
1000
0100
1000
0010
,
0100
0001
0100
0000
0010
1000
0010
0000
1000
0100
0010
0001
1000
0001
1000
0010
,
0200
0000
0000
0300
,
0001
0010
0100
1000
0001
1000
0010
0100
0001
0010
0100
0010
0001
1000
0010
0100
,
0001
0010
0100
0010
0001
1000
0010
0100
0010
1000
0001
0010
0100
1000
0001
1000
,
0010
0100
0010
1000
0001
0100
0001
1000
0100
1000
0010
0100
0001
1000
0001
1000
,
0010
0100
0010
1000
0001
0010
0100
0010
0001
1000
0010
0100
0001
1000
0100
0010
,
0001
1000
0010
0100
0001
1000
0001
0010
0100
1000
0010
0100
0001
1000
0001
0010
,
0100
1000
0010
0100
0001
1000
0001
0010
0100
1000
0001
0100
0010
1000
0001
0010
,
0100
0010
0001
1000
0100
0010
0001
1000
0001
0100
0001
1000
0100
0010
0001
0010
,
0100
1000
0001
1000
0001
0100
0010
0100
0001
1000
0001
0010
0100
1000
0001
1000
,
0001
0100
0010
1000
0001
1000
0100
0010
0001
0100
0010
0100
0001
1000
0100
0010
,
0001
0100
0010
0100
0001
1000
0100
0010
0100
1000
0001
0100
0010
1000
0001
1000
,
0100
0010
0100
1000
0001
0010
0001
1000
0010
1000
0100
0010
0001
1000
0001
1000
,
0100
0010
0100
1000
0001
0100
0010
0100
0001
1000
0100
0010
0001
1000
0010
0100
,
0001
1000
0100
0010
0001
1000
0001
0100
0010
1000
0010
1000
0001
1000
0001
1000
,
0001
0010
0001
0010
0100
1000
0001
1000
0010
0100
0001
0100
0010
1000
0001
1000
,
0001
0010
0001
1000
0010
1000
0001
0100
0001
1000
0100
0010
0001
1000
0100
1000
,
0001
0100
0001
1000
0001
1000
0010
1000
,
0001
0100
0010
1000
0001
1000
0100
1000
0001
0100
0001
1000
0100
0010
0001
1000
,
0001
0100
0010
0100
0001
1000
0001
0010
0100
1000
0001
0100
0001
1000
0100
0010
,
0100
1000
0001
1000
0010
0100
0001
1000
0100
1000
0001
0100
0010
0100
0001
1000
,
0001
0010
0100
0010
0001
1000
0010
0100
0001
1000
0001
0010
0100
1000
0001
0100
,
0010
1000
0001
1000
0100
0010
0001
1000
0010
1000
0001
0010
0100
1000
0001
1000
,
0010
0100
0001
1000
0100
1000
0001
0010
0100
0010
0001
1000
0001
0100
0010
0100
,
0001
1000
0010
0100
0001
1000
0100
1000
0001
0100
0001
1000
0100
0010
0001
1000
,
0010
0100
0010
1000
0001
0010
0001
1000
0100
0010
0001
1000
0010
0100
0001
1000
,
0001
1000
0010
0100
0001
1000
0100
0010
0100
1000
0001
0100
0001
1000
0001
0010
,
0100
1000
0001
1000
0010
0100
0010
1000
0001
1000
0100
0010
0001
1000
0010
1000
,
0001
0100
0010
1000
0001
0010
0100
1000
0001
1000
0010
0100
0010
1000
0001
0010
,
0100
1000
0001
0100
0010
1000
0010
0100
0001
1000
0001
0010
0100
1000
0001
0010
,
0001
1000
0010
0100
0010
1000
0001
0010
0001
1000
0001
0010
0100
0010
0001
1000
,
0010
0100
0010
1000
0001
0100
0001
1000
0100
0010
0001
1000
0010
0100
0001
1000
,
0001
0100
0010
0100
0001
1000
0010
1000
,
0001
0010
0100
0000
1000
0010
0100
0000
0001
0010
0100
1000
0001
0100
0010
1000
,
0001
0010
0001
0100
0001
1000
0010
1000
,
0100
0010
0100
1000
0010
0100
0001
0100
,
0010
1000
0001
1000
0100
0010
0001
1000
,
0001
0100
0010
1000
0010
0100
0010
1000
,
0001
0010
0001
0100
0001
1000
0100
1000
,
0010
1000
0001
0010
0100
0010
0001
0100
,
0010
1000
0010
1000
0001
0010
0001
0010
,
0100
1000
0100
1000
0001
1000
0001
1000
,
0001
0100
0001
0000
1000
0010
1000
0000
0001
0010
0100
1000
0001
1000
0010
1000
,
0002
0000
0000
0000
,
1003
0010
0100
0001
1000
0001
0010
0100
1000
0010
0100
0010
1000
0001
0010
0100
,
1000
0010
0100
0010
1000
0001
0010
0100
0010
0001
1000
0010
0100
0001
1000
0001
,
0010
0100
0010
0001
1000
0100
1000
0001
0100
0001
0010
0100
1000
0001
1000
0001
,
0010
0100
0010
0001
1000
0010
0100
0010
1000
0001
0010
0100
1000
0001
0100
0010
,
1000
0001
0010
0100
1000
0001
1000
0010
0100
0001
0010
0100
1000
0001
1000
0010
,
0100
0001
0010
0100
1000
0001
1000
0010
0100
0001
1000
0100
0010
0001
1000
0010
,
0100
0010
1000
0001
0100
0010
1000
0001
1000
0100
1000
0001
0100
0010
1000
0010
,
0100
0001
1000
0001
1000
0100
0010
0100
1000
0001
1000
0010
0100
0001
1000
0001
,
1000
0100
0010
0001
1000
0001
0100
0010
1000
0100
0010
0100
1000
0001
0100
0010
,
1000
0100
0010
0100
1000
0001
0100
0010
0100
0001
1000
0100
0010
0001
1000
0001
,
0100
0010
0100
0001
1000
0010
1000
0001
0010
0001
0100
0010
1000
0001
1000
0001
,
0100
0010
0100
0001
1000
0100
0010
0100
1000
0001
0100
0010
1000
0001
0010
0100
,
1000
0001
0100
0010
1000
0001
1000
0100
0010
0001
0010
0001
1000
0001
1000
0001
,
1000
0010
1000
0010
0100
0001
1000
0001
0010
0100
1000
0100
0010
0001
1000
0001
,
0010
0100
1000
0010
1000
0001
0010
0001
,
0100
0010
1000
0000
0001
0010
0100
0000
1000
0001
0100
0010
1000
0001
1000
0001
,
0010
0100
1000
0001
1000
0010
0100
0001
1000
0001
0010
0001
1000
0010
1000
0001
,
1000
0100
0010
0100
1000
0001
1000
0010
1000
0100
0010
0001
1000
0001
0010
0100
,
1000
0010
0100
0001
1000
0010
0100
0001
0010
0100
0010
0001
1000
0100
0010
0001
,
0100
0010
1000
0001
0100
0010
0100
0001
0010
0100
1000
0001
1000
0100
0010
0100
,
1000
0010
0100
0001
1000
0010
0100
0001
1000
0010
0100
0001
0100
0010
1000
0001
,
1000
0100
0010
0100
1000
0001
0010
0100
1000
0001
0100
0001
1000
0100
0010
0100
,
1000
0001
0010
0100
1000
0001
0100
0001
1000
0100
1000
0001
0100
0010
1000
0001
,
0010
0100
0010
0001
1000
0010
1000
0001
0100
0010
1000
0001
0010
0100
1000
0001
,
1000
0001
0010
0100
1000
0001
0100
0010
0100
0001
1000
0100
1000
0001
1000
0010
,
0100
0001
1000
0001
0010
0100
0010
0001
1000
0001
0100
0010
1000
0001
0010
0001
,
1000
0100
0010
0001
1000
0010
0100
0001
1000
0001
0010
0100
1000
0001
1000
0010
,
0100
0001
1000
0100
0010
0100
1000
0001
0010
0001
1000
0010
0100
0001
1000
0010
,
1000
0001
0100
0001
1000
0010
1000
0001
,
0010
0100
0010
0001
1000
0010
0100
0010
,
2000
0000
0000
3000
;

//---------------dance-single - Zaia - 15.9----------------
#NOTES:
     dance-single:
     Zaia - 15.9:
     Hard:
     15:
     1.000,1.000,0.151,0.376,1.000,1910.000,33.000,82.000,55.000,9.000:
0000
0000
0000
0000
,
1000
0000
0001
0000
0100
0001
0100
0000
0010
0000
1000
0000
0001
0010
0001
0000
,
0100
0000
0010
0000
1000
0001
1000
0000
0100
0000
0010
0000
0001
0010
0001
0000
,
1000
0000
0010
0000
0100
0010
0100
0000
0001
0000
1000
0000
0001
0100
0001
0000
,
1000
0000
0100
0000
0010
0001
0010
0000
0100
0000
1000
0000
0001
1000
0001
0000
,
0100
0010
1000
0001
0100
0001
1000
0100
,
0010
0100
1000
0010
0100
0001
0010
0001
,
1000
0010
1000
0000
0001
0010
0001
0000
1000
0100
1000
0000
0001
0100
0001
0000
,
1000
0100
0010
0001
1000
0001
0010
0001
1000
0010
0100
0010
1000
0001
1000
0010
,
0200
0000
0300
0001
0100
0020
0000
1030
,
0100
0000
0010
0000
0000
0000
0022
0033
0000
0000
2002
3003
0000
0000
2020
3030
,
0000
0000
0000
0100
0001
1000
0000
0100
,
0010
0001
1000
0010
0000
0100
0001
1000
,
0020
0000
0030
0100
0001
0020
0000
0130
,
1000
0000
0010
0000
0000
0000
2020
3030
0000
0000
2002
3003
0000
0000
2200
3300
,
0000
0000
0000
0000
0000
0100
0010
0002
,
0000
0000
0000
0000
0000
0000
0000
0000
0000
0000
0000
0000
0000
0000
0000
0000
0000
0000
0000
0000
0000
0000
0000
0000
0000
0000
0000
0000
0000
0000
0000
0000
0003
0000
0000
0000
0000
0000
0000
0000
000M
0000
0000
0000
0000
0000
0000
0000
000M
0000
0000
0000
0000
0000
0000
0000
000M
0000
0000
0000
0000
0000
0000
000M
,
0000
0000
0000
0000
0000
0000
000M
0000
0000
0000
0000
0000
0000
000M
0000
0000
0000
0000
0000
000M
0000
0000
0000
0000
0000
000M
0000
0000
0000
0000
0000
000M
0000
0000
0000
0000
000M
0000
0000
0000
0000
000M
0000
0000
0000
0000
000M
0000
0000
0000
0000
000M
0000
0000
0000
000M
0000
0000
0000
000M
0000
0000
0000
000M
,
0000
0000
0000
000M
0000
0000
000M
0000
0000
000M
0000
0000
000M
0000
0000
000M
0000
0000
000M
0000
0000
000M
0000
000M
0000
000M
0000
000M
0000
000M
0000
000M
0000
000M
0000
000M
0000
000M
0000
000M
000M
000M
000M
000M
000M
000M
000M
000M
000M
000M
000M
000M
000M
000M
000M
000M
0000
0000
0000
0000
0000
0000
0000
0000
,
1000
0100
0010
0100
1000
0001
0010
0100
1000
0001
1000
0100
0010
0001
1000
0001
,
0100
0010
1000
0001
0100
0010
0100
0001
1000
0010
0100
0001
1000
0001
0100
0010
,
1000
0001
0010
0001
1000
0100
0010
0100
1000
0001
1000
0100
0010
0001
1000
0001
,
0100
0010
0100
0001
1000
0010
0100
0001
1000
0001
0100
0010
1000
0001
0100
0001
,
1000
0100
1000
0001
0010
0001
1000
0100
0010
0001
0010
0100
1000
0001
0010
0001
,
1000
0010
1000
0001
0100
0010
0100
0001
1000
0010
0100
0001
1000
0001
0100
0010
,
1000
0001
1000
0100
1000
0001
0010
0100
0010
0001
1000
0100
0010
0100
1000
0001
,
0010
0000
0001
0000
0000
0000
1000
0000
0000
0010
0100
0000
0001
0000
1000
0000
,
0001
0010
0100
0010
0001
1000
0100
0010
0001
1000
0001
0010
0100
1000
0001
1000
,
0010
0100
0001
1000
0010
0100
0010
1000
0001
0100
0010
1000
0001
1000
0010
0100
,
0001
1000
0100
1000
0001
0010
0100
0010
0001
1000
0001
0010
0100
1000
0001
1000
,
0010
0100
0010
1000
0001
0100
0010
1000
0001
1000
0010
0100
0001
1000
0010
1000
,
0001
0010
0001
1000
0100
1000
0001
0010
0100
1000
0100
0010
0001
1000
0100
1000
,
0001
0100
0001
1000
0010
0100
0010
1000
0001
0100
0010
1000
0001
1000
0010
0100
,
0001
1000
0001
0010
0001
1000
0100
0010
0100
1000
0001
0010
0100
0010
0001
1000
,
0010
0100
0001
1000
0001
0100
0001
1000
0010
0000
1000
0000
0001
0000
1000
0000
,
0010
0000
0100
0000
0001
0020
0000
0230
,
0000
0300
1000
0002
0000
0203
0000
0320
,
0000
0030
2000
0000
3100
0020
0000
0032
,
0000
0000
0000
0003
0000
0020
0000
0130
,
1000
0000
0001
0000
0001
1000
0000
0100
,
0000
1000
0001
0100
0000
0010
0000
1000
,
0002
0000
2003
0000
,
3200
0000
0320
0000
,
0031
0100
0001
1000
0010
1000
0100
0010
,
0001
1000
0001
0100
0010
1000
0100
0010
,
0001
1000
0001
1000
0100
1000
0010
0100
,
0001
1000
0001
1000
0100
1000
0010
0100
,
0001
1000
0001
0010
0100
1000
0010
0100
,
0001
1000
0001
1000
0010
1000
0100
0010
,
0002
0000
0000
0203
0000
0000
0320
0000
,
M030
000M
00M0
0M00
000M
00M0
0M00
0000
,
0001
0010
0100
1000
0001
1000
0100
0010
0001
1000
0100
1000
0001
0100
0010
1000
,
0001
1000
0100
1000
0001
0010
0100
1000
0001
0100
0010
1000
0001
0010
0100
0010
,
0001
1000
0010
1000
0001
0100
0001
1000
0100
0010
0100
1000
0001
0100
0010
1000
,
0001
1000
0010
0100
0001
1000
0001
0100
0010
1000
0001
0100
0001
1000
0010
0100
,
0001
1000
0100
0010
0001
0010
0100
1000
0001
0010
0001
1000
0100
0010
0100
1000
,
0001
0100
0010
1000
0010
0100
0001
1000
0010
1000
0001
0100
0010
1000
0001
1000
,
0100
1000
0001
0010
0100
0010
0001
1000
0100
0010
0001
1000
0001
0010
0100
1000
,
0001
1000
0010
0100
0010
1000
0001
0100
0010
1000
0001
0100
0001
1000
0001
1000
,
0100
0010
0100
1000
0001
1000
0100
0010
0001
1000
0100
1000
0001
0100
0010
1000
,
0001
1000
0100
1000
0001
0010
0100
1000
0001
0100
0010
1000
0001
0010
0100
0010
,
0001
1000
0010
1000
0001
0100
0001
1000
0001
0010
0100
1000
0001
1000
0010
0100
,
0001
0100
0010
1000
0001
1000
0100
1000
0010
1000
0001
1000
0100
0010
0001
1000
,
0010
1000
0001
0100
0001
0010
0001
1000
,
0010
1000
0100
0010
0001
0100
0001
1000
,
0001
0010
0001
0000
1000
0100
1000
0000
0001
0100
0010
1000
0001
1000
0100
1000
,
0002
0000
0000
0003
,
1000
0000
0000
0010
0100
0002
0000
0013
,
0100
2000
0000
3110
0000
0011
0000
1002
,
0000
0003
0000
0100
0010
1000
0000
0100
,
0010
0100
1000
0010
0000
0100
0001
1000
,
0020
0000
0030
0100
0001
2000
0000
3100
,
0010
0002
0000
1103
0000
1010
0000
0210
,
0000
0000
0000
0000
0000
0301
1000
0010
,
0200
0000
0300
0000
0100
0001
0010
0100
,
2000
0000
3000
0100
0010
0002
0000
0103
,
0010
2000
0000
3011
0000
0110
0000
1100
,
0000
0000
0000
1000
0001
0020
0000
0130
,
1000
0010
0100
0001
0000
0100
0000
0010
,
1000
0000
0001
0001
,
0010
0000
0100
1000
0000
0010
0000
0200
,
0000
0000
0000
0301
,
2000
0000
0000
0000
0000
0000
0000
0000
0000
0000
0000
0000
0000
0000
0000
3000
,
0001
0000
0100
0000
0010
1000
0010
0000
0100
0000
0001
0000
1000
0100
1000
0000
,
0001
0000
0100
0000
0010
0100
0010
0000
1000
0000
0001
0000
1000
0100
1000
0000
,
0001
0000
0100
0000
0001
0010
0001
0000
1000
0000
0100
0000
1000
0001
1000
0000
,
0010
0000
0100
0000
0001
0100
0001
0000
1000
0000
0100
0000
0010
0001
0010
0000
,
0001
0000
1000
0000
0010
0100
0010
0000
1000
0000
0001
0000
1000
0100
1000
0000
,
0010
0000
0100
0000
0001
1000
0001
0000
0010
0000
0100
0000
0010
0001
0010
0000
,
0100
0000
1000
0000
0001
0100
0001
0000
1000
0000
0010
0000
0100
0010
0100
0000
,
0001
0010
0100
0010
0001
1000
0001
1000
,
0001
0010
0100
0010
0001
1000
0100
0010
0001
1000
0001
0010
0100
1000
0001
1000
,
0010
0100
0001
1000
0010
0100
0010
1000
0001
0100
0010
1000
0001
1000
0010
0100
,
0001
1000
0100
1000
0001
0010
0100
0010
0001
1000
0001
0010
0100
1000
0001
1000
,
0010
0100
0010
1000
0001
0100
0010
1000
0001
1000
0010
0100
0001
1000
0010
1000
,
0001
0010
0001
1000
0100
1000
0001
0010
0100
1000
0100
0010
0001
1000
0100
1000
,
0001
0100
0001
1000
0010
0100
0010
1000
0001
0100
0010
1000
0001
1000
0010
0100
,
0001
1000
0001
1000
0001
1000
0001
1000
0010
0100
0010
0100
0010
0100
0010
0100
,
0001
1000
0001
1000
0001
1000
0001
1000
0100
1000
0100
1000
0100
1000
0002
0000
,
0000
0000
0000
0000
0013
0100
1000
0001
0010
0100
1000
0001
1000
0100
0010
0001
,
1000
0001
0100
0010
1000
0001
0100
0010
0100
0001
1000
0010
0100
0001
1000
0001
,
0100
0010
1000
0001
0010
0001
1000
0100
0010
0100
1000
0001
1000
0100
0010
0001
,
1000
0001
0100
0010
0100
0001
1000
0010
0100
0001
1000
0001
0100
0010
1000
0001
,
0100
0001
1000
0100
1000
0001
0010
0001
1000
0100
0010
0001
0010
0100
1000
0001
,
0010
0001
1000
0010
1000
0001
0100
0010
0100
0001
1000
0010
0100
0001
1000
0001
,
1000
0100
0010
0001
0010
0100
1000
0001
1000
0100
0010
0100
1000
0001
0010
0001
,
2000
0000
3002
0000
0000
1003
0000
0100
0000
0010
0000
0001
1000
0000
0200
0000
,
1300
0001
0010
0001
1000
0100
0010
0100
1000
0001
0010
0100
1000
0100
0010
0001
,
1000
0001
0100
0010
0100
0001
1000
0010
1000
0001
0100
0010
1000
0001
0100
0001
,
1000
0100
0010
0100
1000
0001
0010
0100
1000
0100
0010
0001
1000
0100
0010
0001
,
1000
0001
0100
0010
0100
0001
1000
0010
1000
0001
0100
0010
1000
0001
0100
0001
,
1000
0100
1000
0001
0010
0100
0010
0001
1000
0100
0010
0001
1000
0001
0010
0100
,
1000
0001
0100
0001
1000
0010
1000
0001
0100
0010
1000
0001
1000
0010
0100
0001
,
1000
0100
1000
0001
0010
0100
1000
0001
1000
0100
0010
0001
1000
0100
1000
0001
,
1000
0010
0100
0010
1000
0001
0100
0010
1000
0001
0100
0010
0100
0001
1000
0001
,
1000
0100
0010
0001
1000
0100
0010
0100
1000
0001
0010
0100
1000
0100
0010
0001
,
1000
0001
0100
0010
0100
0001
1000
0010
1000
0001
0100
0010
1000
0001
0100
0001
,
1000
0100
0010
0100
1000
0001
0010
0100
1000
0100
0010
0001
1000
0100
0010
0001
,
1000
0001
0100
0010
0100
0001
1000
0010
1000
0001
0100
0010
1000
0001
0100
0001
,
1000
0010
0100
0001
1000
0100
0010
0100
,
1000
0010
0100
0001
1000
0100
1000
0010
,
0100
0001
0100
0000
0010
1000
0010
0000
1000
0100
0010
0001
1000
0001
1000
0010
,
0200
0000
0000
0300
,
0001
0000
0000
0100
0010
2000
0000
3100
,
0010
0002
0000
1013
0000
0110
0000
2010
,
0000
3000
0000
0010
0100
0001
0000
0010
,
0100
0010
0001
0100
0000
0010
1000
0001
,
0200
0000
0300
0010
1000
0002
0000
0013
,
0100
2000
0000
3101
0000
0110
0000
1020
,
0000
0000
0000
0000
0000
1030
0001
0100
,
0020
0000
0030
0000
0010
1000
0100
0010
,
0002
0000
0003
0010
0100
2000
0000
3010
,
0100
0002
0000
1103
0000
0110
0000
0011
,
0000
0000
0000
0001
1000
0200
0000
0310
,
0001
0100
0010
1000
0000
0010
0000
0100
,
0001
0000
1000
1000
,
0100
0000
0010
0001
0000
0100
0000
0020
,
0000
0000
0000
1030
,
0002
0000
0000
0000
0000
0000
0000
0000
0000
0000
0000
0000
0000
0000
0000
0003
,
1000
0000
0010
0000
0100
0001
0100
0000
0010
0000
1000
0000
0001
0010
0001
0000
,
1000
0000
0010
0000
0100
0010
0100
0000
0001
0000
1000
0000
0001
0010
0001
0000
,
1000
0000
0010
0000
1000
0100
1000
0000
0001
0000
0010
0000
0001
1000
0001
0000
,
0100
0000
0010
0000
1000
0010
1000
0000
0001
0000
0010
0000
0100
1000
0100
0000
,
1000
0000
0001
0000
0100
0010
0100
0000
0001
0000
1000
0000
0001
0010
0001
0000
,
0100
0000
0010
0000
1000
0001
1000
0000
0100
0000
0010
0000
0100
1000
0100
0000
,
0010
0000
0001
0000
1000
0010
1000
0000
0001
0000
0100
0000
0010
0100
0010
0000
,
1000
0001
1000
0100
1000
0001
0100
0010
,
1000
0010
0100
0001
1000
0001
0100
0010
1000
0001
0100
0001
1000
0010
0100
0001
,
1000
0100
0010
0100
1000
0001
0010
0100
1000
0100
0010
0001
1000
0001
0010
0001
,
1000
0010
0100
0001
1000
0010
1000
0001
0100
0010
1000
0001
0100
0001
1000
0001
,
0010
0100
1000
0100
0010
0001
1000
0100
1000
0001
0010
0100
1000
0001
1000
0100
,
1000
0001
0100
0010
0100
0001
1000
0010
0100
0001
1000
0001
0100
0010
1000
0001
,
1000
0100
0010
0001
1000
0001
0010
0100
1000
0001
1000
0100
0010
0001
1000
0001
,
0100
0010
0100
0010
1000
0001
0100
0001
,
1000
0100
0010
0000
0001
0100
0010
0000
1000
0100
0010
0001
1000
0010
0100
0001
,
1000
0100
1000
0010
1000
0001
0100
0001
,
0010
0100
0010
0001
0100
0010
1000
0010
,
0100
0001
1000
0001
0010
0100
1000
0001
,
1000
0010
0100
0001
0100
0010
0100
0001
,
1000
0100
1000
0010
1000
0001
0010
0001
,
0100
0001
1000
0100
0010
0100
1000
0010
,
0100
0001
0100
0001
1000
0100
1000
0100
,
0010
0001
0010
0001
1000
0001
1000
0001
,
1000
0010
1000
0000
0001
0100
0001
0000
1000
0100
0010
0001
1000
0001
0100
0001
,
2000
0000
0000
0000
,
3001
0000
0000
0100
0010
2000
0000
3100
,
0010
0002
0000
0113
0000
1001
0000
2010
,
0000
3000
0000
0010
0100
0001
0000
0010
,
0100
0010
0001
0100
0000
0010
1000
0001
,
0200
0000
0300
0010
1000
0002
0000
0013
,
0100
2000
0000
3101
0000
0110
0000
1020
,
0000
0000
0000
0000
0000
1030
0001
0100
,
0020
0000
0030
0000
0010
1000
0100
0010
,
0002
0000
0003
0010
0100
2000
0000
3010
,
0100
0002
0000
1103
0000
0110
0000
0011
,
0000
0000
0000
0001
1000
0200
0000
0310
,
0001
0100
0010
1000
0000
0010
0000
0100
,
0001
0000
1000
1000
,
0100
0000
0010
0001
0000
0100
0000
0020
,
1030
0100
1000
0010
1000
0001
0010
0001
,
0100
0010
1000
0000
0001
0010
0100
0000
1000
0001
0100
0010
1000
0001
1000
0001
,
1000
0100
0010
0100
1000
0001
0010
0100
1000
0001
1000
0100
0010
0001
1000
0001
,
0100
0010
1000
0001
0100
0010
0100
0001
1000
0010
0100
0001
1000
0001
0100
0010
,
1000
0001
0010
0001
1000
0100
0010
0100
1000
0001
1000
0100
0010
0001
1000
0001
,
0100
0010
0100
0001
1000
0010
0100
0001
1000
0001
0100
0010
1000
0001
0100
0001
,
1000
0100
1000
0001
0010
0001
1000
0100
0010
0001
0010
0100
1000
0001
0010
0001
,
1000
0010
1000
0001
0100
0010
0100
0001
1000
0010
0100
0001
1000
0001
0100
0010
,
1000
0001
1000
0100
1000
0001
0010
0100
0010
0001
1000
0100
0010
0100
1000
0001
,
0100
0000
0010
0000
0000
0000
1000
0000
0000
0001
1000
0000
0001
0000
1000
0000
,
0001
0010
0100
1000
0001
0010
0001
1000
0100
0010
0100
1000
0001
1000
0100
0010
,
0001
1000
0010
1000
0001
0100
0010
0100
0001
1000
0010
0100
0001
1000
0010
0100
,
0001
1000
0100
1000
0001
0010
0001
1000
0100
0010
0001
0010
0100
1000
0001
1000
,
0010
0100
0001
0100
0010
1000
0001
0100
0010
1000
0010
0100
0001
1000
0010
0100
,
0001
1000
0010
1000
0001
0100
0001
1000
,
0100
0010
0100
1000
0001
0100
0010
0100
,
0002
0000
0000
0003
;
